Nouvelle Vague - Дискография (2004 - 2010) [APE, FLAC|Lossless]<French Pop, Bossa Nova, Punk, New wave>


Статистика раздачи
Размер: 2.02 ГБ | Добавлен: 16 мар 2014, 00:53 | Скачали: 1
Сидеров: 22  [0 байт/сек]    Личеров: 21  [0 байт/сек]

Сообщение Гость » 16 мар 2014, 00:53

Nouvelle Vague - Дискография (2004 - 2010)




Немного о проекте:
Для тех, кто не знаком с французким - Nouvelle Vague переводится как новая волна. Это дитя довольно известных в своих кругах французких продюсеров Марка Коллина и Оливера Либо. Они решили записать известные хиты времен расвета панка, а затем и новой волны в стиле босса новы. А что бы звучание было чище, отобрали в качестве вокалисток полдюжины француженок и бразильянок, ни разу неслышавших эти хиты. В целом получилось очень даже приятно.
В качастве жанра указано аж четыре слабо совместимых стиля, а вот подишь ты - совместили.
Nouvelle Vague (2004)

Жанр: French Pop, Bossa Nova, Punk
Продолжительность: 00:49:34
Аудиокодек: APE
Битрейт аудио: Lossless
Треклист:
1. Love Will Tear Us Apart (3:22)
2. Just Can't Get Enough (3:11)
3. In A Manner Of Speaking (4:02)
4. Guns Of Brixton (4:11)
5. This Is Not A Love Song (3:52)
6. Too Drunk To [censored] (2:20)
7. Marian (3:57)
8. Making Plans For Nigel (3:36)
9. A Forest (3:44)
10. I Melt With You (4:05)
11. Teenage Kicks (2:18)
12. Psyche (4:17)
13. Friday Night Saturday Morning (4:27)
14. Sorry For Laughings (6:19)
Код:
Код: Выделить всё
Exact Audio Copy V0.99 prebeta 4 from 23. January 2008

Отчёт EAC об извлечении, выполненном 4. декабря 2008, 11:49

Nouvelle Vague / Nouvelle Vague

Дисковод: Optiarc DVD RW AD-7203A   Adapter: 0  ID: 1

Режим чтения                 : Достоверность
Использование точного потока : Да
Отключение кэша аудио        : Да
Использование указателей C2  : Нет

Коррекция смещения при чтении                     : 48
Способность читать области Lead-in и Lead-out     : Нет
Заполнение пропущенных сэмплов тишиной            : Да
Удаление блоков с тишиной в начале и конце        : Нет
При вычислениях CRC использовались нулевые сэмплы : Да
Интерфейс                                         : Встроенный Win32-интерфейс для Win NT/2000

Выходной формат          : Monkey's Audio (без потерь)
Выбранный битрейт        : High Lossless Compression
Качество                 : Высокий
Добавление ID3-тэга      : Да
Утилита сжатия           : C:\Program Files\Monkey's Audio\MAC.exe

TOC извлечённого CD

     Трек |   Старт  | Длительность | Начальный сектор | Конечный сектор
    ---------------------------------------------------------------------
       1  |  0:00.00 |    3:17.13   |           0      |      14787
       2  |  3:17.13 |    3:07.12   |       14788      |      28824
       3  |  6:24.25 |    3:58.01   |       28825      |      46675
       4  | 10:22.26 |    4:06.71   |       46676      |      65196
       5  | 14:29.22 |    3:47.61   |       65197      |      82282
       6  | 18:17.08 |    2:16.05   |       82283      |      92487
       7  | 20:33.13 |    3:53.22   |       92488      |     109984
       8  | 24:26.35 |    3:32.30   |      109985      |     125914
       9  | 27:58.65 |    3:39.59   |      125915      |     142398
      10  | 31:38.49 |    4:00.60   |      142399      |     160458
      11  | 35:39.34 |    2:13.63   |      160459      |     170496
      12  | 37:53.22 |    4:12.51   |      170497      |     189447
      13  | 42:05.73 |    4:19.57   |      189448      |     208929
      14  | 46:25.55 |    3:09.09   |      208930      |     223113

Характеристики диапазона извлечения и сообщения об ошибках

Выбранный диапазон

     Имя файла D:\Music\Lossless\Nouvelle Vague\Nouvelle Vague - 2004\Nouvelle Vague - Nouvelle Vague.wav

     Пиковый уровень 97.7 %
     Качество диапазона 100.0 %
     CRC копии B1CE5A58
     Копирование... OK

Ошибок не произошло

AccurateRip: сводка

Трек  1  точное извлечение (доверие 14)  [891428B6]
Трек  2  точное извлечение (доверие 14)  [D5E3A780]
Трек  3  точное извлечение (доверие 14)  [F8B6BE82]
Трек  4  точное извлечение (доверие 14)  [0D56867C]
Трек  5  точное извлечение (доверие 14)  [1E3F76D1]
Трек  6  точное извлечение (доверие 14)  [0CAE5B60]
Трек  7  точное извлечение (доверие 14)  [20F8A4EB]
Трек  8  точное извлечение (доверие 13)  [93FD5FB6]
Трек  9  точное извлечение (доверие 14)  [C40AFBA8]
Трек 10  точное извлечение (доверие 14)  [372FC79C]
Трек 11  точное извлечение (доверие 14)  [FB60821A]
Трек 12  точное извлечение (доверие 13)  [CAB55B5B]
Трек 13  точное извлечение (доверие 13)  [3F2B7315]
Трек 14  точное извлечение (доверие 14)  [75A2DA9D]

Все треки извлечены точно

Конец отчёта
Код:
Код: Выделить всё

-----------------------

DON'T MODIFY THIS FILE

-----------------------

PERFORMER: auCDtect Task Manager, ver. 1.5.1RC3 build 1.5.1.4
Copyright (c) 2008-2010 y-soft. All rights reserved
http:/y-soft.org

ANALYZER: auCDtect: CD records authenticity detector, version 0.8.2
Copyright (c) 2004 Oleg Berngardt. All rights reserved.
Copyright (c) 2004 Alexander Djourik. All rights reserved.

FILE: Nouvelle Vague - Nouvelle Vague.ape
  Size: 333219060 Hash: 8538272D6A4B202E97E23A515175C4BE Accuracy: -m0
  Conclusion: CDDA 100%
  Signature: A8DEB5CBCF4FA56BE770CC9B788F41D14A8BC0B0

[/spoiler]
Bande A Part (2006)

Жанр: French Pop, Bossa Nova, New wave
Продолжительность: 00:54:50
Аудиокодек: APE
Битрейт аудио: Lossless
Треклист:
1. The Killing Moon (3:39)
2. Ever Fallen In Love (3:19)
3. Dance With Me (3:40)
4. Don't Go (3:43)
5. Dancing With Myself (3:08)
6. Heart Of Glass (3:34)
7. O Pamela (4:26)
8. Blue Monday (3:06)
9. Human Fly (2:49)
10. Bela Lugosi's Dead (4:00)
11. Escape Myself (3:43)
12. Let Me Go (3:53)
13. Fade To Gray (4:45)
14. Waves (3:16)
15. Eisbaer (3:43)
Код:
Код: Выделить всё
Exact Audio Copy V0.99 prebeta 4 from 23. January 2008

Отчёт EAC об извлечении, выполненном 4. декабря 2008, 12:10

Nouvelle Vague / Bande A Part

Дисковод: Optiarc DVD RW AD-7203A   Adapter: 0  ID: 1

Режим чтения                 : Достоверность
Использование точного потока : Да
Отключение кэша аудио        : Да
Использование указателей C2  : Нет

Коррекция смещения при чтении                     : 48
Способность читать области Lead-in и Lead-out     : Нет
Заполнение пропущенных сэмплов тишиной            : Да
Удаление блоков с тишиной в начале и конце        : Нет
При вычислениях CRC использовались нулевые сэмплы : Да
Интерфейс                                         : Встроенный Win32-интерфейс для Win NT/2000

Выходной формат          : Monkey's Audio (без потерь)
Выбранный битрейт        : High Lossless Compression
Качество                 : Высокий
Добавление ID3-тэга      : Да
Утилита сжатия           : C:\Program Files\Monkey's Audio\MAC.exe

TOC извлечённого CD

     Трек |   Старт  | Длительность | Начальный сектор | Конечный сектор
    ---------------------------------------------------------------------
       1  |  0:00.00 |    3:39.01   |           0      |      16425
       2  |  3:39.01 |    3:19.56   |       16426      |      31406
       3  |  6:58.57 |    3:40.32   |       31407      |      47938
       4  | 10:39.14 |    3:43.44   |       47939      |      64707
       5  | 14:22.58 |    3:08.58   |       64708      |      78865
       6  | 17:31.41 |    3:34.66   |       78866      |      94981
       7  | 21:06.32 |    4:26.25   |       94982      |     114956
       8  | 25:32.57 |    3:06.26   |      114957      |     128932
       9  | 28:39.08 |    2:49.09   |      128933      |     141616
      10  | 31:28.17 |    4:00.17   |      141617      |     159633
      11  | 35:28.34 |    3:43.68   |      159634      |     176426
      12  | 39:12.27 |    3:53.04   |      176427      |     193905
      13  | 43:05.31 |    4:45.29   |      193906      |     215309
      14  | 47:50.60 |    3:16.23   |      215310      |     230032
      15  | 51:07.08 |    3:43.50   |      230033      |     246807

Характеристики диапазона извлечения и сообщения об ошибках

Выбранный диапазон

     Имя файла D:\Music\Lossless\Nouvelle Vague\Nouvelle Vague - 2006 - Bande A Part\Nouvelle Vague - Bande A Part.wav

     Пиковый уровень 100.0 %
     Качество диапазона 99.9 %
     CRC копии 5C0F5B59
     Копирование... OK

Ошибок не произошло

AccurateRip: сводка

Трек  1  точность не определена (достоверность 22)  [3C3D034E], AccurateRip вернул [1D9C661E]
Трек  2  точность не определена (достоверность 22)  [E222E555], AccurateRip вернул [97709789]
Трек  3  точность не определена (достоверность 22)  [9D9EB6A9], AccurateRip вернул [5282DA29]
Трек  4  точность не определена (достоверность 22)  [1FD05ACF], AccurateRip вернул [70155773]
Трек  5  точность не определена (достоверность 22)  [25FA7F95], AccurateRip вернул [77EA9B4E]
Трек  6  точность не определена (достоверность 23)  [749B169B], AccurateRip вернул [D8C3D5CB]
Трек  7  точность не определена (достоверность 21)  [E7765CB3], AccurateRip вернул [E985403A]
Трек  8  точность не определена (достоверность 21)  [76FFA2F4], AccurateRip вернул [033F42F9]
Трек  9  точность не определена (достоверность 21)  [D62229BC], AccurateRip вернул [FB7A6ADC]
Трек 10  точность не определена (достоверность 21)  [53B2150B], AccurateRip вернул [B87B2005]
Трек 11  точность не определена (достоверность 21)  [F6996421], AccurateRip вернул [10AA40C0]
Трек 12  точность не определена (достоверность 22)  [A380210F], AccurateRip вернул [227A4E7E]
Трек 13  точность не определена (достоверность 21)  [97239F83], AccurateRip вернул [A887DB93]
Трек 14  точность не определена (достоверность 22)  [CDDBFE62], AccurateRip вернул [C8EA3011]
Трек 15  точность не определена (достоверность 21)  [661B45AD], AccurateRip вернул [B107E7A5]

Ни один трек не прошёл проверки на точность
В вашей базе может быть иной вариант штамповки диска

Конец отчёта
Код:
Код: Выделить всё

-----------------------

DON'T MODIFY THIS FILE

-----------------------

PERFORMER: auCDtect Task Manager, ver. 1.5.1RC3 build 1.5.1.4
Copyright (c) 2008-2010 y-soft. All rights reserved
http:/y-soft.org

ANALYZER: auCDtect: CD records authenticity detector, version 0.8.2
Copyright (c) 2004 Oleg Berngardt. All rights reserved.
Copyright (c) 2004 Alexander Djourik. All rights reserved.

FILE: Nouvelle Vague - Bande A Part.ape
  Size: 342551372 Hash: F9E59740A3614F0D5D10833DB52EB94A Accuracy: -m0
  Conclusion: CDDA 100%
  Signature: 0E831D6DD3E6ABE46B254F99BEFC14B6477F5A91

[/spoiler]
Aula Magna (Live 07.12.07) (2008)

Жанр: French Pop, Bossa Nova, New Wave
Продолжительность: 00:45:44
Аудиокодек: APE
Битрейт аудио: Lossless
Треклист:

01. The Killing Moon (4:10)
02. Dancing with Myself (2:54)
03. Ever Fallen in Love (3:27)
04. Don't Go (4:10)
05. Heart of Glass (6:05)
06. Blue Monday (2:36)
07. Human Fly (4:06)
08. Guns of Brixton (4:23)
09. Too Drunk to [censored] (7:47)
10. Sweet Dreams (6:07)
Код:
Код: Выделить всё
Exact Audio Copy V0.99 prebeta 4 from 23. January 2008

EAC extraction logfile from 5. August 2008, 9:58

Nouvelle Vague / Aula Magna 07.12.07

Used drive  : TOSHIBA DVD-ROM SD-R6112   Adapter: 1  ID: 0

Read mode               : Secure
Utilize accurate stream : Yes
Defeat audio cache      : Yes
Make use of C2 pointers : No

Read offset correction                      : 0
Overread into Lead-In and Lead-Out          : Yes
Fill up missing offset samples with silence : Yes
Delete leading and trailing silent blocks   : No
Null samples used in CRC calculations       : Yes
Used interface                              : Native Win32 interface for Win NT & 2000

Used output format              : User Defined Encoder
Selected bitrate                : 128 kBit/s
Quality                         : High
Add ID3 tag                     : Yes
Command line compressor         : C:\Program Files\FLAC\flac.exe
Additional command line options : --best -V -T "date=%y" -T "genre=%m" %s

TOC of the extracted CD

     Track |   Start  |  Length  | Start sector | End sector
    ---------------------------------------------------------
        1  |  0:00.00 |  4:09.41 |         0    |    18715
        2  |  4:09.41 |  2:54.01 |     18716    |    31766
        3  |  7:03.42 |  3:27.06 |     31767    |    47297
        4  | 10:30.48 |  4:10.29 |     47298    |    66076
        5  | 14:41.02 |  6:04.49 |     66077    |    93425
        6  | 20:45.51 |  2:36.23 |     93426    |   105148
        7  | 23:21.74 |  4:05.52 |    105149    |   123575
        8  | 27:27.51 |  4:23.16 |    123576    |   143316
        9  | 31:50.67 |  7:46.72 |    143317    |   178338
       10  | 39:37.64 |  6:07.03 |    178339    |   205866

Range status and errors

Selected range

     Filename D:\Dados\a escutar\Nouvelle Vague - Aula Magna 07.12.07\Nouvelle Vague - Aula Magna 07.12.07 (disc 1).wav

     Peak level 100.0 %
     Range quality 100.0 %
     Copy CRC D8494A8C
     Copy OK

No errors occurred

End of status report
Код:
Код: Выделить всё

-----------------------

DON'T MODIFY THIS FILE

-----------------------

PERFORMER: auCDtect Task Manager, ver. 1.5.1RC3 build 1.5.1.4
Copyright (c) 2008-2010 y-soft. All rights reserved
http:/y-soft.org

ANALYZER: auCDtect: CD records authenticity detector, version 0.8.2
Copyright (c) 2004 Oleg Berngardt. All rights reserved.
Copyright (c) 2004 Alexander Djourik. All rights reserved.

FILE: Nouvelle Vague - Aula Magna 07.12.07 (disc 1).ape
  Size: 325270350 Hash: AAD2033AF0305D860CE9046CF2B9E690 Accuracy: -m0
  Conclusion: CDDA 100%
  Signature: 93EEECA2AC1583DECE753E3646E53ABCED17B469


Жанр: French Pop, Bossa Nova, New Wave
Продолжительность: 00:52:54
Аудиокодек: APE
Битрейт аудио: Lossless
Треклист:

01. Israel (7:50)
02. Grey day (4:23)
03. Sweet & Tender Hooligan (3:02)
04. Dance with Me (3:43)
05. Friday Night Saturday Morning (7:51)
06. Bela Lugosi's Dead (5:50)
07. Love Will Tear Us Apart (7:22)
08. Escape Myself (3:42)
09. In a Manner of Speaking (5:03)
10. Just can't Get Enough (4:08)
Код:
Код: Выделить всё
Exact Audio Copy V0.99 prebeta 4 from 23. January 2008

EAC extraction logfile from 5. August 2008, 11:01

Nouvelle Vague / Aula Magna 07.12.07 (disc 2)

Used drive  : TOSHIBA DVD-ROM SD-R6112   Adapter: 1  ID: 0

Read mode               : Secure
Utilize accurate stream : Yes
Defeat audio cache      : Yes
Make use of C2 pointers : No

Read offset correction                      : 0
Overread into Lead-In and Lead-Out          : Yes
Fill up missing offset samples with silence : Yes
Delete leading and trailing silent blocks   : No
Null samples used in CRC calculations       : Yes
Used interface                              : Native Win32 interface for Win NT & 2000

Used output format              : User Defined Encoder
Selected bitrate                : 128 kBit/s
Quality                         : High
Add ID3 tag                     : Yes
Command line compressor         : C:\Program Files\FLAC\flac.exe
Additional command line options : --best -V -T "date=%y" -T "genre=%m" %s

TOC of the extracted CD

     Track |   Start  |  Length  | Start sector | End sector
    ---------------------------------------------------------
        1  |  0:00.00 |  7:49.68 |         0    |    35242
        2  |  7:49.68 |  4:22.62 |     35243    |    54954
        3  | 12:12.55 |  3:02.03 |     54955    |    68607
        4  | 15:14.58 |  3:42.63 |     68608    |    85320
        5  | 18:57.46 |  7:51.18 |     85321    |   120663
        6  | 26:48.64 |  5:50.02 |    120664    |   146915
        7  | 32:38.66 |  7:21.66 |    146916    |   180056
        8  | 40:00.57 |  3:42.35 |    180057    |   196741
        9  | 43:43.17 |  5:02.68 |    196742    |   219459
       10  | 48:46.10 |  4:08.18 |    219460    |   238077

Range status and errors

Selected range

     Filename D:\Dados\a escutar\Nouvelle Vague - Aula Magna 07.12.07\Nouvelle Vague - Aula Magna 07.12.07 (disc 2).wav

     Peak level 100.0 %
     Range quality 100.0 %
     Copy CRC 7AF57420
     Copy OK

No errors occurred

End of status report
Код:
Код: Выделить всё

-----------------------

DON'T MODIFY THIS FILE

-----------------------

PERFORMER: auCDtect Task Manager, ver. 1.5.1RC3 build 1.5.1.4
Copyright (c) 2008-2010 y-soft. All rights reserved
http:/y-soft.org

ANALYZER: auCDtect: CD records authenticity detector, version 0.8.2
Copyright (c) 2004 Oleg Berngardt. All rights reserved.
Copyright (c) 2004 Alexander Djourik. All rights reserved.

FILE: Nouvelle Vague - Aula Magna 07.12.07 (disc 2).ape
  Size: 366155678 Hash: 7F5A4099413541498C5EDC8DC5D4A6DE Accuracy: -m0
  Conclusion: CDDA 99%
  Signature: 5AC1C9AE3CFCD63E57A8EA0BD7D8BFF4EF7FAF2A

Nouvelle Vague 3 (2009)

Жанр: French Pop, Bossa Nova, New Wave
Продолжительность: 00:58:22
Аудиокодек: APE
Битрейт аудио: Lossless
Треклист:

01. Master And Servant [Depeche Mode] (3:20)
02. Blister In The Sun [Violent Femmes] (3:12)
03. Road To Nowhere [Talking Heads] (3:11)
04. All My Colours [Echo & the Bunnymen] (3:58)
05. The American [Simple Minds] (3:43)
06. Heaven [The Psychedelic Furs] (4:09)
07. Parade [Magazine] (4:04)
08. Metal [Gary Numan] (3:47)
09. Ca Plane Pour Moi [Plastic Bertrand] (3:22)
10. Our Lips Are Sealed [The Go-Go's / Fun Boy Three] (3:30)
11. God Save The Queen [Sex Pistols] (2:46)
12. Say Hello Wave Goodbye [Soft Cell] (5:00)
13. So Lonely [The Police] (3:51)
14. Not Knowing [Minimal Compact] (3:04)
15. Aussi Belle Qu' Une Balle [Taxi Girl] (3:32)
16. Such A Shame [Talk Talk] (3:55)
Код:
Код: Выделить всё
Exact Audio Copy V0.99 prebeta 4 from 23. January 2008

EAC extraction logfile from 28. July 2009, 8:27

Nouvelle Vague / 3

Used drive  : PIONEER DVD-RW  DVR-216D   Adapter: 1  ID: 0

Read mode               : Secure
Utilize accurate stream : Yes
Defeat audio cache      : Yes
Make use of C2 pointers : No

Read offset correction                      : 96
Overread into Lead-In and Lead-Out          : No
Fill up missing offset samples with silence : Yes
Delete leading and trailing silent blocks   : No
Null samples used in CRC calculations       : Yes
Used interface                              : Installed external ASPI interface

Used output format : Internal WAV Routines
Sample format      : 44.100 Hz; 16 Bit; Stereo

TOC of the extracted CD

     Track |   Start  |  Length  | Start sector | End sector
    ---------------------------------------------------------
        1  |  0:00.00 |  3:19.40 |         0    |    14964
        2  |  3:19.40 |  3:11.55 |     14965    |    29344
        3  |  6:31.20 |  3:11.00 |     29345    |    43669
        4  |  9:42.20 |  3:57.70 |     43670    |    61514
        5  | 13:40.15 |  3:42.57 |     61515    |    78221
        6  | 17:22.72 |  4:08.43 |     78222    |    96864
        7  | 21:31.40 |  4:03.59 |     96865    |   115148
        8  | 25:35.24 |  3:46.74 |    115149    |   132172
        9  | 29:22.23 |  3:22.16 |    132173    |   147338
       10  | 32:44.39 |  3:29.41 |    147339    |   163054
       11  | 36:14.05 |  2:46.35 |    163055    |   175539
       12  | 39:00.40 |  4:59.59 |    175540    |   198023
       13  | 44:00.24 |  3:51.08 |    198024    |   215356
       14  | 47:51.32 |  3:03.49 |    215357    |   229130
       15  | 50:55.06 |  3:32.26 |    229131    |   245056
       16  | 54:27.32 |  3:54.46 |    245057    |   262652

Range status and errors

Selected range

     Filename G:\Temp\CD\Nouvelle Vague - 3 (2009)\Nouvelle Vague - 3.wav

     Peak level 100.0 %
     Range quality 100.0 %
     Copy CRC 3E41FA6C
     Copy OK

No errors occurred

End of status report
Код:
Код: Выделить всё

-----------------------

DON'T MODIFY THIS FILE

-----------------------

PERFORMER: auCDtect Task Manager, ver. 1.5.1RC3 build 1.5.1.4
Copyright (c) 2008-2010 y-soft. All rights reserved
http:/y-soft.org

ANALYZER: auCDtect: CD records authenticity detector, version 0.8.2
Copyright (c) 2004 Oleg Berngardt. All rights reserved.
Copyright (c) 2004 Alexander Djourik. All rights reserved.

FILE: Nouvelle Vague - 3.ape
  Size: 382882971 Hash: 2AEF7A02D25C2D0857CC04ED27ABED7D Accuracy: -m0
  Conclusion: CDDA 100%
  Signature: 47BA4C0F0E0A5C978AB9DD3FC445AA364D1BFCA9

[/spoiler]
Couleurs sur Paris (2010)

Жанр: French Pop, Bossa Nova, New Wave
Продолжительность: 00:57:27
Аудиокодек: FLAC
Битрейт аудио: Lossless
Треклист:

01. Voilа les Anges (ft. Coeur de Pirate) (3:36)
02. L'Aventurier (ft. Helena Noguerra & Louis Ronan Choisy)(4:22)
03. Week-End a Rome (ft. Vanessa Paradis) (4:39)
04. Putain Putain (ft. Camille) (3:10)
05. Marcia Baila (ft. Adrienne Pauly) (4:18)
06. Anne Cherchait L'Amour (ft. Julien Dore) (3:47)
07. Ophelie (ft. Yelle) (3:28)
08. So Young But So Cold (ft. Charlie Winston) (3:25)
09. Sandy Sandy (ft. Soko) (2:44)
10. Mala Vida (ft. Olivia Ruiz) (3:39)
11. Oublions L'Amerique (ft. Nadeah Miranda) (3:27)
12. Amoureux Solitaires (ft. Hugh Coltman) (2:10)
13. 2 People in a Room (ft. Cocoon) (3:29)
14. Sur Ma Mob (ft. Mareva Galanfer) (4:29)
15. Dereglee (ft. Melanie Pain) (2:37)
16. Je Suis Dejа Parti (ft. Coralie Clement) (4:09)
Код:
Код: Выделить всё

Exact Audio Copy V0.99 prebeta 5 from 4. May 2009

EAC extraction logfile from 8. December 2010, 21:55

Nouvelle Vague / Couleurs sur Paris

Used drive  : ATAPI   iHAS124   Y   Adapter: 1  ID: 1

Read mode               : Secure
Utilize accurate stream : Yes
Defeat audio cache      : Yes
Make use of C2 pointers : No

Read offset correction                      : 48
Overread into Lead-In and Lead-Out          : No
Fill up missing offset samples with silence : Yes
Delete leading and trailing silent blocks   : No
Null samples used in CRC calculations       : Yes
Used interface                              : Installed external ASPI interface
Gap handling                                : Appended to previous track

Used output format              : User Defined Encoder
Selected bitrate                : 1024 kBit/s
Quality                         : High
Add ID3 tag                     : No
Command line compressor         : C:\Program Files\Exact Audio Copy\FLAC\FLAC.EXE
Additional command line options : -8 -V -T "ARTIST=%a" -T "TITLE=%t" -T "ALBUM=%g" -T "DATE=%y" -T "TRACKNUMBER=%n" -T "GENRE=%m" -T "COMMENT=EAC FLAC -8" %s

TOC of the extracted CD

     Track |   Start  |  Length  | Start sector | End sector
    ---------------------------------------------------------
        1  |  0:00.00 |  3:35.43 |         0    |    16167
        2  |  3:35.43 |  4:22.24 |     16168    |    35841
        3  |  7:57.67 |  4:39.06 |     35842    |    56772
        4  | 12:36.73 |  3:09.69 |     56773    |    71016
        5  | 15:46.67 |  4:17.40 |     71017    |    90331
        6  | 20:04.32 |  3:46.55 |     90332    |   107336
        7  | 23:51.12 |  3:28.13 |    107337    |   122949
        8  | 27:19.25 |  3:24.50 |    122950    |   138299
        9  | 30:44.00 |  2:44.36 |    138300    |   150635
       10  | 33:28.36 |  3:38.50 |    150636    |   167035
       11  | 37:07.11 |  3:26.56 |    167036    |   182541
       12  | 40:33.67 |  2:09.57 |    182542    |   192273
       13  | 42:43.49 |  3:29.18 |    192274    |   207966
       14  | 46:12.67 |  4:29.01 |    207967    |   228142
       15  | 50:41.68 |  2:36.50 |    228143    |   239892
       16  | 53:18.43 |  4:08.63 |    239893    |   258555

Track  1

     Filename I:\Bitt_Upload\Nouvelle Vague-[2010]-Couleurs sue Paris_flac\01. Nouvelle Vague - Voilа les Anges (ft. Coeur de Pirate).wav

     Pre-gap length  0:00:02.00

     Peak level 100.0 %
     Track quality 100.0 %
     Test CRC 8BCB9630
     Copy CRC 8BCB9630
     Track not present in AccurateRip database
     Copy OK

Track  2

     Filename I:\Bitt_Upload\Nouvelle Vague-[2010]-Couleurs sue Paris_flac\02. Nouvelle Vague - L'Aventurier (ft. Helena Noguerra & Louis Ronan Choisy).wav

     Peak level 100.0 %
     Track quality 99.9 %
     Test CRC AF4F74F3
     Copy CRC AF4F74F3
     Track not present in AccurateRip database
     Copy OK

Track  3

     Filename I:\Bitt_Upload\Nouvelle Vague-[2010]-Couleurs sue Paris_flac\03. Nouvelle Vague - Week-End a Rome (ft. Vanessa Paradis).wav

     Peak level 97.3 %
     Track quality 100.0 %
     Test CRC F7B118F4
     Copy CRC F7B118F4
     Track not present in AccurateRip database
     Copy OK

Track  4

     Filename I:\Bitt_Upload\Nouvelle Vague-[2010]-Couleurs sue Paris_flac\04. Nouvelle Vague - Putain Putain (ft. Camille).wav

     Peak level 99.3 %
     Track quality 99.9 %
     Test CRC 7EB5CF27
     Copy CRC 7EB5CF27
     Track not present in AccurateRip database
     Copy OK

Track  5

     Filename I:\Bitt_Upload\Nouvelle Vague-[2010]-Couleurs sue Paris_flac\05. Nouvelle Vague - Marcia Baila (ft. Adrienne Pauly).wav

     Peak level 98.9 %
     Track quality 100.0 %
     Test CRC 5FA09DAF
     Copy CRC 5FA09DAF
     Track not present in AccurateRip database
     Copy OK

Track  6

     Filename I:\Bitt_Upload\Nouvelle Vague-[2010]-Couleurs sue Paris_flac\06. Nouvelle Vague - Anne Cherchait L'Amour (ft. Julien Dore).wav

     Peak level 100.0 %
     Track quality 100.0 %
     Test CRC 1CD3DBAE
     Copy CRC 1CD3DBAE
     Track not present in AccurateRip database
     Copy OK

Track  7

     Filename I:\Bitt_Upload\Nouvelle Vague-[2010]-Couleurs sue Paris_flac\07. Nouvelle Vague - Ophelie (ft. Yelle).wav

     Peak level 98.8 %
     Track quality 100.0 %
     Test CRC 25EBCF25
     Copy CRC 25EBCF25
     Track not present in AccurateRip database
     Copy OK

Track  8

     Filename I:\Bitt_Upload\Nouvelle Vague-[2010]-Couleurs sue Paris_flac\08. Nouvelle Vague - So Young But So Cold (ft. Charlie Winston).wav

     Peak level 98.8 %
     Track quality 100.0 %
     Test CRC 8AFDE604
     Copy CRC 8AFDE604
     Track not present in AccurateRip database
     Copy OK

Track  9

     Filename I:\Bitt_Upload\Nouvelle Vague-[2010]-Couleurs sue Paris_flac\09. Nouvelle Vague - Sandy Sandy (ft. Soko).wav

     Peak level 100.0 %
     Track quality 100.0 %
     Test CRC C353ACCC
     Copy CRC C353ACCC
     Track not present in AccurateRip database
     Copy OK

Track 10

     Filename I:\Bitt_Upload\Nouvelle Vague-[2010]-Couleurs sue Paris_flac\10. Nouvelle Vague - Mala Vida (ft. Olivia Ruiz).wav

     Peak level 100.0 %
     Track quality 100.0 %
     Test CRC 9D84BEE6
     Copy CRC 9D84BEE6
     Track not present in AccurateRip database
     Copy OK

Track 11

     Filename I:\Bitt_Upload\Nouvelle Vague-[2010]-Couleurs sue Paris_flac\11. Nouvelle Vague - Oublions L'Amerique (ft. Nadeah Miranda).wav

     Peak level 100.0 %
     Track quality 100.0 %
     Test CRC 28C329D4
     Copy CRC 28C329D4
     Track not present in AccurateRip database
     Copy OK

Track 12

     Filename I:\Bitt_Upload\Nouvelle Vague-[2010]-Couleurs sue Paris_flac\12. Nouvelle Vague - Amoureux Solitaires (ft. Hugh Coltman).wav

     Peak level 100.0 %
     Track quality 100.0 %
     Test CRC 1FDF331B
     Copy CRC 1FDF331B
     Track not present in AccurateRip database
     Copy OK

Track 13

     Filename I:\Bitt_Upload\Nouvelle Vague-[2010]-Couleurs sue Paris_flac\13. Nouvelle Vague - 2 People in a Room (ft. Cocoon).wav

     Peak level 100.0 %
     Track quality 100.0 %
     Test CRC EFCBDF90
     Copy CRC EFCBDF90
     Track not present in AccurateRip database
     Copy OK

Track 14

     Filename I:\Bitt_Upload\Nouvelle Vague-[2010]-Couleurs sue Paris_flac\14. Nouvelle Vague - Sur Ma Mob (ft. Mareva Galanfer).wav

     Peak level 98.8 %
     Track quality 100.0 %
     Test CRC F77C75E2
     Copy CRC F77C75E2
     Track not present in AccurateRip database
     Copy OK

Track 15

     Filename I:\Bitt_Upload\Nouvelle Vague-[2010]-Couleurs sue Paris_flac\15. Nouvelle Vague - Dereglee (ft. Melanie Pain).wav

     Peak level 98.9 %
     Track quality 100.0 %
     Test CRC FF11C08D
     Copy CRC FF11C08D
     Track not present in AccurateRip database
     Copy OK

Track 16

     Filename I:\Bitt_Upload\Nouvelle Vague-[2010]-Couleurs sue Paris_flac\16. Nouvelle Vague - Je Suis Dejа Parti (ft. Coralie Clement).wav

     Peak level 98.8 %
     Track quality 100.0 %
     Test CRC 34BFFAF8
     Copy CRC 34BFFAF8
     Track not present in AccurateRip database
     Copy OK

None of the tracks are present in the AccurateRip database

No errors occurred

End of status report

Код:
Код: Выделить всё

-----------------------

DON'T MODIFY THIS FILE

-----------------------

PERFORMER: auCDtect Task Manager, ver. 1.5.1RC3 build 1.5.1.4
Copyright (c) 2008-2010 y-soft. All rights reserved
http:/y-soft.org

ANALYZER: auCDtect: CD records authenticity detector, version 0.8.2
Copyright (c) 2004 Oleg Berngardt. All rights reserved.
Copyright (c) 2004 Alexander Djourik. All rights reserved.

FILE: 16. Nouvelle Vague - Je Suis Dejа Parti (ft. Coralie Clement).flac
  Size: 26699858 Hash: 1CA33520A32C352C27AA609A7B5C9AE9 Accuracy: -m0
  Conclusion: CDDA 100%
  Signature: BC048B2EB50E9F70E1FE65E5839B379B1BE90CEA
FILE: 15. Nouvelle Vague - Dereglee (ft. Melanie Pain).flac
  Size: 17315072 Hash: 8377522BAEF9A9ABE1DF2E728AE38F69 Accuracy: -m0
  Conclusion: CDDA 100%
  Signature: E03EC3CCB6002A566DC4ACCEF7AAA733FE7CC2DD
FILE: 14. Nouvelle Vague - Sur Ma Mob (ft. Mareva Galanfer).flac
  Size: 31271221 Hash: 99227011F1B2EE55414276550A59CDB0 Accuracy: -m0
  Conclusion: CDDA 100%
  Signature: 4799ED508555895336CBD75CC64BDFB8935EB0BB
FILE: 13. Nouvelle Vague - 2 People in a Room (ft. Cocoon).flac
  Size: 22551035 Hash: 909CFC510C508441D4D16942B7D252A0 Accuracy: -m0
  Conclusion: CDDA 100%
  Signature: 48EB06BF4C2823FB8EEF35B3F1CDBAD533E14D4E
FILE: 12. Nouvelle Vague - Amoureux Solitaires (ft. Hugh Coltman).flac
  Size: 14289882 Hash: EEA5CEBCD288833E89963FDF50AF36A3 Accuracy: -m0
  Conclusion: CDDA 100%
  Signature: C755C7B6971A288E015DE1B0EB489FC636F0CFDD
FILE: 11. Nouvelle Vague - Oublions L'Amerique (ft. Nadeah Miranda).flac
  Size: 23445694 Hash: A58D028E923582CACDC5D239C73CF85C Accuracy: -m0
  Conclusion: CDDA 100%
  Signature: FCCFAD63DACA6F6AEE3E8D916DB0273E8D833830
FILE: 10. Nouvelle Vague - Mala Vida (ft. Olivia Ruiz).flac
  Size: 25640844 Hash: E40EEA3E12DD5F0ADEB8081155DBDE28 Accuracy: -m0
  Conclusion: CDDA 100%
  Signature: B7201242A5823E0809469F028CA788D54DFBB880
FILE: 09. Nouvelle Vague - Sandy Sandy (ft. Soko).flac
  Size: 18777235 Hash: 86578FF546857508035834A04555F7C3 Accuracy: -m0
  Conclusion: CDDA 100%
  Signature: 3AC7CDE1C8F8499DB19EFEAC8F0E0FC1E1577FF3
FILE: 08. Nouvelle Vague - So Young But So Cold (ft. Charlie Winston).flac
  Size: 21656336 Hash: 5B7A5176CDE912DA160E0ABC656E3EC8 Accuracy: -m0
  Conclusion: CDDA 100%
  Signature: B1F904BC996DB7F77DDC805EBF058C01CD8C3C4D
FILE: 07. Nouvelle Vague - Ophelie (ft. Yelle).flac
  Size: 20530758 Hash: FB8B1FBD5119776B6E410D868F3E80E0 Accuracy: -m0
  Conclusion: CDDA 100%
  Signature: 673CD05D010589FB777D33305BC6ADA843617EC8
FILE: 06. Nouvelle Vague - Anne Cherchait L'Amour (ft. Julien Dore).flac
  Size: 26083063 Hash: BFC473D3CFD23D4306A85D4855736F29 Accuracy: -m0
  Conclusion: CDDA 100%
  Signature: 245533AE32655E048EC9D80755B633860FAACA5A
FILE: 05. Nouvelle Vague - Marcia Baila (ft. Adrienne Pauly).flac
  Size: 28459121 Hash: A3F008D2B0629820FBC39D30D12B26D4 Accuracy: -m0
  Conclusion: CDDA 100%
  Signature: 0D8F8CEBBCF0D328FC2F2BB812C27B23228BECB7
FILE: 04. Nouvelle Vague - Putain Putain (ft. Camille).flac
  Size: 21279119 Hash: 8462C36BDC392AA0F3F19B79DECAA34B Accuracy: -m0
  Conclusion: CDDA 100%
  Signature: AC5A370418098197C964D706FDEC89548FE950FB
FILE: 03. Nouvelle Vague - Week-End a Rome (ft. Vanessa Paradis).flac
  Size: 33512048 Hash: B9B686A6148A3B652E663E917343C330 Accuracy: -m0
  Conclusion: CDDA 100%
  Signature: 55910632539B048C289131C1B8B6A5EB29660647
FILE: 02. Nouvelle Vague - L'Aventurier (ft. Helena Noguerra & Louis Ronan Choisy).flac
  Size: 31289800 Hash: 65AD08B08FA1AC90CE5B8932986BD7D9 Accuracy: -m0
  Conclusion: CDDA 100%
  Signature: CB2BB8B4BDEFECC63C3F940B436E3D30BD74C865
FILE: 01. Nouvelle Vague - Voilа les Anges (ft. Coeur de Pirate).flac
  Size: 23702180 Hash: D4E02C07319D5C4A29075707AAEF6668 Accuracy: -m0
  Conclusion: CDDA 99%
  Signature: 14C2F2AA32A524DF71AD4DAFA944CC7A2F22EBA3

[/spoiler]
Правила, инструкции, FAQ!!!
Торрент  Добавлен [16 мар 2014, 00:53] Скачать торрент Магнет ссылка
Скачать торрент
18.91 КБ

Статус
Проверен 
 
Размер  2.02 ГБ
Приватный: Нет (DHT включён)
.torrent скачан  1
Как залить торрент? | Как скачать Torrent? | Как смотреть и слушать онлайн?  
Гость
 



Вернуться в Дискографии (Зарубежные)

Кто сейчас на конференции

Сейчас этот форум просматривают: нет зарегистрированных пользователей и гости: 0