Ночь страха / Fright Night (2011) [1080p] BDRip 3D [Горизонтальная анаморфная стереопара]

Статистика раздачи
Размер: 11.34 ГБ | Добавлен: 28 сен 2013, 23:21 | Скачали: 1
Сидеров: 8  [0 байт/сек]    Личеров: 6  [0 байт/сек]

Сообщение Admin » 28 сен 2013, 23:21

Ночь страха / Fright Night (2011)
BDRip 3D

Русское название: Ночь страха
Оригинальное название: Fright Night
Год выпуска: 2011
Жанр: ужасы, триллер, комедия
Страна: США, Индия
Описание фильма:
Выпускник школы Чарли Брюстер находится на пике своей ученической карьеры: он популярен среди сверстников и встречается с самой очаровательной девушкой во всей школе. Он становится настолько крут, что начинает избегать своего когда-то лучшего друга Эда. Неприятности для Чарли начинаются, когда по соседству прописывается Джерри.
На первый взгляд он кажется хорошим парнем, но все же что-то с ним не так, хотя никто этого не замечает, даже мать Чарли. После анализа странного поведения соседа Чарли приходит к ужасному, но, увы, единственному верному заключению: под лживой маской Джерри скрывается кровожадный вампир, который сделал его район своими охотничьими угодьями.
Не в силах убедить кого бы то ни было в своей правоте, Чарли обращается за помощью и советом к популярному иллюзионисту из Лас-Вегаса Питеру Винсенту, рассчитывая, что кудесник поможет ему избавиться от монстра...
Режиссер: Крэйг Гиллеспи
Актеры: Колин Фаррелл, Антон Ельчин, Тони Коллетт, Дэвид Теннант, Имоджен Путс, Кристофер Минц-Плассе, Дэйв Франко, Рейд Юинг, Уилл Дентон, Сандра Вергара
Рейтинги:
Дата мировой премьеры: 14 августа 2011
Дата премьеры (РФ): 22 сентября 2011
Релиз на Blu-Ray (РФ): 13 декабря 2011
Перевод: Русский дубляж
Субтитры: нет
Продолжительность: 01:45:58
Контейнер: MKV
Качество видео: BDRip 3D
Формат 3D: Half SideBySide / Горизонтальная анаморфная стереопара
Видеокодек: MPEG-4 AVC Video / High Profile 4.1
Битрейт видео: ~ 14,7 Мбит/сек
Размер кадра: 1920x1080p
Аудиокодек: AC3
Аудио: Русский Dolby Digital Audio 5.1 / 48 kHz / 640 kbps (DUB - BD EUR)
Общее
Уникальный идентификатор : 206254846003771727034499645917245866902 (0x9B2B3D0865664A15AAE5196611920396)

Полное имя : H:\Rip\Ночь страха BDRip 3D\FRIGHT_NIGHT_BDRip_3D.mkv
Формат : Matroska
Размер файла : 11,3 Гбайт
Продолжительность : 1 ч. 45 м.
Общий поток : 15,3 Мбит/сек
Название фильма : FRIGHT NIGHT
Дата кодирования : UTC 2011-12-20 14:31:55
Программа кодирования : mkvmerge v4.8.0 ('I Got The...') сборка от May 24 2011 03:12:58
Библиотека кодирования : libebml v1.2.0 + libmatroska v1.1.0

Видео
Идентификатор : 1
Формат : AVC
Формат/Информация : Advanced Video Codec
Профиль формата :
Параметр CABAC формата : Да
Параметр ReFrames формата : 3 кадра
Параметры GOP формата : M=4, N=24
Идентификатор кодека : V_MPEG4/ISO/AVC
Продолжительность : 1 ч. 45 м.
Вид битрейта : Переменный
Битрейт : 14,7 Мбит/сек
Максимальный битрейт : 25,0 Мбит/сек
Ширина : 1920 пикс.
Высота : 1080 пикс.
Соотношение сторон : 16:9
Частота кадров : 23,976 кадр/сек
Цветовое пространство : YUV
Подвыборка цветности : 4:2:0
Битовая глубина : 8 бит
Тип развёртки : Прогрессивная
Бит/(Пиксели*Кадры) : 0.295
Размер потока : 10,6 Гбайт (94%)
Заголовок : video
Библиотека кодирования : x264 core 116 r2074 2641b9e
Настройки программы : cabac=1 / ref=4 / deblock=1:-1:-1 / analyse=0x3:0x133 / me=umh / subme=7 / psy=1 / psy_rd=1.00:0.15 / mixed_ref=1 / me_range=24 / chroma_me=1 / trellis=1 / 8x8dct=1 / cqm=0 / deadzone=21,11 / fast_pskip=1 / chroma_qp_offset=-3 / threads=6 / sliced_threads=0 / slices=4 / nr=0 / decimate=1 / interlaced=0 / bluray_compat=0 / constrained_intra=0 / bframes=3 / b_pyramid=1 / b_adapt=1 / b_bias=0 / direct=1 / weightb=1 / open_gop=0 / weightp=0 / keyint=24 / keyint_min=2 / scenecut=40 / intra_refresh=0 / rc_lookahead=24 / rc=2pass / mbtree=1 / bitrate=14690 / ratetol=1.0 / qcomp=0.60 / qpmin=0 / qpmax=69 / qpstep=4 / cplxblur=20.0 / qblur=0.5 / vbv_maxrate=25000 / vbv_bufsize=20000 / nal_hrd=vbr / ip_ratio=1.40 / aq=1:1.00
Язык : English

Аудио
Идентификатор : 2
Формат : AC-3
Формат/Информация : Audio Coding 3
Расширение режима : CM (complete main)
Идентификатор кодека : A_AC3
Продолжительность : 1 ч. 45 м.
Вид битрейта : Постоянный
Битрейт : 640 Кбит/сек
Каналы : 6 каналов
Расположение каналов : Front: L C R, Side: L R, LFE
Частота : 48,0 КГц
Битовая глубина : 16 бит
Метод сжатия : С потерями
Размер потока : 485 Мбайт (4%)
Заголовок : audio rus
Язык : Russian

Меню
00:00:00.000 : en:00:00:00.000
00:03:18.824 : en:00:03:18.824
00:08:09.531 : en:00:08:09.531
00:13:27.682 : en:00:13:27.682
00:18:02.790 : en:00:18:02.790
00:22:20.130 : en:00:22:20.130
00:29:50.789 : en:00:29:50.789
00:33:50.862 : en:00:33:50.862
00:40:25.757 : en:00:40:25.757
00:45:05.202 : en:00:45:05.202
00:52:02.786 : en:00:52:02.786
00:58:06.358 : en:00:58:06.358
01:04:17.645 : en:01:04:17.645
01:09:29.624 : en:01:09:29.624
01:16:26.332 : en:01:16:26.332
01:19:17.670 : en:01:19:17.670
01:24:27.229 : en:01:24:27.229
01:30:26.796 : en:01:30:26.796
01:36:37.333 : en:01:36:37.333
01:38:21.395 : en:01:38:21.395
При создании рипа разностность левого и правого ракурсов (глубина стереоэффекта) исходного Blu-ray 3D не изменена. Видео сжато с минимальными потерями и сведено в горизонтальную анаморфную стереопару.
Внимание: При использовании софтового 3D плеера ArcSoft TotalMedia Theatre 3 или Arcsoft TotalMedia Theatre Platinum 5 просмотр возможен как в 3D, так и в 2D режиме без двоения экрана.
Скриншоты:



Время раздачи:
24 / 7- круглосуточно
Правила, инструкции, FAQ!!!
Торрент  Добавлен [28 сен 2013, 23:21] Скачать торрент Магнет ссылка
Скачать торрент
[ Размер 57.52 КБ / Просмотров 16 ]

Статус
Проверен 
 
Размер  11.34 ГБ
Приватный: Нет (DHT включён)
.torrent скачан  1
Как залить торрент? | Как скачать Torrent? | Как смотреть и слушать онлайн?  
Admin
 


  • Похожие торренты
    Ответы
    Просмотры
    Последнее сообщение

Вернуться в HD-Video в 3D

Кто сейчас на конференции

Сейчас этот форум просматривают: нет зарегистрированных пользователей и гости: 0