Невероятное путешествие мистера Спивета / The Young and Prodigious T.S. Spivet (2013) BDRip [1080p] 3D [Вертикальная анаморфная стереопара]


Статистика раздачи
Размер: 11.65 ГБ | Добавлен: 09 авг 2014, 21:28 | Скачали: 0
Сидеров: 4  [0 байт/сек]    Личеров: 1  [0 байт/сек]

Сообщение Гость » 09 авг 2014, 21:28

Год выпуска: 2013
Жанр: Драма, Приключения, Семейный

Описание фильма:
История о приключениях 12-летнего гения по имени Т. С. Спивет, избранные работы которого его приятель рискнул отправить в один известный вашингтонский институт. Неожиданно Спивету звонят из этого института с приглашением приехать забрать престижную награду и заодно выступить с докладом. Мальчик сбегает из дома, но ему нужно проехать через всю страну…

Режиссер: Жан-Пьер Жёне
Актеры: Кайл Кэтлетт, Хелена Бонем Картер, Джуди Дэвис, Каллум Кит, Ренни Ниам Уилсон, Джейкоб Дейвис, Доминик Пинон, Рик Мерсер, Джулиан Ричингс, Ричард Жютра

Продолжительность: 01:45:03
Качество видео: BDRip
Перевод: 2x Одноголосый закадровый, любительский


Дата мировой премьеры: 28 сентября 2013
Дата российской премьеры: 30 октября 2014
Видеокодек: MPEG-4 AVC/H.264
Битрейт видео: ~14,0 Мбит/сек
Размер кадра: 1920x1080
Аудио 1: AC3 5.1, 448 kbps [Русский - PashaUp]
Аудио 2: AC3 5.1, 448 kbps [Русский - qwerty]
Аудио 3: AC3 5.1, 640 kbps [Английский]
Общее
Уникальный идентификатор : 215321817528704967917196272795230475431 (0xA1FD793E3B816D51965436AD465D14A7)
Полное имя : F:\my films\SPIVET_3D.mkv
Формат : Matroska
Версия формата : Version 2
Размер файла : 11,7 Гбайт
Продолжительность : 1 ч. 45 м.
Общий поток : 15,9 Мбит/сек
Название фильма : SPIVET_3D_Crop_O/U
Дата кодирования : UTC 2014-06-21 12:54:05
Программа кодирования : mkvmerge v5.3.0 ('I could have danced') built on Feb 9 2012 10:38:07
Библиотека кодирования : libebml v1.2.3 + libmatroska v1.3.0

Видео
Идентификатор : 1
Формат : AVC
Формат/Информация : Advanced Video Codec
Профиль формата :
Параметр CABAC формата : Да
Параметр ReFrames формата : 4 кадра
Идентификатор кодека : V_MPEG4/ISO/AVC
Продолжительность : 1 ч. 45 м.
Битрейт : 14,0 Мбит/сек
Ширина : 1920 пикселей
Высота : 1080 пикселей
Соотношение сторон : 16:9
Режим частоты кадров : Постоянный
Частота кадров : 23,976 кадра/сек
Цветовое пространство : YUV
Субдискретизация насыщенности : 4:2:0
Битовая глубина : 8 бит
Тип развёртки : Прогрессивная
Бит/(Пиксели*Кадры) : 0.282
Размер потока : 10,3 Гбайт (88%)
Заголовок : rip by I/N
Библиотека кодирования : x264 core 128 r2216M 198a7ea
Настройки программы : cabac=1 / ref=4 / deblock=1:-3:-3 / analyse=0x3:0x133 / me=umh / subme=10 / psy=1 / psy_rd=1.00:0.15 / mixed_ref=1 / me_range=32 / chroma_me=1 / trellis=2 / 8x8dct=1 / cqm=0 / deadzone=21,11 / fast_pskip=1 / chroma_qp_offset=-3 / threads=8 / lookahead_threads=1 / sliced_threads=0 / nr=0 / decimate=1 / interlaced=0 / bluray_compat=0 / constrained_intra=0 / bframes=6 / b_pyramid=2 / b_adapt=2 / b_bias=0 / direct=3 / weightb=1 / open_gop=0 / weightp=2 / keyint=230 / keyint_min=23 / scenecut=40 / intra_refresh=0 / rc_lookahead=60 / rc=crf / mbtree=1 / crf=17.0 / qcomp=0.60 / qpmin=0 / qpmax=69 / qpstep=4 / vbv_maxrate=40000 / vbv_bufsize=30000 / crf_max=30.0 / nal_hrd=none / ip_ratio=1.40 / aq=1:1.00
Default : Да
Forced : Нет

Аудио #1
Идентификатор : 2
Формат : AC-3
Формат/Информация : Audio Coding 3
Расширение режима : CM (complete main)
Параметр Endianness формата : Big
Идентификатор кодека : A_AC3
Продолжительность : 1 ч. 45 м.
Вид битрейта : Постоянный
Битрейт : 448 Кбит/сек
Каналы : 6 каналов
Расположение каналов : Front: L C R, Side: L R, LFE
Частота : 48,0 КГц
Битовая глубина : 16 бит
Метод сжатия : С потерями
Размер потока : 337 Мбайт (3%)
Заголовок : VO - PashaUp
Язык : Russian
Default : Да
Forced : Нет

Аудио #2
Идентификатор : 3
Формат : AC-3
Формат/Информация : Audio Coding 3
Расширение режима : CM (complete main)
Параметр Endianness формата : Big
Идентификатор кодека : A_AC3
Продолжительность : 1 ч. 45 м.
Вид битрейта : Постоянный
Битрейт : 448 Кбит/сек
Каналы : 6 каналов
Расположение каналов : Front: L C R, Side: L R, LFE
Частота : 48,0 КГц
Битовая глубина : 16 бит
Метод сжатия : С потерями
Размер потока : 337 Мбайт (3%)
Заголовок : VO - qwerty
Язык : Russian
Default : Нет
Forced : Нет

Аудио #3
Идентификатор : 4
Формат : AC-3
Формат/Информация : Audio Coding 3
Расширение режима : CM (complete main)
Параметр Endianness формата : Big
Идентификатор кодека : A_AC3
Продолжительность : 1 ч. 45 м.
Вид битрейта : Постоянный
Битрейт : 640 Кбит/сек
Каналы : 6 каналов
Расположение каналов : Front: L C R, Side: L R, LFE
Частота : 48,0 КГц
Битовая глубина : 16 бит
Метод сжатия : С потерями
Размер потока : 481 Мбайт (4%)
Язык : English
Default : Нет
Forced : Нет

Меню
00:00:00.000 : en:(01)00:00:00:000
00:05:48.931 : en:(02)00:05:48:931
00:14:55.728 : en:(03)00:14:55:728
00:20:51.500 : en:(04)00:20:51:500
00:29:59.672 : en:(05)00:29:59:672
00:38:31.726 : en:(06)00:38:31:726
00:46:13.812 : en:(07)00:46:13:812
00:55:29.034 : en:(08)00:55:29:034
01:06:40.997 : en:(09)01:06:40:997
01:13:58.100 : en:(10)01:13:58:100
01:26:25.471 : en:(11)01:26:25:471
01:36:23.486 : en:(12)01:36:23:486
01:45:03.297 : en:(13)01:45:03:297
Проверено на встроенном плейере ТВ Samsung-D6500

Скриншоты:


Справа и слева у видеоряда обрезано по 248р, что дает возможность просмотра на полный экран (без черных полос) на телевизорах с соотношением сторон 16:9 без изменения пропорций. На мой взгляд плюсы данных рипов- это более глубокое восприятие 3D-эффектов (конечно там где они есть) К минусам отнесу- вынужденное обрезание кадра по бокам. Так-что господа- выбор за вами!
Всем приятного просмотра!
Правила, инструкции, FAQ!!!
Торрент  Добавлен [09 авг 2014, 21:28] Скачать торрент Магнет ссылка
Скачать торрент
30.13 КБ

Статус
Проверен 
 
Размер  11.65 ГБ
Приватный: Нет (DHT включён)
.torrent скачан  0
Как залить торрент? | Как скачать Torrent? | Как смотреть и слушать онлайн?  
Гость
 



Вернуться в HD-Video в 3D

Кто сейчас на конференции

Сейчас этот форум просматривают: нет зарегистрированных пользователей и гости: 2