(Neo Progressive) [CD] Grand Tour - 2 album Discography [so far] - (2015-2019), FLAC (image+.cue+artwork), lossless


Статистика раздачи
Размер: 1.09 ГБ | Добавлен: 09 мар 2019, 11:24 | Скачали: 0
Сидеров: 16  [0 байт/сек]    Личеров: 5  [0 байт/сек]

Сообщение Гость » 09 мар 2019, 11:24

Discography [so far] (2015-2019)
Жанр: Neo Progressive | Годы издания дисков: 2015-2019 | Страна: UK
Label: Grand Tour music recordings | Тип рипа: tracks | Битрейт аудио: lossless | Источник: свои рипы
Продолжительность: 1:13:59 + 1:08:01
Треклист:
1. It's Come to This (4:59)
2. The Grand Tour (Part 1) (8:29)
3. Time Runs Out (9:37)
3. The Horn of Plenty (5:52)
4. Little Boy and the Fat Man (7:47)
5. On the Radio (11:31)
6. Heavy on the Beach (11:18)
7. The Grand Tour (Part 2) (14:26)
Total Time: 73:59
Музыканты:
- Hew Montgomery / keyboards, bass, backing vocals
- Mark Spalding / guitar
- Joe Cairney / vocals
- Bruce Levick / drums
Код: Выделить всё
Exact Audio Copy V1.0 beta 4 from 7. December 2014
EAC extraction logfile from 6. March 2015, 21:20
Grand Tour / Heavy on the Beach
Used drive  : ASUS    DRW-24B1LT   Adapter: 1  ID: 2
Read mode               : Secure
Utilize accurate stream : Yes
Defeat audio cache      : Yes
Make use of C2 pointers : No
Read offset correction                      : 6
Overread into Lead-In and Lead-Out          : No
Fill up missing offset samples with silence : Yes
Delete leading and trailing silent blocks   : No
Null samples used in CRC calculations       : Yes
Used interface                              : Native Win32 interface for Win NT & 2000
Used output format              : User Defined Encoder
Selected bitrate                : 1024 kBit/s
Quality                         : High
Add ID3 tag                     : Yes
Command line compressor         : C:\Program Files (x86)\FLAC_1.3.1\win64\flac.exe
Additional command line options : -6 -V -T "ARTIST=%artist%" -T "TITLE=%title%" -T "ALBUM=%albumtitle%" -T "DATE=%year%" -T "TRACKNUMBER=%tracknr%" -T "GENRE=%genre%" -T "COMMENT=ripped by wurensh for rutracker.org" %source% -o %dest%
TOC of the extracted CD
     Track |   Start  |  Length  | Start sector | End sector
    ---------------------------------------------------------
        1  |  0:00.00 |  4:59.03 |         0    |    22427
        2  |  4:59.03 |  8:29.00 |     22428    |    60602
        3  | 13:28.03 |  9:36.56 |     60603    |   103858
        4  | 23:04.59 |  5:51.73 |    103859    |   130256
        5  | 28:56.57 |  7:46.33 |    130257    |   165239
        6  | 36:43.15 | 11:30.56 |    165240    |   217045
        7  | 48:13.71 | 11:17.48 |    217046    |   267868
        8  | 59:31.44 | 14:26.28 |    267869    |   332846
Range status and errors
Selected range
     Filename Y:\EAC\wurensh\Grand Tour\Grand Tour - Heavy on the Beach.wav
     Peak level 99.9 %
     Extraction speed 3.4 X
     Range quality 100.0 %
     Test CRC 56E41116
     Copy CRC 56E41116
     Copy OK
No errors occurred
AccurateRip summary
Track  1  not present in database
Track  2  not present in database
Track  3  not present in database
Track  4  not present in database
Track  5  not present in database
Track  6  not present in database
Track  7  not present in database
Track  8  not present in database
None of the tracks are present in the AccurateRip database
End of status report
---- CUETools DB Plugin V2.1.4
[CTDB TOCID: b41WOigMMTs6HBV6sP3_UzylPBA-] found
Submit result: b41WOigMMTs6HBV6sP3_UzylPBA- has been confirmed
Track | CTDB Status
  1   | (1/1) Accurately ripped
  2   | (1/1) Accurately ripped
  3   | (1/1) Accurately ripped
  4   | (1/1) Accurately ripped
  5   | (1/1) Accurately ripped
  6   | (1/1) Accurately ripped
  7   | (1/1) Accurately ripped
  8   | (1/1) Accurately ripped
==== Log checksum AAFB63A381D3B7214F936CB5A90237962F021820C66D120ECBF2D893944E8AFF ====
Код: Выделить всё
REM GENRE "Progressive Rock"
REM DATE 2015
REM DISCID 67115508
REM COMMENT "ExactAudioCopy v1.0b4"
PERFORMER "Grand Tour"
TITLE "Heavy on the Beach"
FILE "Grand Tour - Heavy on the Beach.flac" WAVE
  TRACK 01 AUDIO
    TITLE "It's Come to This"
    PERFORMER "Grand Tour"
    INDEX 01 00:00:00
  TRACK 02 AUDIO
    TITLE "The Grand Tour (part 1)"
    PERFORMER "Grand Tour"
    INDEX 01 04:59:03
  TRACK 03 AUDIO
    TITLE "Time Runs Out"
    PERFORMER "Grand Tour"
    INDEX 01 13:28:03
  TRACK 04 AUDIO
    TITLE "The Horn of Plenty"
    PERFORMER "Grand Tour"
    INDEX 00 23:04:51
    INDEX 01 23:04:59
  TRACK 05 AUDIO
    TITLE "Little Boy and the Fat Man"
    PERFORMER "Grand Tour"
    INDEX 01 28:56:57
  TRACK 06 AUDIO
    TITLE "On the Radio"
    PERFORMER "Grand Tour"
    INDEX 01 36:43:15
  TRACK 07 AUDIO
    TITLE "Heavy on the Beach"
    PERFORMER "Grand Tour"
    INDEX 01 48:13:71
  TRACK 08 AUDIO
    TITLE "The Grand Tour (part 2)"
    PERFORMER "Grand Tour"
    INDEX 01 59:31:44
Код: Выделить всё
foobar2000 1.3.8 / Dynamic Range Meter 1.1.1
log date: 2019-03-02 19:26:49
--------------------------------------------------------------------------------
Analyzed: Grand Tour / Heavy on the Beach
--------------------------------------------------------------------------------
DR         Peak         RMS     Duration Track
--------------------------------------------------------------------------------
DR5       -0.01 dB    -7.80 dB      4:59 01-It's Come to This
DR6       -0.01 dB    -7.04 dB      8:29 02-The Grand Tour (part 1)
DR6       -0.01 dB    -7.13 dB      9:37 03-Time Runs Out
DR5       -0.01 dB    -6.25 dB      5:52 04-The Horn of Plenty
DR6       -0.01 dB    -7.18 dB      7:46 05-Little Boy and the Fat Man
DR5       -0.01 dB    -6.49 dB     11:31 06-On the Radio
DR6       -0.01 dB    -7.53 dB     11:18 07-Heavy on the Beach
DR5       -0.01 dB    -6.85 dB     14:26 08-The Grand Tour (part 2)
--------------------------------------------------------------------------------
Number of tracks:  8
Official DR value: DR5
Samplerate:        44100 Hz
Channels:          2
Bits per sample:   16
Bitrate:           997 kbps
Codec:             FLAC
================================================================================
Код: Выделить всё
[CUETools log; Date: 02.03.2019 19:24:32; Version: 2.1.5]
[CTDB TOCID: b41WOigMMTs6HBV6sP3_UzylPBA-] found.
        [ CTDBID ] Status
        [b1c488d8] (8/8) Accurately ripped
Track | CTDB Status
  1   | (8/8) Accurately ripped
  2   | (8/8) Accurately ripped
  3   | (8/8) Accurately ripped
  4   | (8/8) Accurately ripped
  5   | (8/8) Accurately ripped
  6   | (8/8) Accurately ripped
  7   | (8/8) Accurately ripped
  8   | (8/8) Accurately ripped
[AccurateRip ID: 0013d6b5-00887484-67115508] found.
Track   [  CRC   |   V2   ] Status
 01     [17c0aba5|fe92b966] (0+5/5) Accurately ripped
 02     [22c467c7|369b0b38] (0+5/5) Accurately ripped
 03     [707fe72a|2ec27898] (0+5/5) Accurately ripped
 04     [a6f87597|bb2c72a5] (0+5/5) Accurately ripped
 05     [5af55b4b|be1a0698] (0+5/5) Accurately ripped
 06     [2c7ff5e6|3393f706] (0+5/5) Accurately ripped
 07     [4fd890b2|09f5c5d8] (0+5/5) Accurately ripped
 08     [ad5731ec|b24abe7f] (0+5/5) Accurately ripped
Track Peak [ CRC32  ] [W/O NULL] [  LOG   ]
 --   99,9 [56E41116] [A7D7AAB9]   CRC32
 01   99,9 [81E37690] [00377E9B]
 02   99,9 [0A11C2BF] [3DA93284]
 03   99,9 [60D3024C] [AC97FA68]
 04   99,8 [E5C7D328] [68B2A096]
 05   99,8 [C525DB6F] [FC1A227F]
 06   99,9 [432465EE] [7AFAD10D]
 07   99,8 [CC623400] [6CB4F3A7]
 08   99,9 [8FB70285] [908FDD91]
#777Треклист:
1. Clocks That Tick (But Never Talk) (11:41)
2. Don't Cry Now(7:27)
3. Back in the Zone (11:50)
4. The Panic (8:56)
5. Shadow Walking (10:14)
6. Game Over (9:49)
7. Slumber Sweetly (8:03)
Total Time: 68:01
Музыканты:
- Joe Cairney / vocals
- Mark Spalding / guitar
- Hew Montgomery / keyboards
- Chris Radford / bass
- Bruce Levick / drums
Код: Выделить всё
Exact Audio Copy V1.3 from 2. September 2016
EAC extraction logfile from 27. February 2019, 22:07
Grand Tour / Clocks That Tick (But Never Talk)
Used drive  : ASUS    DRW-24B1LT   Adapter: 1  ID: 2
Read mode               : Secure
Utilize accurate stream : Yes
Defeat audio cache      : Yes
Make use of C2 pointers : No
Read offset correction                      : 6
Overread into Lead-In and Lead-Out          : No
Fill up missing offset samples with silence : Yes
Delete leading and trailing silent blocks   : No
Null samples used in CRC calculations       : Yes
Used interface                              : Native Win32 interface for Win NT & 2000
Used output format              : User Defined Encoder
Selected bitrate                : 1024 kBit/s
Quality                         : High
Add ID3 tag                     : No
Command line compressor         : C:\Program Files (x86)\FLAC_1.3.2\win64\flac.exe
Additional command line options : -6 -V -T "ARTIST=%artist%" -T "TITLE=%title%" -T "ALBUM=%albumtitle%" -T "DATE=%year%" -T "TRACKNUMBER=%tracknr%" -T "GENRE=%genre%" -T "COMMENT=ripped by wurensh for rutracker.org" %source% -o %dest%
TOC of the extracted CD
     Track |   Start  |  Length  | Start sector | End sector
    ---------------------------------------------------------
        1  |  0:00.00 | 11:41.00 |         0    |    52574
        2  | 11:41.00 |  7:27.23 |     52575    |    86122
        3  | 19:08.23 | 11:50.02 |     86123    |   139374
        4  | 30:58.25 |  8:56.32 |    139375    |   179606
        5  | 39:54.57 | 10:14.25 |    179607    |   225681
        6  | 50:09.07 |  9:48.66 |    225682    |   269847
        7  | 59:57.73 |  8:03.29 |    269848    |   306101
Range status and errors
Selected range
     Filename Y:\EAC\wurensh\Grand Tour\Grand Tour - Clocks That Tick (But Never Talk).wav
     Peak level 99.3 %
     Extraction speed 8.9 X
     Range quality 100.0 %
     Test CRC FFF92929
     Copy CRC FFF92929
     Copy OK
No errors occurred
AccurateRip summary
Track  1  not present in database
Track  2  not present in database
Track  3  not present in database
Track  4  not present in database
Track  5  not present in database
Track  6  not present in database
Track  7  not present in database
None of the tracks are present in the AccurateRip database
End of status report
==== Log checksum E0091ED717F26E3F9BC18A41E6B9653352F1D3052C39A422D5C83CE3BAF2CA48 ====
Код: Выделить всё
REM GENRE "Neo Progressive"
REM DATE 2019
REM DISCID 550FF107
REM COMMENT "ExactAudioCopy v1.3"
PERFORMER "Grand Tour"
TITLE "Clocks That Tick (But Never Talk)"
REM COMPOSER "Lossless Group release"
FILE "Grand Tour - Clocks That Tick (But Never Talk).flac" WAVE
  TRACK 01 AUDIO
    TITLE "Clocks That Tick (But Never Talk)"
    PERFORMER "Grand Tour"
    REM COMPOSER "Lossless Group release"
    ISRC Tb6EI1800001
    INDEX 01 00:00:00
  TRACK 02 AUDIO
    TITLE "Don't Cry Now"
    PERFORMER "Grand Tour"
    REM COMPOSER "Lossless Group release"
    ISRC Tb6EI1800002
    INDEX 01 11:41:00
  TRACK 03 AUDIO
    TITLE "Back in the Zone"
    PERFORMER "Grand Tour"
    REM COMPOSER "Lossless Group release"
    ISRC Tb6EI1800003
    INDEX 01 19:08:23
  TRACK 04 AUDIO
    TITLE "The Panic"
    PERFORMER "Grand Tour"
    REM COMPOSER "Lossless Group release"
    ISRC Tb6EI1800004
    INDEX 01 30:58:25
  TRACK 05 AUDIO
    TITLE "Shadow Walking"
    PERFORMER "Grand Tour"
    REM COMPOSER "Lossless Group release"
    ISRC Tb6EI1800005
    INDEX 01 39:54:57
  TRACK 06 AUDIO
    TITLE "Game Over"
    PERFORMER "Grand Tour"
    REM COMPOSER "Lossless Group release"
    ISRC Tb6EI1800006
    INDEX 01 50:09:07
  TRACK 07 AUDIO
    TITLE "Slumber Sweetly"
    PERFORMER "Grand Tour"
    REM COMPOSER "Lossless Group release"
    ISRC Tb6EI1800007
    INDEX 01 59:57:73
Код: Выделить всё
foobar2000 1.3.8 / Dynamic Range Meter 1.1.1
log date: 2019-03-02 19:26:24
--------------------------------------------------------------------------------
Analyzed: Grand Tour / Clocks That Tick (But Never Talk)
--------------------------------------------------------------------------------
DR         Peak         RMS     Duration Track
--------------------------------------------------------------------------------
DR9       -0.06 dB   -12.48 dB     11:41 01-Clocks That Tick (But Never Talk)
DR10      -0.06 dB   -11.74 dB      7:27 02-Don't Cry Now
DR9       -0.06 dB   -10.40 dB     11:50 03-Back in the Zone
DR9       -0.06 dB   -11.67 dB      8:56 04-The Panic
DR9       -0.06 dB   -12.01 dB     10:14 05-Shadow Walking
DR9       -0.06 dB   -11.07 dB      9:49 06-Game Over
DR10      -0.06 dB   -12.05 dB      8:03 07-Slumber Sweetly
--------------------------------------------------------------------------------
Number of tracks:  7
Official DR value: DR9
Samplerate:        44100 Hz
Channels:          2
Bits per sample:   16
Bitrate:           873 kbps
Codec:             FLAC
================================================================================
Код: Выделить всё
[CUETools log; Date: 02.03.2019 19:25:54; Version: 2.1.5]
[CTDB TOCID: z8JlVg6O9H5WTQCnrR9fRvO6ozc-] disk not present in database.
[AccurateRip ID: 00133730-00729b73-550ff107] disk not present in database.
Track Peak [ CRC32  ] [W/O NULL] [  LOG   ]
 --   99,3 [FFF92929] [609740A0]   CRC32
 01   99,3 [7B47C1CA] [198A788C]
 02   99,3 [9B40065A] [478D0368]
 03   99,3 [D47F949C] [E32F6C9D]
 04   99,3 [057BEB68] [DF5FAF12]
 05   99,3 [DC200368] [D0208110]
 06   99,3 [F0FEE973] [E7C8F570]
 07   99,3 [FE4A57B6] [F6FDF66E]
Progarchives info
Коврики 300dpi в комплекте к каждому альбому.
Правила, инструкции, FAQ!!!
Торрент  Добавлен [09 мар 2019, 11:24] Скачать торрент Магнет ссылка
Скачать торрент
15.12 КБ

Статус
Проверен 
 
Размер  1.09 ГБ
Приватный: Нет (DHT включён)
.torrent скачан  0
Как залить торрент? | Как скачать Torrent? | Как смотреть и слушать онлайн?  
Гость
 



Вернуться в Progressive & Art-Rock

Кто сейчас на конференции

Сейчас этот форум просматривают: нет зарегистрированных пользователей и гости: 0