(Neo-Prog, Symphonic Rock) [CD] Flamborough Head - Discography - 1998-2017 (10 albums), FLAC (tracks+.cue), lossless


Статистика раздачи
Размер: 4.78 ГБ | Добавлен: 09 мар 2019, 11:26 | Скачали: 1
Сидеров: 0  [0 байт/сек]    Личеров: 1  [0 байт/сек]

Сообщение Гость » 09 мар 2019, 11:26



Discography - 1998-2017

Страна исполнителя: Netherlands

Жанр: Progressive Rock, Neo-Prog, Symphonic Rock || Носитель: CD || Аудио кодек: FLAC || Тип рипа: (tracks + .cue) ||
Битрейт аудио: lossless || Включает: Full artwork, jpg, 600 dpi || Общая длительность: 11:14:50 ||
In the early nineties Dutch keyboardist Edo Spanninga was looking for musicians to form a progressive rockband. After a short search Koen Roozen (drums), Marcel Derix, (bass), Andre Cents (guitars) and Sieberein Schaaf (vocals & keys) joined the band which they named Flamborough Head.FHofficial Their first effort; a cassette-demo called Bridge To The Promised Land, caught the interest of Malcolm Parker who signed the band to his Cyclops label. The first studio album Unspoken Whisper (1998) was well received; readers of Wondrous Stories – the magazine of the UK Classic Rock Society – nominated Flamborough Head as “Best New Band 1998”. After the releCRS_Award1998ase of their second album Defining The Legacy (2000) Andre and Sieberein decided to leave the band and they were replaced by Margriet Boomsma (lead vocals & flutes and recorders) and Eddie Mulder (guitars & backing vocals). This new outfit started to work on new material which gave the band a different sound; more melodic and perhaps less neo and bombastic – even a bit folky. One For The Crow (2002) was well received and led to several gigs in The Netherlands and abroad. Flamborough Head started to
organise a progressive rockfestival at the farm of drummer Koen Roozen. ProgFarm ran between 1997 and 2011; 15 editions of this highly popular event gave more than 60 progbands an Band1opportunity to gig before a motivated crowd. One For The Crow was followed by Tales Of Imperfections (2005) and Looking for John Maddock (2009). In this period Flamborough Head gigged at several major festivals in Holland, France, Germany, Hungary, Italy, England and Mexico (Baja). The gig at the A38 in Budapest was recorded and released as Flamborough Head – Band_940_360Live in Budapest (2008). After the bands last release in 2009 Eddie called it a day and was succeeded by guitarist Gert Polkerman who recorded and produced Flamborough Head’s album Lost In Time (2013) – released on our new label; OSKAR from Poland. More gigs abroad (Rumania, UK, Norway, Poland, Italy) followed. Between 2014 and 2016 Marcel and Gert decided it was time to move on; on bass we welcomed back our friend Eddie Mulder and on guitar Hans Spitzen joined the band. Hans was no stranger; on earlier occasions he had helped the band out. In the autumn of 2016 this new line up will work on a new album which we hope to release somewhere next year.
[]http://flamboroughhead.nl]



Тип: Album, Reissue, Remastered, Triple Gatefold Digipak
Год издания оригинала: 1998, Cyclops #CYCL 063
Год переиздания: 2016
Страна - производитель диска: Poland
Издатель (лейбл): Oskar
Номер по каталогу: OSKAR 1066 CD
Продолжительность: 53:28
Источник (релизер): Моя коллекция, мой рип

Трэклист:
1. Schoolyard Fantasy (8:07)
2. Wolves at War (4:53)
3. Childscream (7:19)
4. Unspoken Whisper (10:23) Legend
5. Of the Old Man's Tree (4:28)
6. Xymphonia (10:06)
7. Heroes (7:53)
Код: Выделить всё
Exact Audio Copy V1.3 from 2. September 2016
EAC extraction logfile from 10. October 2018, 17:58
Flamborough Head / Unspoken Whisper
Used drive  : ATAPI   iHAS122   F   Adapter: 1  ID: 0
Read mode               : Secure
Utilize accurate stream : Yes
Defeat audio cache      : Yes
Make use of C2 pointers : No
Read offset correction                      : 6
Overread into Lead-In and Lead-Out          : No
Fill up missing offset samples with silence : Yes
Delete leading and trailing silent blocks   : No
Null samples used in CRC calculations       : Yes
Used interface                              : Native Win32 interface for Win NT & 2000
Gap handling                                : Appended to previous track
Used output format              : User Defined Encoder
Selected bitrate                : 1024 kBit/s
Quality                         : High
Add ID3 tag                     : Yes
Command line compressor         : C:\Program Files (x86)\Exact Audio Copy\Flac\flac.exe
Additional command line options : -6 -V -T "ARTIST=%artist%" -T "TITLE=%title%" -T "ALBUM=%albumtitle%" -T "DATE=%year%" -T "TRACKNUMBER=%tracknr%" -T "GENRE=%genre%" -T "COMMENT=%comment%" %hascover%--picture="%coverfile%"%hascover% %source% -o %dest%
TOC of the extracted CD
     Track |   Start  |  Length  | Start sector | End sector
    ---------------------------------------------------------
        1  |  0:00.00 |  8:11.62 |         0    |    36886
        2  |  8:11.62 |  4:56.38 |     36887    |    59124
        3  | 13:08.25 |  7:20.37 |     59125    |    92161
        4  | 20:28.62 | 10:24.38 |     92162    |   138999
        5  | 30:53.25 |  4:31.67 |    139000    |   159391
        6  | 35:25.17 | 10:08.45 |    159392    |   205036
        7  | 45:33.62 |  7:55.05 |    205037    |   240666
Track  1
     Filename E:\Music\olaf_alien\FLAMBOROUGH HEAD\1998 - Unspoken Whisper\01 - Schoolyard Fantasy.wav
     Pre-gap length  0:00:02.00
     Peak level 98.9 %
     Extraction speed 5.8 X
     Track quality 100.0 %
     Test CRC A1730442
     Copy CRC A1730442
     Cannot be verified as accurate (confidence 7)  [61A37B0C], AccurateRip returned [FF651D95]  (AR v2)
     Copy OK
Track  2
     Filename E:\Music\olaf_alien\FLAMBOROUGH HEAD\1998 - Unspoken Whisper\02 - Wolves at War.wav
     Peak level 98.8 %
     Extraction speed 6.4 X
     Track quality 100.0 %
     Test CRC EF9796ED
     Copy CRC EF9796ED
     Cannot be verified as accurate (confidence 7)  [FC3E8190], AccurateRip returned [6C528A2E]  (AR v2)
     Copy OK
Track  3
     Filename E:\Music\olaf_alien\FLAMBOROUGH HEAD\1998 - Unspoken Whisper\03 - Childscream.wav
     Peak level 99.3 %
     Extraction speed 7.4 X
     Track quality 100.0 %
     Test CRC B25EDA66
     Copy CRC B25EDA66
     Cannot be verified as accurate (confidence 7)  [1CEA13B3], AccurateRip returned [F1CE61D6]  (AR v2)
     Copy OK
Track  4
     Filename E:\Music\olaf_alien\FLAMBOROUGH HEAD\1998 - Unspoken Whisper\04 - Unspoken Whisper.wav
     Peak level 97.5 %
     Extraction speed 7.8 X
     Track quality 99.9 %
     Test CRC B34209F0
     Copy CRC B34209F0
     Cannot be verified as accurate (confidence 6)  [ED9D1C65], AccurateRip returned [B7DC2FA3]  (AR v2)
     Copy OK
Track  5
     Filename E:\Music\olaf_alien\FLAMBOROUGH HEAD\1998 - Unspoken Whisper\05 - Legend of the Old Man's Tree.wav
     Peak level 99.0 %
     Extraction speed 7.2 X
     Track quality 99.9 %
     Test CRC 4C3DC0B7
     Copy CRC 4C3DC0B7
     Cannot be verified as accurate (confidence 6)  [C6AD4252], AccurateRip returned [DADDD14D]  (AR v2)
     Copy OK
Track  6
     Filename E:\Music\olaf_alien\FLAMBOROUGH HEAD\1998 - Unspoken Whisper\06 - Xymphonia.wav
     Peak level 99.3 %
     Extraction speed 9.8 X
     Track quality 100.0 %
     Test CRC DE203B27
     Copy CRC DE203B27
     Cannot be verified as accurate (confidence 6)  [1759CF16], AccurateRip returned [1F506656]  (AR v2)
     Copy OK
Track  7
     Filename E:\Music\olaf_alien\FLAMBOROUGH HEAD\1998 - Unspoken Whisper\07 - Heroes.wav
     Peak level 98.5 %
     Extraction speed 9.1 X
     Track quality 99.9 %
     Test CRC C81D5ADC
     Copy CRC C81D5ADC
     Cannot be verified as accurate (confidence 6)  [428DC586], AccurateRip returned [69B39E9B]  (AR v2)
     Copy OK
No tracks could be verified as accurate
You may have a different pressing from the one(s) in the database
No errors occurred
End of status report
---- CUETools DB Plugin V2.1.6
[CTDB TOCID: HBjTxCFPPK0lVOOG47avlCr_xUI-] found
Submit result: HBjTxCFPPK0lVOOG47avlCr_xUI- has been confirmed
Track | CTDB Status
  1   | (13/13) Accurately ripped
  2   | (12/13) Accurately ripped
  3   | (13/13) Accurately ripped
  4   | (13/13) Accurately ripped
  5   | (13/13) Accurately ripped
  6   | (12/13) Accurately ripped
  7   | (12/13) Accurately ripped
==== Log checksum 09DC61BB608970D409F38540EC1D5A90297D1FCF568942538C638B0D59258F4C ====
Код: Выделить всё
REM GENRE "Progressive Rock"
REM DATE 1998
REM DISCID 580C8807
REM COMMENT "ExactAudioCopy v1.3"
PERFORMER "Flamborough Head"
TITLE "Unspoken Whisper"
REM COMPOSER ""
FILE "01 - Schoolyard Fantasy.wav" WAVE
  TRACK 01 AUDIO
    TITLE "Schoolyard Fantasy"
    PERFORMER "Flamborough Head"
    REM COMPOSER ""
    INDEX 01 00:00:00
FILE "02 - Wolves at War.wav" WAVE
  TRACK 02 AUDIO
    TITLE "Wolves at War"
    PERFORMER "Flamborough Head"
    REM COMPOSER ""
    INDEX 01 00:00:00
FILE "03 - Childscream.wav" WAVE
  TRACK 03 AUDIO
    TITLE "Childscream"
    PERFORMER "Flamborough Head"
    REM COMPOSER ""
    INDEX 01 00:00:00
FILE "04 - Unspoken Whisper.wav" WAVE
  TRACK 04 AUDIO
    TITLE "Unspoken Whisper"
    PERFORMER "Flamborough Head"
    REM COMPOSER ""
    INDEX 01 00:00:00
FILE "05 - Legend of the Old Man's Tree.wav" WAVE
  TRACK 05 AUDIO
    TITLE "Legend of the Old Man's Tree"
    PERFORMER "Flamborough Head"
    REM COMPOSER ""
    INDEX 01 00:00:00
FILE "06 - Xymphonia.wav" WAVE
  TRACK 06 AUDIO
    TITLE "Xymphonia"
    PERFORMER "Flamborough Head"
    REM COMPOSER ""
    INDEX 01 00:00:00
FILE "07 - Heroes.wav" WAVE
  TRACK 07 AUDIO
    TITLE "Heroes"
    PERFORMER "Flamborough Head"
    REM COMPOSER ""
    INDEX 01 00:00:00
Код: Выделить всё
-----------------------
DON'T MODIFY THIS FILE
-----------------------
PERFORMER: auCDtect Task Manager, ver. 1.5.1RC4 build 1.5.1.5
Copyright (c) 2008-2010 y-soft. All rights reserved
[url=http://y-soft.org]http://y-soft.org[/url]
ANALYZER: auCDtect: CD records authenticity detector, version 0.8.2
Copyright (c) 2004 Oleg Berngardt. All rights reserved.
Copyright (c) 2004 Alexander Djourik. All rights reserved.
FILE: 07 - Heroes.flac
  Size: 61732402 Hash: B5B439E0F790C58E0758BD6CFC76C215 Accuracy: -m8
  Conclusion: CDDA 100%
  Signature: 39E8AE32F1F253D11A9AE4D5FA81D55FC0CF6EFC
FILE: 06 - Xymphonia.flac
  Size: 72767007 Hash: A41686929D770D8C58781142113D330E Accuracy: -m8
  Conclusion: CDDA 100%
  Signature: 7C7D14F24AD8C648B7A3FD2B3A0CEF5DE60DDFB6
FILE: 05 - Legend of the Old Man's Tree.flac
  Size: 33281316 Hash: 15AD6916FBB1CA7631B0485B0AACC0E7 Accuracy: -m8
  Conclusion: CDDA 100%
  Signature: 53FAEDC4E0F6F0065C87531E34132951394B3F50
FILE: 04 - Unspoken Whisper.flac
  Size: 71903616 Hash: 9367C6A21EB7C18D4DF7ACAF3AD075EA Accuracy: -m8
  Conclusion: CDDA 99%
  Signature: 73F878D3A5AC8BB36163E75136CB220C5BEA6743
FILE: 03 - Childscream.flac
  Size: 50058103 Hash: 6EAFCD9D3A96592218F98D51FFE4F7A9 Accuracy: -m8
  Conclusion: CDDA 100%
  Signature: 16B734D7F807B59EFE2A067E0338517731D0DF7B
FILE: 02 - Wolves at War.flac
  Size: 35043584 Hash: F2374B60E461316B286CDEB5E8A57509 Accuracy: -m8
  Conclusion: CDDA 100%
  Signature: F65CD84BC880AD32953B1512F65D3E0CB3AB0123
FILE: 01 - Schoolyard Fantasy.flac
  Size: 55826531 Hash: CD60A61CBB62C9D7CFFDCD7C102C9E5C Accuracy: -m8
  Conclusion: CDDA 100%
  Signature: 502319CA75AA27FEDB6DB5BD4C2C80CBD5D7633B
Код: Выделить всё
foobar2000 1.3.16 / Замер динамического диапазона (DR) 1.1.1
Дата отчёта:  2018-10-11 13:21:54
--------------------------------------------------------------------------------
Анализ:   Flamborough Head / Unspoken Whisper
--------------------------------------------------------------------------------
DR         Пики         RMS           Продолжительность трека
--------------------------------------------------------------------------------
DR8       -0.09 дБ   -10.21 дБ      8:12 01-Schoolyard Fantasy
DR5       -0.10 дБ    -7.14 дБ      4:57 02-Wolves at War
DR6       -0.06 дБ    -8.76 дБ      7:20 03-Childscream
DR6       -0.21 дБ    -8.41 дБ     10:25 04-Unspoken Whisper
DR6       -0.09 дБ    -6.98 дБ      4:32 05-Legend of the Old Man's Tree
DR7       -0.06 дБ    -9.04 дБ     10:09 06-Xymphonia
DR6       -0.13 дБ    -7.10 дБ      7:55 07-Heroes
--------------------------------------------------------------------------------
Количество треков: 7
Реальные значения DR: DR6
Частота:   44100 Гц
Каналов:   2
Разрядность:   16
Битрейт:   1039 кбит/с
Кодек:   FLAC
================================================================================

- Siebe-Rein Schaaf / lead vocals, keyboards
- André Cents / guitars, backing vocals
- Edo Spanninga / keyboards
- Marcel Derix / bass
- Koen Roozen / drums, percussion
#777Тип: Album, Reissue, Remastered, Triple Gatefold Digipak
Дата / место записи: 1994, Demo album recorded and mixed at 'De Harmsdobbe', Bakkeveen, Holland
Год издания оригинала: 2001, Cyclops #CYCLUB 009
Год переиздания: 2016
Страна - производитель диска: Poland
Издатель (лейбл): Oskar
Номер по каталогу: OSKAR 1067 CD
Продолжительность: 39:46
Источник (релизер): Моя коллекция, мой рип

Трэклист:
1. Corrugated Road (7:00)
2. Childscream (6:50)
3. Running on Empty (4:06)
4. Suicide (8:51)
5. Unspoken Whisper (8:45)
6. Bridge to the Promised Land (4:24)
Код: Выделить всё
Exact Audio Copy V1.3 from 2. September 2016
EAC extraction logfile from 11. October 2018, 12:30
Flamborough Head / Bridge To The Promised Land
Used drive  : ATAPI   iHAS122   F   Adapter: 1  ID: 0
Read mode               : Secure
Utilize accurate stream : Yes
Defeat audio cache      : Yes
Make use of C2 pointers : No
Read offset correction                      : 6
Overread into Lead-In and Lead-Out          : No
Fill up missing offset samples with silence : Yes
Delete leading and trailing silent blocks   : No
Null samples used in CRC calculations       : Yes
Used interface                              : Native Win32 interface for Win NT & 2000
Gap handling                                : Appended to previous track
Used output format              : User Defined Encoder
Selected bitrate                : 1024 kBit/s
Quality                         : High
Add ID3 tag                     : Yes
Command line compressor         : C:\Program Files (x86)\Exact Audio Copy\Flac\flac.exe
Additional command line options : -6 -V -T "ARTIST=%artist%" -T "TITLE=%title%" -T "ALBUM=%albumtitle%" -T "DATE=%year%" -T "TRACKNUMBER=%tracknr%" -T "GENRE=%genre%" -T "COMMENT=%comment%" %hascover%--picture="%coverfile%"%hascover% %source% -o %dest%
TOC of the extracted CD
     Track |   Start  |  Length  | Start sector | End sector
    ---------------------------------------------------------
        1  |  0:00.00 |  6:58.58 |         0    |    31407
        2  |  6:58.58 |  6:48.16 |     31408    |    62023
        3  | 13:46.74 |  4:04.42 |     62024    |    80365
        4  | 17:51.41 |  8:49.50 |     80366    |   120090
        5  | 26:41.16 |  8:43.68 |    120091    |   159383
        6  | 35:25.09 |  4:24.25 |    159384    |   179208
Track  1
     Filename E:\Music\olaf_alien\FLAMBOROUGH HEAD\2001 - Bridge to the Promised Land\01 - Corrugated Road.wav
     Pre-gap length  0:00:02.00
     Peak level 98.1 %
     Extraction speed 6.0 X
     Track quality 100.0 %
     Test CRC 276971F4
     Copy CRC 276971F4
     Track not present in AccurateRip database
     Copy OK
Track  2
     Filename E:\Music\olaf_alien\FLAMBOROUGH HEAD\2001 - Bridge to the Promised Land\02 - Childscream.wav
     Peak level 98.1 %
     Extraction speed 6.9 X
     Track quality 100.0 %
     Test CRC F85A33D8
     Copy CRC F85A33D8
     Track not present in AccurateRip database
     Copy OK
Track  3
     Filename E:\Music\olaf_alien\FLAMBOROUGH HEAD\2001 - Bridge to the Promised Land\03 - Running on Empty.wav
     Peak level 98.1 %
     Extraction speed 7.1 X
     Track quality 100.0 %
     Test CRC 0C201811
     Copy CRC 0C201811
     Track not present in AccurateRip database
     Copy OK
Track  4
     Filename E:\Music\olaf_alien\FLAMBOROUGH HEAD\2001 - Bridge to the Promised Land\04 - Suicide.wav
     Peak level 98.1 %
     Extraction speed 8.5 X
     Track quality 100.0 %
     Test CRC 5190A3D0
     Copy CRC 5190A3D0
     Track not present in AccurateRip database
     Copy OK
Track  5
     Filename E:\Music\olaf_alien\FLAMBOROUGH HEAD\2001 - Bridge to the Promised Land\05 - Unspoken Whisper.wav
     Peak level 98.1 %
     Extraction speed 8.3 X
     Track quality 99.9 %
     Test CRC FF509F41
     Copy CRC FF509F41
     Track not present in AccurateRip database
     Copy OK
Track  6
     Filename E:\Music\olaf_alien\FLAMBOROUGH HEAD\2001 - Bridge to the Promised Land\06 - Bridge To The Promised Land.wav
     Peak level 98.1 %
     Extraction speed 9.1 X
     Track quality 100.0 %
     Test CRC 71B40E12
     Copy CRC 71B40E12
     Track not present in AccurateRip database
     Copy OK
None of the tracks are present in the AccurateRip database
No errors occurred
End of status report
---- CUETools DB Plugin V2.1.6
[CTDB TOCID: WA5KQ.2soaYvQDY4Qn54ZoHE70k-] found
Submit result: WA5KQ.2soaYvQDY4Qn54ZoHE70k- has been confirmed
Track | CTDB Status
  1   | (1/1) Accurately ripped
  2   | (1/1) Accurately ripped
  3   | (1/1) Accurately ripped
  4   | (1/1) Accurately ripped
  5   | (1/1) Accurately ripped
  6   | (1/1) Accurately ripped
==== Log checksum 58D03A109ECEF69E013D44845F991CD88B7D50362AD91F93B411681C221A944E ====
Код: Выделить всё
REM GENRE "Progressive Rock"
REM DATE 2001
REM DISCID 3B095506
REM COMMENT "ExactAudioCopy v1.3"
PERFORMER "Flamborough Head"
TITLE "Bridge To The Promised Land"
REM COMPOSER ""
FILE "01 - Corrugated Road.wav" WAVE
  TRACK 01 AUDIO
    TITLE "Corrugated Road"
    PERFORMER "Flamborough Head"
    REM COMPOSER ""
    INDEX 01 00:00:00
FILE "02 - Childscream.wav" WAVE
  TRACK 02 AUDIO
    TITLE "Childscream"
    PERFORMER "Flamborough Head"
    REM COMPOSER ""
    INDEX 01 00:00:00
FILE "03 - Running on Empty.wav" WAVE
  TRACK 03 AUDIO
    TITLE "Running on Empty"
    PERFORMER "Flamborough Head"
    REM COMPOSER ""
    INDEX 01 00:00:00
FILE "04 - Suicide.wav" WAVE
  TRACK 04 AUDIO
    TITLE "Suicide"
    PERFORMER "Flamborough Head"
    REM COMPOSER ""
    INDEX 01 00:00:00
FILE "05 - Unspoken Whisper.wav" WAVE
  TRACK 05 AUDIO
    TITLE "Unspoken Whisper"
    PERFORMER "Flamborough Head"
    REM COMPOSER ""
    INDEX 01 00:00:00
FILE "06 - Bridge To The Promised Land.wav" WAVE
  TRACK 06 AUDIO
    TITLE "Bridge To The Promised Land"
    PERFORMER "Flamborough Head"
    REM COMPOSER ""
    INDEX 01 00:00:00
Код: Выделить всё
-----------------------
DON'T MODIFY THIS FILE
-----------------------
PERFORMER: auCDtect Task Manager, ver. 1.5.1RC4 build 1.5.1.5
Copyright (c) 2008-2010 y-soft. All rights reserved
[url=http://y-soft.org]http://y-soft.org[/url]
ANALYZER: auCDtect: CD records authenticity detector, version 0.8.2
Copyright (c) 2004 Oleg Berngardt. All rights reserved.
Copyright (c) 2004 Alexander Djourik. All rights reserved.
FILE: 06 - Bridge To The Promised Land.flac
  Size: 30072089 Hash: 8B50968857BC36F9AD7F8BC45A4A4629 Accuracy: -m8
  Conclusion: CDDA 100%
  Signature: 955A937FEF72BA684DB8C5D04608397F5471465F
FILE: 05 - Unspoken Whisper.flac
  Size: 62878078 Hash: 2004406ADF45A15462AF4EF9CDE2DCC6 Accuracy: -m8
  Conclusion: MPEG 97%
  Signature: 17D6A2CECEE627EBB16F59622936A879D79827C3
FILE: 04 - Suicide.flac
  Size: 62548578 Hash: 0355F4056089CF7367FEF265EB7BF991 Accuracy: -m8
  Conclusion: MPEG 90%
  Signature: 3A9EC23CF4ACA9AA82821293B00CDC0AA88559DB
FILE: 03 - Running on Empty.flac
  Size: 31016771 Hash: 4CE37805D07C3CF2CF50F54589387854 Accuracy: -m8
  Conclusion: CDDA 85%
  Signature: 035E3B84E50649E6F61987EC78D44F242580928D
FILE: 02 - Childscream.flac
  Size: 50586349 Hash: 382240941392B785D7610735FD12CFBA Accuracy: -m8
  Conclusion: MPEG 89%
  Signature: 40583851AB951676B3CD9FE795A92152530AA2D5
FILE: 01 - Corrugated Road.flac
  Size: 52207770 Hash: DC3AAA454C114FA7A5EB3AC934DFDC4F Accuracy: -m8
  Conclusion: MPEG 90%
  Signature: 743CA08A5F85E33AEDB54B87825AFB6CE5928494
Код: Выделить всё
foobar2000 1.3.16 / Замер динамического диапазона (DR) 1.1.1
Дата отчёта:  2018-10-11 13:22:21
--------------------------------------------------------------------------------
Анализ:   Flamborough Head / Bridge To The Promised Land
--------------------------------------------------------------------------------
DR         Пики         RMS           Продолжительность трека
--------------------------------------------------------------------------------
DR6       -0.16 дБ    -7.54 дБ      6:59 01-Corrugated Road
DR6       -0.16 дБ    -8.29 дБ      6:48 02-Childscream
DR7       -0.17 дБ    -8.43 дБ      4:05 03-Running on Empty
DR7       -0.16 дБ    -9.42 дБ      8:50 04-Suicide
DR6       -0.16 дБ    -8.09 дБ      8:44 05-Unspoken Whisper
DR6       -0.16 дБ    -8.16 дБ      4:24 06-Bridge To The Promised Land
--------------------------------------------------------------------------------
Количество треков: 6
Реальные значения DR: DR6
Частота:   44100 Гц
Каналов:   2
Разрядность:   16
Битрейт:   910 кбит/с
Кодек:   FLAC
================================================================================

- Siebe-Rein Schaaf / lead vocals, keyboards
- André Cents / guitar, backing vocals
- Edo Spanninga / keyboards
- Marcel Derix / bass
- Koen Roozen / drums, backing vocals
#777Тип: Album, Reissue, Remastered, Triple Gatefold Digipak
Год издания оригинала: 2001, Cyclops #CYCL 096
Год переиздания: 2018
Страна - производитель диска: Poland
Издатель (лейбл): Oskar
Номер по каталогу: OSKAR 1076 CD
Продолжительность: 01:08:05
Источник (релизер): Моя коллекция, мой рип

Трэклист:
1. Defining the Legacy (11:15)
2. House of Cards (9:16)
3. Garden of Dreams (12:35)
4. Assassin (9:07)
5. Impulse (11:17)
6. Bridge to the Promised Land (6:37)
7. Mind-sculpture (7:58)
Код: Выделить всё
Exact Audio Copy V1.3 from 2. September 2016
EAC extraction logfile from 11. October 2018, 13:07
Flamborough Head / Defining the Legacy
Used drive  : ATAPI   iHAS122   F   Adapter: 1  ID: 0
Read mode               : Secure
Utilize accurate stream : Yes
Defeat audio cache      : Yes
Make use of C2 pointers : No
Read offset correction                      : 6
Overread into Lead-In and Lead-Out          : No
Fill up missing offset samples with silence : Yes
Delete leading and trailing silent blocks   : No
Null samples used in CRC calculations       : Yes
Used interface                              : Native Win32 interface for Win NT & 2000
Gap handling                                : Appended to previous track
Used output format              : User Defined Encoder
Selected bitrate                : 1024 kBit/s
Quality                         : High
Add ID3 tag                     : Yes
Command line compressor         : C:\Program Files (x86)\Exact Audio Copy\Flac\flac.exe
Additional command line options : -6 -V -T "ARTIST=%artist%" -T "TITLE=%title%" -T "ALBUM=%albumtitle%" -T "DATE=%year%" -T "TRACKNUMBER=%tracknr%" -T "GENRE=%genre%" -T "COMMENT=%comment%" %hascover%--picture="%coverfile%"%hascover% %source% -o %dest%
TOC of the extracted CD
     Track |   Start  |  Length  | Start sector | End sector
    ---------------------------------------------------------
        1  |  0:00.00 | 11:16.60 |         0    |    50759
        2  | 11:16.60 |  9:16.39 |     50760    |    92498
        3  | 20:33.24 | 12:35.08 |     92499    |   149131
        4  | 33:08.32 |  9:07.23 |    149132    |   190179
        5  | 42:15.55 | 11:17.00 |    190180    |   240954
        6  | 53:32.55 |  6:35.15 |    240955    |   270594
        7  | 60:07.70 |  7:58.40 |    270595    |   306484
Track  1
     Filename E:\Music\olaf_alien\FLAMBOROUGH HEAD\2001 - Defining The Legacy\01 - Defining the Legacy.wav
     Pre-gap length  0:00:02.00
     Peak level 75.4 %
     Extraction speed 6.3 X
     Track quality 100.0 %
     Test CRC E1B5A911
     Copy CRC E1B5A911
     Track not present in AccurateRip database
     Copy OK
Track  2
     Filename E:\Music\olaf_alien\FLAMBOROUGH HEAD\2001 - Defining The Legacy\02 - House of Cards.wav
     Peak level 75.4 %
     Extraction speed 7.5 X
     Track quality 100.0 %
     Test CRC 295E7A3E
     Copy CRC 295E7A3E
     Track not present in AccurateRip database
     Copy OK
Track  3
     Filename E:\Music\olaf_alien\FLAMBOROUGH HEAD\2001 - Defining The Legacy\03 - Garden of Dreams.wav
     Peak level 75.6 %
     Extraction speed 8.6 X
     Track quality 100.0 %
     Test CRC 94A19DFD
     Copy CRC 94A19DFD
     Track not present in AccurateRip database
     Copy OK
Track  4
     Filename E:\Music\olaf_alien\FLAMBOROUGH HEAD\2001 - Defining The Legacy\04 - Assassin.wav
     Peak level 74.9 %
     Extraction speed 9.4 X
     Track quality 100.0 %
     Test CRC FECBA0CA
     Copy CRC FECBA0CA
     Track not present in AccurateRip database
     Copy OK
Track  5
     Filename E:\Music\olaf_alien\FLAMBOROUGH HEAD\2001 - Defining The Legacy\05 - Impulse.wav
     Peak level 100.0 %
     Extraction speed 10.3 X
     Track quality 100.0 %
     Test CRC F8F2A288
     Copy CRC F8F2A288
     Track not present in AccurateRip database
     Copy OK
Track  6
     Filename E:\Music\olaf_alien\FLAMBOROUGH HEAD\2001 - Defining The Legacy\06 - Bridge to the Promised Land.wav
     Peak level 74.9 %
     Extraction speed 10.5 X
     Track quality 100.0 %
     Test CRC 577A3393
     Copy CRC 577A3393
     Track not present in AccurateRip database
     Copy OK
Track  7
     Filename E:\Music\olaf_alien\FLAMBOROUGH HEAD\2001 - Defining The Legacy\07 - Mind-Sculpture.wav
     Peak level 74.9 %
     Extraction speed 11.0 X
     Track quality 100.0 %
     Test CRC 6C076325
     Copy CRC 6C076325
     Track not present in AccurateRip database
     Copy OK
None of the tracks are present in the AccurateRip database
No errors occurred
End of status report
---- CUETools DB Plugin V2.1.6
[CTDB TOCID: 2h1wdQ4pDZ1be89i79YmxAnZEQ4-] found
Submit result: already submitted
Track | CTDB Status
  1   | (1/1) Accurately ripped
  2   | (1/1) Accurately ripped
  3   | (1/1) Accurately ripped
  4   | (1/1) Accurately ripped
  5   | (1/1) Accurately ripped
  6   | (1/1) Accurately ripped
  7   | (1/1) Accurately ripped
==== Log checksum 10EFD170091187B639F1E6AE0F54BCE758BCD68D5A15C0B67420276A8A74E185 ====
Код: Выделить всё
REM GENRE "Symphonic Rock"
REM DATE 2001
REM DISCID 620FF607
REM COMMENT "ExactAudioCopy v1.3"
PERFORMER "Flamborough Head"
TITLE "Defining the Legacy"
REM COMPOSER ""
FILE "01 - Defining the Legacy.wav" WAVE
  TRACK 01 AUDIO
    TITLE "Defining the Legacy"
    PERFORMER "Flamborough Head"
    REM COMPOSER ""
    INDEX 01 00:00:00
FILE "02 - House of Cards.wav" WAVE
  TRACK 02 AUDIO
    TITLE "House of Cards"
    PERFORMER "Flamborough Head"
    REM COMPOSER ""
    INDEX 01 00:00:00
FILE "03 - Garden of Dreams.wav" WAVE
  TRACK 03 AUDIO
    TITLE "Garden of Dreams"
    PERFORMER "Flamborough Head"
    REM COMPOSER ""
    INDEX 01 00:00:00
FILE "04 - Assassin.wav" WAVE
  TRACK 04 AUDIO
    TITLE "Assassin"
    PERFORMER "Flamborough Head"
    REM COMPOSER ""
    INDEX 01 00:00:00
FILE "05 - Impulse.wav" WAVE
  TRACK 05 AUDIO
    TITLE "Impulse"
    PERFORMER "Flamborough Head"
    REM COMPOSER ""
    INDEX 01 00:00:00
FILE "06 - Bridge to the Promised Land.wav" WAVE
  TRACK 06 AUDIO
    TITLE "Bridge to the Promised Land"
    PERFORMER "Flamborough Head"
    REM COMPOSER ""
    INDEX 01 00:00:00
FILE "07 - Mind-Sculpture.wav" WAVE
  TRACK 07 AUDIO
    TITLE "Mind-Sculpture"
    PERFORMER "Flamborough Head"
    REM COMPOSER ""
    INDEX 01 00:00:00
Код: Выделить всё
-----------------------
DON'T MODIFY THIS FILE
-----------------------
PERFORMER: auCDtect Task Manager, ver. 1.5.1RC4 build 1.5.1.5
Copyright (c) 2008-2010 y-soft. All rights reserved
[url=http://y-soft.org]http://y-soft.org[/url]
ANALYZER: auCDtect: CD records authenticity detector, version 0.8.2
Copyright (c) 2004 Oleg Berngardt. All rights reserved.
Copyright (c) 2004 Alexander Djourik. All rights reserved.
FILE: 07 - Mind-Sculpture.flac
  Size: 55904042 Hash: E264C876E842338E932EE20DD636FEE3 Accuracy: -m8
  Conclusion: CDDA 100%
  Signature: 75AA65171C5DB08BDA3EA4D2ACAB941F01C4A40E
FILE: 06 - Bridge to the Promised Land.flac
  Size: 40241144 Hash: 6850C2F8469B895F19398C57B251C8EB Accuracy: -m8
  Conclusion: CDDA 99%
  Signature: 7489B8F0FB8D210F24897B8E0C08384814E0DB23
FILE: 05 - Impulse.flac
  Size: 82120895 Hash: C17979405F210BADD65202981E1D3F51 Accuracy: -m8
  Conclusion: CDDA 99%
  Signature: CB260DEA022DD49B7EA5C690ED803720D468469E
FILE: 04 - Assassin.flac
  Size: 66141555 Hash: A242EF742DF47A60882EC5408D6BF667 Accuracy: -m8
  Conclusion: CDDA 100%
  Signature: CFC5DD96BE967B9496A3CEFD63C473E0DB64C550
FILE: 03 - Garden of Dreams.flac
  Size: 91899957 Hash: 13EE275C5976B86E8A653FB20AFEB9EB Accuracy: -m8
  Conclusion: CDDA 100%
  Signature: 2548209CC7C9EF0B3433C82FB8973C6B01915401
FILE: 02 - House of Cards.flac
  Size: 63244402 Hash: E7DA967C371B3C09DFE3ACF454DFAD93 Accuracy: -m8
  Conclusion: CDDA 99%
  Signature: 164A92B23DE2320A35102E83FF13636BBAC4D450
FILE: 01 - Defining the Legacy.flac
  Size: 68467335 Hash: 3CD7FA3F14931F639B3B98AC456A75B7 Accuracy: -m8
  Conclusion: CDDA 99%
  Signature: 52C20CEA5CA3B3CE05D975C3C41E2A66A2520DDB
Код: Выделить всё
foobar2000 1.3.16 / Замер динамического диапазона (DR) 1.1.1
Дата отчёта:  2018-10-11 13:22:52
--------------------------------------------------------------------------------
Анализ:   Flamborough Head / Defining the Legacy
--------------------------------------------------------------------------------
DR         Пики         RMS           Продолжительность трека
--------------------------------------------------------------------------------
DR5       -2.45 дБ   -10.70 дБ     11:17 01-Defining the Legacy
DR5       -2.44 дБ   -10.02 дБ      9:17 02-House of Cards
DR7       -2.42 дБ   -11.25 дБ     12:35 03-Garden of Dreams
DR7       -2.50 дБ   -11.41 дБ      9:07 04-Assassin
DR9        0.00 дБ   -11.19 дБ     11:17 05-Impulse
DR8       -2.50 дБ   -13.45 дБ      6:35 06-Bridge to the Promised Land
DR7       -2.50 дБ   -11.42 дБ      7:59 07-Mind-Sculpture
--------------------------------------------------------------------------------
Количество треков: 7
Реальные значения DR: DR7
Частота:   44100 Гц
Каналов:   2
Разрядность:   16
Битрейт:   934 кбит/с
Кодек:   FLAC
================================================================================

- Siebe-Rein Schaaf / lead vocals, keyboards
- André Cents / guitar
- Edo Spanninga / keyboards
- Marcel Derix / bass
- Koen Roozen / drums
#777Тип: Album, Reissue, Remastered, Triple Gatefold Digipak
Год издания оригинала: 2002, Cyclops #CYCL 108
Год переиздания: 2018
Страна - производитель диска: Poland
Издатель (лейбл): Oskar
Номер по каталогу: OSKAR 1077CD
Продолжительность: 58:14
Источник (релизер): Моя коллекция, мой рип
Трэклист:
1. One For The Crow (11:59)
2. Old Shoes (13:12)
3. Separate (1:39)
4. Daydream (6:17)
5. Nightlife (10:05)
6. Old Forest (2:45)
7. Limestonerock (9:58)
8. New Shoes (2:14)
Код: Выделить всё
Exact Audio Copy V1.3 from 2. September 2016
EAC extraction logfile from 10. October 2018, 18:18
Flamborough Head / One for the Crow
Used drive  : ATAPI   iHAS122   F   Adapter: 1  ID: 0
Read mode               : Secure
Utilize accurate stream : Yes
Defeat audio cache      : Yes
Make use of C2 pointers : No
Read offset correction                      : 6
Overread into Lead-In and Lead-Out          : No
Fill up missing offset samples with silence : Yes
Delete leading and trailing silent blocks   : No
Null samples used in CRC calculations       : Yes
Used interface                              : Native Win32 interface for Win NT & 2000
Gap handling                                : Appended to previous track
Used output format              : User Defined Encoder
Selected bitrate                : 1024 kBit/s
Quality                         : High
Add ID3 tag                     : Yes
Command line compressor         : C:\Program Files (x86)\Exact Audio Copy\Flac\flac.exe
Additional command line options : -6 -V -T "ARTIST=%artist%" -T "TITLE=%title%" -T "ALBUM=%albumtitle%" -T "DATE=%year%" -T "TRACKNUMBER=%tracknr%" -T "GENRE=%genre%" -T "COMMENT=%comment%" %hascover%--picture="%coverfile%"%hascover% %source% -o %dest%
TOC of the extracted CD
     Track |   Start  |  Length  | Start sector | End sector
    ---------------------------------------------------------
        1  |  0:00.00 | 12:00.31 |         0    |    54030
        2  | 12:00.31 | 13:13.30 |     54031    |   113535
        3  | 25:13.61 |  1:39.30 |    113536    |   120990
        4  | 26:53.16 |  6:18.08 |    120991    |   149348
        5  | 33:11.24 | 10:06.53 |    149349    |   194851
        6  | 43:18.02 |  2:45.68 |    194852    |   207294
        7  | 46:03.70 |  9:59.16 |    207295    |   252235
        8  | 56:03.11 |  2:14.37 |    252236    |   262322
Track  1
     Filename E:\Music\olaf_alien\FLAMBOROUGH HEAD\2002 - One for the Crow\01 - One for the Crow.wav
     Pre-gap length  0:00:02.00
     Peak level 66.8 %
     Extraction speed 5.7 X
     Track quality 99.9 %
     Test CRC D899C08E
     Copy CRC D899C08E
     Track not present in AccurateRip database
     Copy OK
Track  2
     Filename E:\Music\olaf_alien\FLAMBOROUGH HEAD\2002 - One for the Crow\02 - Old Shoes.wav
     Peak level 74.9 %
     Extraction speed 7.7 X
     Track quality 100.0 %
     Test CRC 0A16DFA7
     Copy CRC 0A16DFA7
     Track not present in AccurateRip database
     Copy OK
Track  3
     Filename E:\Music\olaf_alien\FLAMBOROUGH HEAD\2002 - One for the Crow\03 - Seperate.wav
     Peak level 69.9 %
     Extraction speed 6.5 X
     Track quality 100.0 %
     Test CRC 948EEFFB
     Copy CRC 948EEFFB
     Track not present in AccurateRip database
     Copy OK
Track  4
     Filename E:\Music\olaf_alien\FLAMBOROUGH HEAD\2002 - One for the Crow\04 - Daydreams.wav
     Peak level 74.9 %
     Extraction speed 8.4 X
     Track quality 100.0 %
     Test CRC 57755C2D
     Copy CRC 57755C2D
     Track not present in AccurateRip database
     Copy OK
Track  5
     Filename E:\Music\olaf_alien\FLAMBOROUGH HEAD\2002 - One for the Crow\05 - Nightlife.wav
     Peak level 74.9 %
     Extraction speed 9.3 X
     Track quality 100.0 %
     Test CRC B15C817B
     Copy CRC B15C817B
     Track not present in AccurateRip database
     Copy OK
Track  6
     Filename E:\Music\olaf_alien\FLAMBOROUGH HEAD\2002 - One for the Crow\06 - Old Forest.wav
     Peak level 69.6 %
     Extraction speed 8.6 X
     Track quality 100.0 %
     Test CRC A8D8E470
     Copy CRC A8D8E470
     Track not present in AccurateRip database
     Copy OK
Track  7
     Filename E:\Music\olaf_alien\FLAMBOROUGH HEAD\2002 - One for the Crow\07 - Limestone Rock.wav
     Peak level 74.9 %
     Extraction speed 9.3 X
     Track quality 99.9 %
     Test CRC 5C064D05
     Copy CRC 5C064D05
     Track not present in AccurateRip database
     Copy OK
Track  8
     Filename E:\Music\olaf_alien\FLAMBOROUGH HEAD\2002 - One for the Crow\08 - New Shoes.wav
     Peak level 71.4 %
     Extraction speed 8.7 X
     Track quality 100.0 %
     Test CRC 5AB8DBD9
     Copy CRC 5AB8DBD9
     Track not present in AccurateRip database
     Copy OK
None of the tracks are present in the AccurateRip database
No errors occurred
End of status report
---- CUETools DB Plugin V2.1.6
[CTDB TOCID: 2P0NWn73KH8eb_Cg3lLexbWmm6E-] disk not present in database
Submit result: 2P0NWn73KH8eb_Cg3lLexbWmm6E- has been uploaded
==== Log checksum A36B5BDC85C6E853A8C9B2AB8968BC5C1F74C89D0AA198C42749FBB71E4F10D2 ====
Код: Выделить всё
REM GENRE "Symphonic Rock"
REM DATE 2002
REM DISCID 690DA908
REM COMMENT "ExactAudioCopy v1.3"
PERFORMER "Flamborough Head"
TITLE "One for the Crow"
REM COMPOSER ""
FILE "01 - One for the Crow.wav" WAVE
  TRACK 01 AUDIO
    TITLE "One for the Crow"
    PERFORMER "Flamborough Head"
    REM COMPOSER ""
    INDEX 01 00:00:00
FILE "02 - Old Shoes.wav" WAVE
  TRACK 02 AUDIO
    TITLE "Old Shoes"
    PERFORMER "Flamborough Head"
    REM COMPOSER ""
    INDEX 01 00:00:00
FILE "03 - Seperate.wav" WAVE
  TRACK 03 AUDIO
    TITLE "Seperate"
    PERFORMER "Flamborough Head"
    REM COMPOSER ""
    INDEX 01 00:00:00
FILE "04 - Daydreams.wav" WAVE
  TRACK 04 AUDIO
    TITLE "Daydreams"
    PERFORMER "Flamborough Head"
    REM COMPOSER ""
    INDEX 01 00:00:00
FILE "05 - Nightlife.wav" WAVE
  TRACK 05 AUDIO
    TITLE "Nightlife"
    PERFORMER "Flamborough Head"
    REM COMPOSER ""
    INDEX 01 00:00:00
FILE "06 - Old Forest.wav" WAVE
  TRACK 06 AUDIO
    TITLE "Old Forest"
    PERFORMER "Flamborough Head"
    REM COMPOSER ""
    INDEX 01 00:00:00
FILE "07 - Limestone Rock.wav" WAVE
  TRACK 07 AUDIO
    TITLE "Limestone Rock"
    PERFORMER "Flamborough Head"
    REM COMPOSER ""
    INDEX 01 00:00:00
FILE "08 - New Shoes.wav" WAVE
  TRACK 08 AUDIO
    TITLE "New Shoes"
    PERFORMER "Flamborough Head"
    REM COMPOSER ""
    INDEX 01 00:00:00
Код: Выделить всё
-----------------------
DON'T MODIFY THIS FILE
-----------------------
PERFORMER: auCDtect Task Manager, ver. 1.5.1RC4 build 1.5.1.5
Copyright (c) 2008-2010 y-soft. All rights reserved
[url=http://y-soft.org]http://y-soft.org[/url]
ANALYZER: auCDtect: CD records authenticity detector, version 0.8.2
Copyright (c) 2004 Oleg Berngardt. All rights reserved.
Copyright (c) 2004 Alexander Djourik. All rights reserved.
FILE: 08 - New Shoes.flac
  Size: 9253291 Hash: 4F0FEDD4CA2AEDA74C1CEC095E56357E Accuracy: -m8
  Conclusion: CDDA 99%
  Signature: EE57856CCA1E16081E361BF8462997D43B767E89
FILE: 07 - Limestone Rock.flac
  Size: 61308179 Hash: DED98AA6D754A1AB81472DEB372F6E81 Accuracy: -m8
  Conclusion: CDDA 99%
  Signature: 4D8F1DD4FECFD4593E481C8FBFF55657993826CE
FILE: 06 - Old Forest.flac
  Size: 12231129 Hash: C6A8FE53685EFFAA6BF7B67DCCFC86E8 Accuracy: -m8
  Conclusion: CDDA 100%
  Signature: 990FC9FF6C155DE237C78C42FC87EF206E84C7F3
FILE: 05 - Nightlife.flac
  Size: 67833902 Hash: 7DD19A02006C48C1F3CEE340250A666B Accuracy: -m8
  Conclusion: CDDA 100%
  Signature: 658C1148E363382A7CF627E2FC469E63BCCCF15A
FILE: 04 - Daydreams.flac
  Size: 35952274 Hash: 47E8F31D3E79FFE7D17FD6197AD3C503 Accuracy: -m8
  Conclusion: CDDA 100%
  Signature: FC58BF7359B9C1E68BC12BC13AA56C5B46B0F5B5
FILE: 03 - Seperate.flac
  Size: 6125337 Hash: D51C541FC0C64C666B557CD1B230C9C9 Accuracy: -m8
  Conclusion: CDDA 100%
  Signature: D9EF103104D8B9655E84DE6CA145C9099965F98B
FILE: 02 - Old Shoes.flac
  Size: 84047268 Hash: 88C6E7441DCB16E374705AA0F7C80050 Accuracy: -m8
  Conclusion: CDDA 100%
  Signature: EFFF8CC780A8B96466F477413E77D2C4B0FB7209
FILE: 01 - One for the Crow.flac
  Size: 77928060 Hash: 75738C8DDA40264CAE84D4CC8806FF83 Accuracy: -m8
  Conclusion: CDDA 99%
  Signature: 2C42A92CFCBFB0002B34B6AD8F2FBABBA2875EA1
Код: Выделить всё
foobar2000 1.3.16 / Замер динамического диапазона (DR) 1.1.1
Дата отчёта:  2018-10-11 13:23:14
--------------------------------------------------------------------------------
Анализ:   Flamborough Head / One for the Crow
--------------------------------------------------------------------------------
DR         Пики         RMS           Продолжительность трека
--------------------------------------------------------------------------------
DR7       -3.50 дБ   -12.67 дБ     12:00 01-One for the Crow
DR9       -2.50 дБ   -13.48 дБ     13:13 02-Old Shoes
DR12      -3.11 дБ   -17.53 дБ      1:39 03-Seperate
DR7       -2.50 дБ   -13.23 дБ      6:18 04-Daydreams
DR8       -2.50 дБ   -12.16 дБ     10:07 05-Nightlife
DR8       -3.14 дБ   -13.23 дБ      2:46 06-Old Forest
DR10      -2.50 дБ   -15.50 дБ      9:59 07-Limestone Rock
DR8       -2.92 дБ   -14.94 дБ      2:14 08-New Shoes
--------------------------------------------------------------------------------
Количество треков: 8
Реальные значения DR: DR9
Частота:   44100 Гц
Каналов:   2
Разрядность:   16
Битрейт:   550 кбит/с
Кодек:   FLAC
================================================================================

- Margriet Boomsma / lead vocals, flute, recorders
- Eddie Mulder / acoustic & electric guitars, backing vocals
- Edo Spanninga / keyboards
- Marcel Derix / bass, fretless bass
- Koen Roozen / drums, percussion
#777Тип: Album, Reissue, Remastered, Triple Gatefold Digipak
Год издания оригинала: 2005, Cyclops #CYCL 152
Год переиздания: 2016
Страна - производитель диска: Poland
Издатель (лейбл): Oskar
Номер по каталогу: OSKAR 1068 CD
Продолжительность: 51:52
Источник (релизер): Моя коллекция, мой рип

Трэклист:
1. For Starters (2:24)
2. Maureen (11:58)
3. Higher Ground (6:55)
4. Silent Stranger (10:29)
5. Captive Of Fate (8:05)
6. Mantova (8:37)
7. Year After Year (3:12)
Код: Выделить всё
Exact Audio Copy V1.3 from 2. September 2016
EAC extraction logfile from 11. October 2018, 12:13
Flamborough Head / Tales of Imperfection
Used drive  : ATAPI   iHAS122   F   Adapter: 1  ID: 0
Read mode               : Secure
Utilize accurate stream : Yes
Defeat audio cache      : Yes
Make use of C2 pointers : No
Read offset correction                      : 6
Overread into Lead-In and Lead-Out          : No
Fill up missing offset samples with silence : Yes
Delete leading and trailing silent blocks   : No
Null samples used in CRC calculations       : Yes
Used interface                              : Native Win32 interface for Win NT & 2000
Gap handling                                : Appended to previous track
Used output format              : User Defined Encoder
Selected bitrate                : 1024 kBit/s
Quality                         : High
Add ID3 tag                     : Yes
Command line compressor         : C:\Program Files (x86)\Exact Audio Copy\Flac\flac.exe
Additional command line options : -6 -V -T "ARTIST=%artist%" -T "TITLE=%title%" -T "ALBUM=%albumtitle%" -T "DATE=%year%" -T "TRACKNUMBER=%tracknr%" -T "GENRE=%genre%" -T "COMMENT=%comment%" %hascover%--picture="%coverfile%"%hascover% %source% -o %dest%
TOC of the extracted CD
     Track |   Start  |  Length  | Start sector | End sector
    ---------------------------------------------------------
        1  |  0:00.00 |  2:23.40 |         0    |    10764
        2  |  2:23.40 | 11:57.49 |     10765    |    64588
        3  | 14:21.14 |  6:55.42 |     64589    |    95755
        4  | 21:16.56 | 10:28.25 |     95756    |   142880
        5  | 31:45.06 |  8:05.41 |    142881    |   179296
        6  | 39:50.47 |  8:37.26 |    179297    |   218097
        7  | 48:27.73 |  3:11.34 |    218098    |   232456
Track  1
     Filename E:\Music\olaf_alien\FLAMBOROUGH HEAD\2005 - Tales of Imperfection\01 - For Starters.wav
     Pre-gap length  0:00:02.00
     Peak level 86.3 %
     Extraction speed 4.8 X
     Track quality 100.0 %
     Test CRC F3941BEC
     Copy CRC F3941BEC
     Track not present in AccurateRip database
     Copy OK
Track  2
     Filename E:\Music\olaf_alien\FLAMBOROUGH HEAD\2005 - Tales of Imperfection\02 - Maureen.wav
     Peak level 97.6 %
     Extraction speed 6.7 X
     Track quality 100.0 %
     Test CRC A38A4258
     Copy CRC A38A4258
     Track not present in AccurateRip database
     Copy OK
Track  3
     Filename E:\Music\olaf_alien\FLAMBOROUGH HEAD\2005 - Tales of Imperfection\03 - Higher Ground.wav
     Peak level 97.6 %
     Extraction speed 7.6 X
     Track quality 100.0 %
     Test CRC D6207473
     Copy CRC D6207473
     Track not present in AccurateRip database
     Copy OK
Track  4
     Filename E:\Music\olaf_alien\FLAMBOROUGH HEAD\2005 - Tales of Imperfection\04 - Silent Stranger.wav
     Peak level 97.6 %
     Extraction speed 8.7 X
     Track quality 100.0 %
     Test CRC 057F8765
     Copy CRC 057F8765
     Track not present in AccurateRip database
     Copy OK
Track  5
     Filename E:\Music\olaf_alien\FLAMBOROUGH HEAD\2005 - Tales of Imperfection\05 - Captive of Fate.wav
     Peak level 97.6 %
     Extraction speed 9.3 X
     Track quality 100.0 %
     Test CRC 11CA039A
     Copy CRC 11CA039A
     Track not present in AccurateRip database
     Copy OK
Track  6
     Filename E:\Music\olaf_alien\FLAMBOROUGH HEAD\2005 - Tales of Imperfection\06 - Mantova.wav
     Peak level 97.6 %
     Extraction speed 10.1 X
     Track quality 100.0 %
     Test CRC 91E4E76E
     Copy CRC 91E4E76E
     Track not present in AccurateRip database
     Copy OK
Track  7
     Filename E:\Music\olaf_alien\FLAMBOROUGH HEAD\2005 - Tales of Imperfection\07 - Year after Year.wav
     Peak level 97.6 %
     Extraction speed 9.4 X
     Track quality 100.0 %
     Test CRC A9ED72C7
     Copy CRC A9ED72C7
     Track not present in AccurateRip database
     Copy OK
None of the tracks are present in the AccurateRip database
No errors occurred
End of status report
---- CUETools DB Plugin V2.1.6
[CTDB TOCID: 5_Z2lC.0sh6icdOupqFcTgLvamA-] found
Submit result: 5_Z2lC.0sh6icdOupqFcTgLvamA- has been confirmed
Track | CTDB Status
  1   | (2/2) Accurately ripped
  2   | (2/2) Accurately ripped
  3   | (2/2) Accurately ripped
  4   | (2/2) Accurately ripped
  5   | (2/2) Accurately ripped
  6   | (2/2) Accurately ripped
  7   | (2/2) Accurately ripped
==== Log checksum 9ACB46F60AA3F3068B2EA0D25A9A4A68F66FD1A24B6F802EC7E2BDAAFED83CE7 ====
Код: Выделить всё
REM GENRE "Symphonic Rock"
REM DATE 2005
REM DISCID 640C1B07
REM COMMENT "ExactAudioCopy v1.3"
PERFORMER "Flamborough Head"
TITLE "Tales of Imperfection"
REM COMPOSER ""
FILE "01 - For Starters.wav" WAVE
  TRACK 01 AUDIO
    TITLE "For Starters"
    PERFORMER "Flamborough Head"
    REM COMPOSER ""
    INDEX 01 00:00:00
FILE "02 - Maureen.wav" WAVE
  TRACK 02 AUDIO
    TITLE "Maureen"
    PERFORMER "Flamborough Head"
    REM COMPOSER ""
    INDEX 01 00:00:00
FILE "03 - Higher Ground.wav" WAVE
  TRACK 03 AUDIO
    TITLE "Higher Ground"
    PERFORMER "Flamborough Head"
    REM COMPOSER ""
    INDEX 01 00:00:00
FILE "04 - Silent Stranger.wav" WAVE
  TRACK 04 AUDIO
    TITLE "Silent Stranger"
    PERFORMER "Flamborough Head"
    REM COMPOSER ""
    INDEX 01 00:00:00
FILE "05 - Captive of Fate.wav" WAVE
  TRACK 05 AUDIO
    TITLE "Captive of Fate"
    PERFORMER "Flamborough Head"
    REM COMPOSER ""
    INDEX 01 00:00:00
FILE "06 - Mantova.wav" WAVE
  TRACK 06 AUDIO
    TITLE "Mantova"
    PERFORMER "Flamborough Head"
    REM COMPOSER ""
    INDEX 01 00:00:00
FILE "07 - Year after Year.wav" WAVE
  TRACK 07 AUDIO
    TITLE "Year after Year"
    PERFORMER "Flamborough Head"
    REM COMPOSER ""
    INDEX 01 00:00:00
Код: Выделить всё
-----------------------
DON'T MODIFY THIS FILE
-----------------------
PERFORMER: auCDtect Task Manager, ver. 1.5.1RC4 build 1.5.1.5
Copyright (c) 2008-2010 y-soft. All rights reserved
[url=http://y-soft.org]http://y-soft.org[/url]
ANALYZER: auCDtect: CD records authenticity detector, version 0.8.2
Copyright (c) 2004 Oleg Berngardt. All rights reserved.
Copyright (c) 2004 Alexander Djourik. All rights reserved.
FILE: 07 - Year after Year.flac
  Size: 21316815 Hash: 7BA75F2598E7DFB06FEAE4E211475B18 Accuracy: -m8
  Conclusion: CDDA 100%
  Signature: 6FCBE49FB6CBD0C74ED92B2AB2D4D955D13BC8FB
FILE: 06 - Mantova.flac
  Size: 66479944 Hash: 045036E9DCFCA3C076153395EE74EB00 Accuracy: -m8
  Conclusion: CDDA 100%
  Signature: 2D9B8D8E3E79FD3D98A202D59FB04646ECAEB02E
FILE: 05 - Captive of Fate.flac
  Size: 54202230 Hash: 001F16AFE6664FED6782C4F8F3FFC149 Accuracy: -m8
  Conclusion: CDDA 100%
  Signature: 034F61B9D5A81A947C2A057D2895B5BB2B61A393
FILE: 04 - Silent Stranger.flac
  Size: 74742334 Hash: 881C9AF87525F5D1FBA90049DC315F04 Accuracy: -m8
  Conclusion: CDDA 100%
  Signature: 607D8456D552291A85F02C1C51E3FCB45FE433E7
FILE: 03 - Higher Ground.flac
  Size: 46823768 Hash: E52248870723FA2C51CFD87C1CA3ED82 Accuracy: -m8
  Conclusion: CDDA 99%
  Signature: 0BBEE391012B4222C3E4EC2DAAD18AD9068EC012
FILE: 02 - Maureen.flac
  Size: 86574407 Hash: CD8C0CD74240E39FF9B71675CDB17BA6 Accuracy: -m8
  Conclusion: CDDA 100%
  Signature: DF5070EABC3E576856274BB4150C6E25EBB64B0F
FILE: 01 - For Starters.flac
  Size: 15066216 Hash: 9892AA2D86B78F597FED79F799D88155 Accuracy: -m8
  Conclusion: CDDA 100%
  Signature: 0A2A5CC05A9734E501731C6F42298DC790D514F4
Код: Выделить всё
foobar2000 1.3.16 / Замер динамического диапазона (DR) 1.1.1
Дата отчёта:  2018-10-11 13:23:36
--------------------------------------------------------------------------------
Анализ:   Flamborough Head / Tales of Imperfection
--------------------------------------------------------------------------------
DR         Пики         RMS           Продолжительность трека
--------------------------------------------------------------------------------
DR12      -1.27 дБ   -16.10 дБ      2:24 01-For Starters
DR7       -0.21 дБ    -9.51 дБ     11:58 02-Maureen
DR7       -0.21 дБ    -9.51 дБ      6:56 03-Higher Ground
DR7       -0.21 дБ    -9.45 дБ     10:28 04-Silent Stranger
DR8       -0.21 дБ   -11.04 дБ      8:06 05-Captive of Fate
DR6       -0.21 дБ    -7.69 дБ      8:37 06-Mantova
DR7       -0.21 дБ    -9.15 дБ      3:11 07-Year after Year
--------------------------------------------------------------------------------
Количество треков: 7
Реальные значения DR: DR8
Частота:   44100 Гц
Каналов:   2
Разрядность:   16
Битрейт:   890 кбит/с
Кодек:   FLAC
================================================================================

- Margriet Boomsma / lead vocals, flute, recorders
- Eddie Mulder / acoustic & electric guitars, backing vocals
- Edo Spanninga / keyboards
- Marcel Derix / bass
- Koen Roozen / drums, percussion
#777Тип: Live Album
Год издания оригинала: 2008
Страна - производитель диска: UK
Издатель (лейбл): Cyclops
Номер по каталогу: CYCL 165
Продолжительность: 01:18:50
Источник (релизер): Моя коллекция, мой рип

Трэклист:
1. Russian Roulette (1:02)
2. For Starters (0:54)
3. Maureen (11:51)
4. Old Shoes (12:07)
5. Limestock Rock (10:47)
6. Captive Of Fate (7:58)
7. Mantova (8:40)
8. Year After Year (3:10)
9. Silent Stranger (10:07)
10. Garden Of Dreams (12:14)
Код: Выделить всё
Exact Audio Copy V1.3 from 2. September 2016
EAC extraction logfile from 10. October 2018, 17:41
Flamborough Head / Live in Budapest
Used drive  : ATAPI   iHAS122   F   Adapter: 1  ID: 0
Read mode               : Secure
Utilize accurate stream : Yes
Defeat audio cache      : Yes
Make use of C2 pointers : No
Read offset correction                      : 6
Overread into Lead-In and Lead-Out          : No
Fill up missing offset samples with silence : Yes
Delete leading and trailing silent blocks   : No
Null samples used in CRC calculations       : Yes
Used interface                              : Native Win32 interface for Win NT & 2000
Gap handling                                : Appended to previous track
Used output format              : User Defined Encoder
Selected bitrate                : 1024 kBit/s
Quality                         : High
Add ID3 tag                     : Yes
Command line compressor         : C:\Program Files (x86)\Exact Audio Copy\Flac\flac.exe
Additional command line options : -6 -V -T "ARTIST=%artist%" -T "TITLE=%title%" -T "ALBUM=%albumtitle%" -T "DATE=%year%" -T "TRACKNUMBER=%tracknr%" -T "GENRE=%genre%" -T "COMMENT=%comment%" %hascover%--picture="%coverfile%"%hascover% %source% -o %dest%
TOC of the extracted CD
     Track |   Start  |  Length  | Start sector | End sector
    ---------------------------------------------------------
        1  |  0:00.00 |  1:02.45 |         0    |     4694
        2  |  1:02.45 |  0:54.19 |      4695    |     8763
        3  |  1:56.64 | 11:51.12 |      8764    |    62100
        4  | 13:48.01 | 12:07.32 |     62101    |   116657
        5  | 25:55.33 | 10:47.28 |    116658    |   165210
        6  | 36:42.61 |  7:58.67 |    165211    |   201127
        7  | 44:41.53 |  8:40.24 |    201128    |   240151
        8  | 53:22.02 |  3:10.35 |    240152    |   254436
        9  | 56:32.37 | 10:07.63 |    254437    |   300024
       10  | 66:40.25 | 12:14.30 |    300025    |   355104
Track  1
     Filename E:\Music\olaf_alien\FLAMBOROUGH HEAD\2008 - Live In Budapest\01 - Russian Roulette.wav
     Pre-gap length  0:00:02.00
     Peak level 97.7 %
     Extraction speed 3.9 X
     Track quality 100.0 %
     Test CRC 317CB2D3
     Copy CRC 317CB2D3
     Accurately ripped (confidence 7)  [040787BC]  (AR v2)
     Copy OK
Track  2
     Filename E:\Music\olaf_alien\FLAMBOROUGH HEAD\2008 - Live In Budapest\02 - For Starters.wav
     Peak level 32.3 %
     Extraction speed 3.8 X
     Track quality 100.0 %
     Test CRC 97FFB581
     Copy CRC 97FFB581
     Accurately ripped (confidence 7)  [77ED59BF]  (AR v2)
     Copy OK
Track  3
     Filename E:\Music\olaf_alien\FLAMBOROUGH HEAD\2008 - Live In Budapest\03 - Maureen.wav
     Peak level 97.7 %
     Extraction speed 6.9 X
     Track quality 100.0 %
     Test CRC 85C1F478
     Copy CRC 85C1F478
     Accurately ripped (confidence 7)  [6B5EBEBC]  (AR v2)
     Copy OK
Track  4
     Filename E:\Music\olaf_alien\FLAMBOROUGH HEAD\2008 - Live In Budapest\04 - Old Shoes.wav
     Peak level 97.7 %
     Extraction speed 7.6 X
     Track quality 99.9 %
     Test CRC DB39490A
     Copy CRC DB39490A
     Accurately ripped (confidence 7)  [79177C5E]  (AR v2)
     Copy OK
Track  5
     Filename E:\Music\olaf_alien\FLAMBOROUGH HEAD\2008 - Live In Budapest\05 - Limestone Rock.wav
     Peak level 97.7 %
     Extraction speed 8.4 X
     Track quality 99.9 %
     Test CRC 80194194
     Copy CRC 80194194
     Accurately ripped (confidence 7)  [5E8455FC]  (AR v2)
     Copy OK
Track  6
     Filename E:\Music\olaf_alien\FLAMBOROUGH HEAD\2008 - Live In Budapest\06 - Captive of Fate.wav
     Peak level 72.7 %
     Extraction speed 9.7 X
     Track quality 100.0 %
     Test CRC D3E3F77D
     Copy CRC D3E3F77D
     Accurately ripped (confidence 7)  [100817CC]  (AR v2)
     Copy OK
Track  7
     Filename E:\Music\olaf_alien\FLAMBOROUGH HEAD\2008 - Live In Budapest\07 - Mantova.wav
     Peak level 97.7 %
     Extraction speed 10.4 X
     Track quality 100.0 %
     Test CRC 8C93DEA3
     Copy CRC 8C93DEA3
     Accurately ripped (confidence 7)  [C3CA0CD7]  (AR v2)
     Copy OK
Track  8
     Filename E:\Music\olaf_alien\FLAMBOROUGH HEAD\2008 - Live In Budapest\08 - Year after Year.wav
     Peak level 97.7 %
     Extraction speed 9.7 X
     Track quality 100.0 %
     Test CRC E3262226
     Copy CRC E3262226
     Accurately ripped (confidence 7)  [E20586C7]  (AR v2)
     Copy OK
Track  9
     Filename E:\Music\olaf_alien\FLAMBOROUGH HEAD\2008 - Live In Budapest\09 - Silent Stranger.wav
     Peak level 97.7 %
     Extraction speed 11.3 X
     Track quality 100.0 %
     Test CRC 3A164F7B
     Copy CRC 3A164F7B
     Accurately ripped (confidence 7)  [6D220BF5]  (AR v2)
     Copy OK
Track 10
     Filename E:\Music\olaf_alien\FLAMBOROUGH HEAD\2008 - Live In Budapest\10 - Garden of Dreams.wav
     Peak level 97.7 %
     Extraction speed 11.1 X
     Track quality 99.9 %
     Test CRC 898555A6
     Copy CRC 898555A6
     Accurately ripped (confidence 7)  [D8D706D9]  (AR v2)
     Copy OK
All tracks accurately ripped
No errors occurred
End of status report
---- CUETools DB Plugin V2.1.6
[CTDB TOCID: kDjXdNgFe9.5N0FV.tvVY.gZpbM-] found
Submit result: kDjXdNgFe9.5N0FV.tvVY.gZpbM- has been confirmed
Track | CTDB Status
  1   | (1/1) Accurately ripped
  2   | (1/1) Accurately ripped
  3   | (1/1) Accurately ripped
  4   | (1/1) Accurately ripped
  5   | (1/1) Accurately ripped
  6   | (1/1) Accurately ripped
  7   | (1/1) Accurately ripped
  8   | (1/1) Accurately ripped
  9   | (1/1) Accurately ripped
 10   | (1/1) Accurately ripped
==== Log checksum ED2FAF856230AA733A3D75DFE2AC344EF2AC5CD7D6D5F11635ECFEDA8DEF2C70 ====
Код: Выделить всё
REM GENRE "Symphonic Rock"
REM DATE 2007
REM DISCID 70127E0A
REM COMMENT "ExactAudioCopy v1.3"
PERFORMER "Flamborough Head"
TITLE "Live in Budapest"
REM COMPOSER ""
FILE "01 - Russian Roulette.wav" WAVE
  TRACK 01 AUDIO
    TITLE "Russian Roulette"
    PERFORMER "Flamborough Head"
    REM COMPOSER ""
    INDEX 01 00:00:00
FILE "02 - For Starters.wav" WAVE
  TRACK 02 AUDIO
    TITLE "For Starters"
    PERFORMER "Flamborough Head"
    REM COMPOSER ""
    INDEX 01 00:00:00
FILE "03 - Maureen.wav" WAVE
  TRACK 03 AUDIO
    TITLE "Maureen"
    PERFORMER "Flamborough Head"
    REM COMPOSER ""
    INDEX 01 00:00:00
FILE "04 - Old Shoes.wav" WAVE
  TRACK 04 AUDIO
    TITLE "Old Shoes"
    PERFORMER "Flamborough Head"
    REM COMPOSER ""
    INDEX 01 00:00:00
FILE "05 - Limestone Rock.wav" WAVE
  TRACK 05 AUDIO
    TITLE "Limestone Rock"
    PERFORMER "Flamborough Head"
    REM COMPOSER ""
    INDEX 01 00:00:00
FILE "06 - Captive of Fate.wav" WAVE
  TRACK 06 AUDIO
    TITLE "Captive of Fate"
    PERFORMER "Flamborough Head"
    REM COMPOSER ""
    INDEX 01 00:00:00
FILE "07 - Mantova.wav" WAVE
  TRACK 07 AUDIO
    TITLE "Mantova"
    PERFORMER "Flamborough Head"
    REM COMPOSER ""
    INDEX 01 00:00:00
FILE "08 - Year after Year.wav" WAVE
  TRACK 08 AUDIO
    TITLE "Year after Year"
    PERFORMER "Flamborough Head"
    REM COMPOSER ""
    INDEX 01 00:00:00
FILE "09 - Silent Stranger.wav" WAVE
  TRACK 09 AUDIO
    TITLE "Silent Stranger"
    PERFORMER "Flamborough Head"
    REM COMPOSER ""
    INDEX 01 00:00:00
FILE "10 - Garden of Dreams.wav" WAVE
  TRACK 10 AUDIO
    TITLE "Garden of Dreams"
    PERFORMER "Flamborough Head"
    REM COMPOSER ""
    INDEX 01 00:00:00
Код: Выделить всё
-----------------------
DON'T MODIFY THIS FILE
-----------------------
PERFORMER: auCDtect Task Manager, ver. 1.5.1RC4 build 1.5.1.5
Copyright (c) 2008-2010 y-soft. All rights reserved
[url=http://y-soft.org]http://y-soft.org[/url]
ANALYZER: auCDtect: CD records authenticity detector, version 0.8.2
Copyright (c) 2004 Oleg Berngardt. All rights reserved.
Copyright (c) 2004 Alexander Djourik. All rights reserved.
FILE: 10 - Garden of Dreams.flac
  Size: 79724050 Hash: F17921E9280B08D39EFB5A50BC8AB745 Accuracy: -m8
  Conclusion: CDDA 100%
  Signature: B8DF85ECEF74CF315B3C3F2D0AA6F4717E7B02AF
FILE: 09 - Silent Stranger.flac
  Size: 61387859 Hash: F6F390F4A654E1CE89C37F6970C44573 Accuracy: -m8
  Conclusion: CDDA 100%
  Signature: 3B9285C7DC0AED2725D50CDDB78202FB5F987AC9
FILE: 08 - Year after Year.flac
  Size: 17319475 Hash: C132D2F497A1E920AE4E677F0E907530 Accuracy: -m8
  Conclusion: CDDA 99%
  Signature: 2658158EB2286093E716E2BEA82143756A7641A5
FILE: 07 - Mantova.flac
  Size: 58827816 Hash: 898B2D11D12DC1CF46176C348A57E39D Accuracy: -m8
  Conclusion: CDDA 100%
  Signature: 8C914D1242E6580BC4BF685F94604A310FCFE241
FILE: 06 - Captive of Fate.flac
  Size: 37271798 Hash: 2F2AFA8749D85CBE956169449827D819 Accuracy: -m8
  Conclusion: CDDA 100%
  Signature: B791BCF4B4ADE8247B91D610664AA0F55FA3C2D1
FILE: 05 - Limestone Rock.flac
  Size: 64167597 Hash: C8CE328F438134DE48823E64C0D3AC40 Accuracy: -m8
  Conclusion: CDDA 100%
  Signature: 64AD22BD029A1835D08AFEA3893095C4960B6190
FILE: 04 - Old Shoes.flac
  Size: 73851706 Hash: 11C18BDEF8D47FB15EED47C27037B313 Accuracy: -m8
  Conclusion: CDDA 100%
  Signature: 2C201B15023F2EBD6BD8DB33A0C8EFAFDEC438AB
FILE: 03 - Maureen.flac
  Size: 72896434 Hash: EA25709DD148151B7D8CC8F53D7D13A6 Accuracy: -m8
  Conclusion: CDDA 100%
  Signature: FFCAB1635CD2783AF234C0ECFCE037CBF716AB59
FILE: 02 - For Starters.flac
  Size: 5307647 Hash: A4839C781A0B016401F8D5D31FBB73C9 Accuracy: -m8
  Conclusion: CDDA 85%
  Signature: CA68659FB42539C503CCD73BFD936774DB44016B
FILE: 01 - Russian Roulette.flac
  Size: 6513413 Hash: 2C3465BBEF7F4A23C4E84476816B2E08 Accuracy: -m8
  Conclusion: CDDA 100%
  Signature: 1410D37975B263BC93123FDAD5BF55B7F6A9BB9E
Код: Выделить всё
foobar2000 1.3.16 / Замер динамического диапазона (DR) 1.1.1
Дата отчёта:  2018-10-11 13:23:54
--------------------------------------------------------------------------------
Анализ:   Flamborough Head / Live in Budapest
--------------------------------------------------------------------------------
DR         Пики         RMS           Продолжительность трека
--------------------------------------------------------------------------------
DR15      -0.20 дБ   -16.29 дБ      1:03 01-Russian Roulette
DR9       -9.81 дБ   -21.85 дБ      0:54 02-For Starters
DR12      -0.20 дБ   -15.19 дБ     11:51 03-Maureen
DR13      -0.20 дБ   -15.85 дБ     12:07 04-Old Shoes
DR14      -0.20 дБ   -16.60 дБ     10:47 05-Limestone Rock
DR12      -2.76 дБ   -19.92 дБ      7:59 06-Captive of Fate
DR13      -0.20 дБ   -14.57 дБ      8:40 07-Mantova
DR13      -0.20 дБ   -16.37 дБ      3:10 08-Year after Year
DR11      -0.20 дБ   -14.59 дБ     10:08 09-Silent Stranger
DR11      -0.20 дБ   -13.92 дБ     12:14 10-Garden of Dreams
--------------------------------------------------------------------------------
Количество треков: 10
Реальные значения DR: DR12
Частота:   44100 Гц
Каналов:   2
Разрядность:   16
Битрейт:   868 кбит/с
Кодек:   FLAC
================================================================================

- Margriet Boomsma / vocals, flute, recorder
- Eddie Mulder / guitars, backing vocals
- Edo Spanninga / keyboards
- Marcel Derix / bass guitar
- Koen Roozen / drums, percussion
#777Тип: Album
Год издания оригинала: 2009
Страна - производитель диска: UK
Издатель (лейбл): Cyclops
Номер по каталогу: CYCL 170
Продолжительность: 52:36
Источник (релизер): Моя коллекция, мой рип

Трэклист:
1. The Garden Pond (5:31)
2. Sleepless Night (7:02)
3. Spring (5:25)
4. Waste of Time (6:32)
5. Don´t Forget Us (8:23)
6. Looking for John Maddock (19:43)
Код: Выделить всё
Exact Audio Copy V1.3 from 2. September 2016
EAC extraction logfile from 10. October 2018, 13:38
Flamborough Head / Looking For John Maddock
Used drive  : ATAPI   iHAS122   F   Adapter: 1  ID: 0
Read mode               : Secure
Utilize accurate stream : Yes
Defeat audio cache      : Yes
Make use of C2 pointers : No
Read offset correction                      : 6
Overread into Lead-In and Lead-Out          : No
Fill up missing offset samples with silence : Yes
Delete leading and trailing silent blocks   : No
Null samples used in CRC calculations       : Yes
Used interface                              : Native Win32 interface for Win NT & 2000
Gap handling                                : Appended to previous track
Used output format              : User Defined Encoder
Selected bitrate                : 1024 kBit/s
Quality                         : High
Add ID3 tag                     : Yes
Command line compressor         : C:\Program Files (x86)\Exact Audio Copy\Flac\flac.exe
Additional command line options : -6 -V -T "ARTIST=%artist%" -T "TITLE=%title%" -T "ALBUM=%albumtitle%" -T "DATE=%year%" -T "TRACKNUMBER=%tracknr%" -T "GENRE=%genre%" -T "COMMENT=%comment%" %hascover%--picture="%coverfile%"%hascover% %source% -o %dest%
TOC of the extracted CD
     Track |   Start  |  Length  | Start sector | End sector
    ---------------------------------------------------------
        1  |  0:00.00 |  5:31.36 |         0    |    24860
        2  |  5:31.36 |  6:59.39 |     24861    |    56324
        3  | 12:31.00 |  5:23.05 |     56325    |    80554
        4  | 17:54.05 |  6:30.22 |     80555    |   109826
        5  | 24:24.27 |  8:21.23 |    109827    |   147424
        6  | 32:45.50 | 19:42.66 |    147425    |   236140
Track  1
     Filename E:\Music\olaf_alien\FLAMBOROUGH HEAD\2009 - Looking for John Maddock\01 - The Garden Pond.wav
     Pre-gap length  0:00:02.00
     Peak level 100.0 %
     Extraction speed 3.6 X
     Track quality 100.0 %
     Test CRC F578240B
     Copy CRC F578240B
     Accurately ripped (confidence 8)  [C06386B1]  (AR v2)
     Copy OK
Track  2
     Filename E:\Music\olaf_alien\FLAMBOROUGH HEAD\2009 - Looking for John Maddock\02 - Sleepless Night.wav
     Pre-gap length  0:00:03.00
     Peak level 100.0 %
     Extraction speed 4.3 X
     Track quality 100.0 %
     Test CRC EA84D8FF
     Copy CRC EA84D8FF
     Accurately ripped (confidence 8)  [788E0F97]  (AR v2)
     Copy OK
Track  3
     Filename E:\Music\olaf_alien\FLAMBOROUGH HEAD\2009 - Looking for John Maddock\03 - Spring.wav
     Pre-gap length  0:00:02.00
     Peak level 100.0 %
     Extraction speed 4.7 X
     Track quality 100.0 %
     Test CRC 5AD8D240
     Copy CRC 5AD8D240
     Accurately ripped (confidence 8)  [B1D2A0EE]  (AR v2)
     Copy OK
Track  4
     Filename E:\Music\olaf_alien\FLAMBOROUGH HEAD\2009 - Looking for John Maddock\04 - Waste Of Time.wav
     Pre-gap length  0:00:03.00
     Peak level 100.0 %
     Extraction speed 5.2 X
     Track quality 100.0 %
     Test CRC B9B9F3A7
     Copy CRC B9B9F3A7
     Accurately ripped (confidence 8)  [78D5577C]  (AR v2)
     Copy OK
Track  5
     Filename E:\Music\olaf_alien\FLAMBOROUGH HEAD\2009 - Looking for John Maddock\05 - Don't Forget Us.wav
     Pre-gap length  0:00:05.00
     Peak level 100.0 %
     Extraction speed 5.2 X
     Track quality 99.9 %
     Test CRC 5EFFF198
     Copy CRC 5EFFF198
     Accurately ripped (confidence 8)  [B4913D27]  (AR v2)
     Copy OK
Track  6
     Filename E:\Music\olaf_alien\FLAMBOROUGH HEAD\2009 - Looking for John Maddock\06 - Looking For John Maddock.wav
     Pre-gap length  0:00:05.00
     Peak level 100.0 %
     Extraction speed 6.5 X
     Track quality 99.9 %
     Test CRC E95D349F
     Copy CRC E95D349F
     Accurately ripped (confidence 8)  [C87AC8A1]  (AR v2)
     Copy OK
All tracks accurately ripped
No errors occurred
End of status report
---- CUETools DB Plugin V2.1.6
[CTDB TOCID: ycpGH2c1TyoNuGtDkZyA9gz5zWI-] found
Submit result: ycpGH2c1TyoNuGtDkZyA9gz5zWI- has been confirmed
Track | CTDB Status
  1   | (5/5) Accurately ripped
  2   | (5/5) Accurately ripped
  3   | (5/5) Accurately ripped
  4   | (5/5) Accurately ripped
  5   | (5/5) Accurately ripped
  6   | (5/5) Accurately ripped
==== Log checksum E3147D3939D726CF3354491C26771AA6E7C97307DA1F3BB8FF3F8C338B8F5589 ====
Код: Выделить всё
REM GENRE "Symphonic Rock"
REM DATE 2009
REM DISCID 500C4C06
REM COMMENT "ExactAudioCopy v1.3"
PERFORMER "Flamborough Head"
TITLE "Looking For John Maddock"
REM COMPOSER ""
FILE "01 - The Garden Pond.wav" WAVE
  TRACK 01 AUDIO
    TITLE "The Garden Pond"
    PERFORMER "Flamborough Head"
    REM COMPOSER ""
    INDEX 01 00:00:00
  TRACK 02 AUDIO
    TITLE "Sleepless Night"
    PERFORMER "Flamborough Head"
    REM COMPOSER ""
    INDEX 00 05:28:36
FILE "02 - Sleepless Night.wav" WAVE
    INDEX 01 00:00:00
  TRACK 03 AUDIO
    TITLE "Spring"
    PERFORMER "Flamborough Head"
    REM COMPOSER ""
    INDEX 00 06:57:39
FILE "03 - Spring.wav" WAVE
    INDEX 01 00:00:00
  TRACK 04 AUDIO
    TITLE "Waste Of Time"
    PERFORMER "Flamborough Head"
    REM COMPOSER ""
    INDEX 00 05:20:05
FILE "04 - Waste Of Time.wav" WAVE
    INDEX 01 00:00:00
  TRACK 05 AUDIO
    TITLE "Don't Forget Us"
    PERFORMER "Flamborough Head"
    REM COMPOSER ""
    INDEX 00 06:25:22
FILE "05 - Don't Forget Us.wav" WAVE
    INDEX 01 00:00:00
  TRACK 06 AUDIO
    TITLE "Looking For John Maddock"
    PERFORMER "Flamborough Head"
    REM COMPOSER ""
    INDEX 00 08:16:23
FILE "06 - Looking For John Maddock.wav" WAVE
    INDEX 01 00:00:00
Код: Выделить всё
-----------------------
DON'T MODIFY THIS FILE
-----------------------
PERFORMER: auCDtect Task Manager, ver. 1.5.1RC4 build 1.5.1.5
Copyright (c) 2008-2010 y-soft. All rights reserved
[url=http://y-soft.org]http://y-soft.org[/url]
ANALYZER: auCDtect: CD records authenticity detector, version 0.8.2
Copyright (c) 2004 Oleg Berngardt. All rights reserved.
Copyright (c) 2004 Alexander Djourik. All rights reserved.
FILE: 06 - Looking For John Maddock.flac
  Size: 126185634 Hash: ECF762BC35E8456095D429E5394CA7D1 Accuracy: -m8
  Conclusion: CDDA 100%
  Signature: 855A7352AD7DEB12DA2BD9A29EDE5D36B9ED48D2
FILE: 05 - Don't Forget Us.flac
  Size: 57017919 Hash: 81A119C347CA44506A434D95BB03CAA9 Accuracy: -m8
  Conclusion: CDDA 100%
  Signature: 4B04C6AAC2A92B4924BE1BFD1854089BC6CF358C
FILE: 04 - Waste Of Time.flac
  Size: 42365387 Hash: E9BFFBB1F46A906EAD439F51580FABD0 Accuracy: -m8
  Conclusion: CDDA 100%
  Signature: E29FECDC1A8271DF4C15BEEE59D03035F494A25B
FILE: 03 - Spring.flac
  Size: 34390544 Hash: FD0DF8B2E0FA09343B191FA15A071A02 Accuracy: -m8
  Conclusion: CDDA 100%
  Signature: 39B6E0186D41F1D45D04F525B1FB0DCCA61F2E38
FILE: 02 - Sleepless Night.flac
  Size: 44411882 Hash: 2F6CD4284CB4BD635F7626A1EBFAA779 Accuracy: -m8
  Conclusion: CDDA 100%
  Signature: BD82C6CBA885FE48D4C0589EDE95722AE5855037
FILE: 01 - The Garden Pond.flac
  Size: 32762668 Hash: 4A33972F8F16350ACA08336D3F004AAA Accuracy: -m8
  Conclusion: CDDA 100%
  Signature: 83892ED57A5005A8816E33AA8AC80901A68C80FB
Код: Выделить всё
foobar2000 1.3.16 / Замер динамического диапазона (DR) 1.1.1
Дата отчёта:  2018-10-11 13:24:10
--------------------------------------------------------------------------------
Анализ:   Flamborough Head / Looking For John Maddock
--------------------------------------------------------------------------------
DR         Пики         RMS           Продолжительность трека
--------------------------------------------------------------------------------
DR8        0.00 дБ   -11.16 дБ      5:31 01-The Garden Pond
DR11       0.00 дБ   -13.08 дБ      7:00 02-Sleepless Night
DR10       0.00 дБ   -12.20 дБ      5:23 03-Spring
DR13       0.00 дБ   -13.76 дБ      6:30 04-Waste Of Time
DR8        0.00 дБ    -9.16 дБ      8:21 05-Don't Forget Us
DR9        0.00 дБ   -12.00 дБ     19:43 06-Looking For John Maddock
--------------------------------------------------------------------------------
Количество треков: 6
Реальные значения DR: DR10
Частота:   44100 Гц
Каналов:   2
Разрядность:   16
Битрейт:   853 кбит/с
Кодек:   FLAC
================================================================================

- Margriet Boomsma / lead & backing vocals, flute, recorder
- Eddie Mulder / acoustic & electric guitars, backing vocals
- Edo Spanninga / keyboards
- Marcel Derix / bass
- Koen Roozen / drums, percussion
#777Тип: Album
Год издания оригинала: 2013
Страна - производитель диска: Poland
Издатель (лейбл): Oskar
Номер по каталогу: OSKAR 1058 CD
Продолжительность: 01:00:34
Источник (релизер): Моя коллекция, мой рип

Трэклист:
1. Lost iIn Time (12:05)
2. The Trapper (11:48)
3. Dancing Ledge (9:03)
4. Damage Done (10:56)
5. I'll Take The Blame (6:37)
6. Andrassy Road (9:55)
Код: Выделить всё
Exact Audio Copy V1.3 from 2. September 2016
EAC extraction logfile from 11. October 2018, 12:49
Flamborough Head / Lost in Time
Used drive  : ATAPI   iHAS122   F   Adapter: 1  ID: 0
Read mode               : Secure
Utilize accurate stream : Yes
Defeat audio cache      : Yes
Make use of C2 pointers : No
Read offset correction                      : 6
Overread into Lead-In and Lead-Out          : No
Fill up missing offset samples with silence : Yes
Delete leading and trailing silent blocks   : No
Null samples used in CRC calculations       : Yes
Used interface                              : Native Win32 interface for Win NT & 2000
Gap handling                                : Appended to previous track
Used output format              : User Defined Encoder
Selected bitrate                : 1024 kBit/s
Quality                         : High
Add ID3 tag                     : Yes
Command line compressor         : C:\Program Files (x86)\Exact Audio Copy\Flac\flac.exe
Additional command line options : -6 -V -T "ARTIST=%artist%" -T "TITLE=%title%" -T "ALBUM=%albumtitle%" -T "DATE=%year%" -T "TRACKNUMBER=%tracknr%" -T "GENRE=%genre%" -T "COMMENT=%comment%" %hascover%--picture="%coverfile%"%hascover% %source% -o %dest%
TOC of the extracted CD
     Track |   Start  |  Length  | Start sector | End sector
    ---------------------------------------------------------
        1  |  0:00.00 | 12:15.30 |         0    |    55154
        2  | 12:15.30 | 11:48.27 |     55155    |   108281
        3  | 24:03.57 |  9:03.56 |    108282    |   149062
        4  | 33:07.38 | 10:56.43 |    149063    |   198305
        5  | 44:04.06 |  6:37.43 |    198306    |   228123
        6  | 50:41.49 |  9:55.36 |    228124    |   272784
Track  1
     Filename E:\Music\olaf_alien\FLAMBOROUGH HEAD\2013 - Lost in Time\01 - Lost in Time.wav
     Pre-gap length  0:00:02.00
     Peak level 98.8 %
     Extraction speed 5.7 X
     Track quality 99.9 %
     Test CRC 08D3FFFE
     Copy CRC 08D3FFFE
     Accurately ripped (confidence 8)  [356C2215]  (AR v2)
     Copy OK
Track  2
     Filename E:\Music\olaf_alien\FLAMBOROUGH HEAD\2013 - Lost in Time\02 - The Trapper.wav
     Peak level 98.8 %
     Extraction speed 7.6 X
     Track quality 100.0 %
     Test CRC 1FD88832
     Copy CRC 1FD88832
     Accurately ripped (confidence 8)  [A242D31A]  (AR v2)
     Copy OK
Track  3
     Filename E:\Music\olaf_alien\FLAMBOROUGH HEAD\2013 - Lost in Time\03 - Dancing Ledge.wav
     Peak level 98.8 %
     Extraction speed 8.6 X
     Track quality 100.0 %
     Test CRC 0111A793
     Copy CRC 0111A793
     Accurately ripped (confidence 8)  [BE14C90E]  (AR v2)
     Copy OK
Track  4
     Filename E:\Music\olaf_alien\FLAMBOROUGH HEAD\2013 - Lost in Time\04 - Damage Done.wav
     Peak level 98.8 %
     Extraction speed 9.5 X
     Track quality 100.0 %
     Test CRC E6625E32
     Copy CRC E6625E32
     Accurately ripped (confidence 8)  [487B6D81]  (AR v2)
     Copy OK
Track  5
     Filename E:\Music\olaf_alien\FLAMBOROUGH HEAD\2013 - Lost in Time\05 - I'll take the Blame.wav
     Peak level 98.8 %
     Extraction speed 9.9 X
     Track quality 100.0 %
     Test CRC 7C89A554
     Copy CRC 7C89A554
     Accurately ripped (confidence 8)  [0BCED019]  (AR v2)
     Copy OK
Track  6
     Filename E:\Music\olaf_alien\FLAMBOROUGH HEAD\2013 - Lost in Time\06 - Andrassy Road.wav
     Peak level 98.8 %
     Extraction speed 10.6 X
     Track quality 100.0 %
     Test CRC C35C8F3D
     Copy CRC C35C8F3D
     Accurately ripped (confidence 8)  [7EACC40B]  (AR v2)
     Copy OK
All tracks accurately ripped
No errors occurred
End of status report
---- CUETools DB Plugin V2.1.6
[CTDB TOCID: dDbLzMj_QvKr6uQ5zjxeApMc5Nc-] found
Submit result: dDbLzMj_QvKr6uQ5zjxeApMc5Nc- has been confirmed
Track | CTDB Status
  1   | (7/7) Accurately ripped
  2   | (7/7) Accurately ripped
  3   | (7/7) Accurately ripped
  4   | (7/7) Accurately ripped
  5   | (7/7) Accurately ripped
  6   | (7/7) Accurately ripped
==== Log checksum 33652AFBF5A8B29E24DC86AA57823A9DFA1A852C7E5B69874527E1838548A172 ====
Код: Выделить всё
REM GENRE "Progressive Rock"
REM DATE 2013
REM DISCID 580E3506
REM COMMENT "ExactAudioCopy v1.3"
PERFORMER "Flamborough Head"
TITLE "Lost in Time"
REM COMPOSER ""
FILE "01 - Lost in Time.wav" WAVE
  TRACK 01 AUDIO
    TITLE "Lost in Time"
    PERFORMER "Flamborough Head"
    REM COMPOSER ""
    INDEX 01 00:00:00
FILE "02 - The Trapper.wav" WAVE
  TRACK 02 AUDIO
    TITLE "The Trapper"
    PERFORMER "Flamborough Head"
    REM COMPOSER ""
    INDEX 01 00:00:00
FILE "03 - Dancing Ledge.wav" WAVE
  TRACK 03 AUDIO
    TITLE "Dancing Ledge"
    PERFORMER "Flamborough Head"
    REM COMPOSER ""
    INDEX 01 00:00:00
FILE "04 - Damage Done.wav" WAVE
  TRACK 04 AUDIO
    TITLE "Damage Done"
    PERFORMER "Flamborough Head"
    REM COMPOSER ""
    INDEX 01 00:00:00
FILE "05 - I'll take the Blame.wav" WAVE
  TRACK 05 AUDIO
    TITLE "I'll take the Blame"
    PERFORMER "Flamborough Head"
    REM COMPOSER ""
    INDEX 01 00:00:00
FILE "06 - Andrassy Road.wav" WAVE
  TRACK 06 AUDIO
    TITLE "Andrassy Road"
    PERFORMER "Flamborough Head"
    REM COMPOSER ""
    INDEX 01 00:00:00
Код: Выделить всё
-----------------------
DON'T MODIFY THIS FILE
-----------------------
PERFORMER: auCDtect Task Manager, ver. 1.5.1RC4 build 1.5.1.5
Copyright (c) 2008-2010 y-soft. All rights reserved
[url=http://y-soft.org]http://y-soft.org[/url]
ANALYZER: auCDtect: CD records authenticity detector, version 0.8.2
Copyright (c) 2004 Oleg Berngardt. All rights reserved.
Copyright (c) 2004 Alexander Djourik. All rights reserved.
FILE: 06 - Andrassy Road.flac
  Size: 74981974 Hash: 8505B0DE92256B11646A35E93FCBFDCC Accuracy: -m8
  Conclusion: CDDA 100%
  Signature: 52E6DF664EAA477805AF75B0C8E873818DD84B50
FILE: 05 - I'll take the Blame.flac
  Size: 50588778 Hash: 95A4D25F773CDB39987438C61CAFF6C9 Accuracy: -m8
  Conclusion: CDDA 100%
  Signature: D051CACF77E91D7B8426E433BA2710C79A1043DC
FILE: 04 - Damage Done.flac
  Size: 84903897 Hash: 640EA35D6D47EF185D55100795A49CD5 Accuracy: -m8
  Conclusion: CDDA 100%
  Signature: 9CF4943D5B0561BC04024B6A297D412D3FAF2A4C
FILE: 03 - Dancing Ledge.flac
  Size: 59120302 Hash: A886083411FFE9856B3F39EE9F45E2B1 Accuracy: -m8
  Conclusion: CDDA 100%
  Signature: 4D4AB8207CBF9FDF14643F27D1E29616C037EB8C
FILE: 02 - The Trapper.flac
  Size: 88060622 Hash: 3BC010639805CB242E54E756F92F2B5C Accuracy: -m8
  Conclusion: CDDA 100%
  Signature: 161EFC4523622CBCCBAC2261DD979D37CED7BCFE
FILE: 01 - Lost in Time.flac
  Size: 86656764 Hash: 363C112E516025786B3697E6978D0E9C Accuracy: -m8
  Conclusion: CDDA 100%
  Signature: 8FA5AC4C407D2B53613DD07EA35424D931E5C1BB
Код: Выделить всё
foobar2000 1.3.16 / Замер динамического диапазона (DR) 1.1.1
Дата отчёта:  2018-10-11 13:24:28
--------------------------------------------------------------------------------
Анализ:   Flamborough Head / Lost in Time
--------------------------------------------------------------------------------
DR         Пики         RMS           Продолжительность трека
--------------------------------------------------------------------------------
DR10      -0.10 дБ   -12.17 дБ     12:15 01-Lost in Time
DR10      -0.10 дБ   -12.18 дБ     11:48 02-The Trapper
DR9       -0.10 дБ   -11.17 дБ      9:04 03-Dancing Ledge
DR8       -0.10 дБ   -10.30 дБ     10:57 04-Damage Done
DR10      -0.10 дБ   -11.83 дБ      6:38 05-I'll take the Blame
DR8       -0.10 дБ   -10.08 дБ      9:55 06-Andrassy Road
--------------------------------------------------------------------------------
Количество треков: 6
Реальные значения DR: DR9
Частота:   44100 Гц
Каналов:   2
Разрядность:   16
Битрейт:   1007 кбит/с
Кодек:   FLAC
================================================================================

- Margriet Boomsma / lead & backing vocals, flute, recorder
- Gert Polkerman / electric & acoustic guitars, backing vocals
- Edo Spanninga / keyboards
- Marcel Derix / bass
- Koen Roozen / drums
#777Тип: 2xCD, Live Album, Triple Gatefold Digipak
Год издания оригинала: 2017
Страна - производитель диска: Poland
Издатель (лейбл): Oskar
Номер по каталогу: OSKAR 1073 2CD
Продолжительность: 02:16:15
Источник (релизер): Моя коллекция, мой рип

Трэклист:
CD 1 - Live at ProgFarm 2006 [1:02:58]
1. Russian Roulette 0:53
2. For Starters 1:53
3. Maureen 11:44
4. Don't Forget Us 8:04
5. Old Shoes 11:49
6. Mantova 8:13
7. Silent Stranger 10:21
8. Year After Year 3:14
9. Sleepless Night 6:47
CD 2 - Northern Prog Festival 2015 [1:13:17]
1. The Trapper 12:28
2. Looking For John Maddock 19:06
3. Lost In Time 11:57
4. I'll Take The Blame 7:01
5. Andrassy Road 10:05
6. Garden Of Dreams 12:40
Код: Выделить всё
Exact Audio Copy V1.3 from 2. September 2016
EAC extraction logfile from 11. October 2018, 11:35
Flamborough Head / Live at ProgFarm 2006
Used drive  : ATAPI   iHAS122   F   Adapter: 1  ID: 0
Read mode               : Secure
Utilize accurate stream : Yes
Defeat audio cache      : Yes
Make use of C2 pointers : No
Read offset correction                      : 6
Overread into Lead-In and Lead-Out          : No
Fill up missing offset samples with silence : Yes
Delete leading and trailing silent blocks   : No
Null samples used in CRC calculations       : Yes
Used interface                              : Native Win32 interface for Win NT & 2000
Gap handling                                : Appended to previous track
Used output format              : User Defined Encoder
Selected bitrate                : 1024 kBit/s
Quality                         : High
Add ID3 tag                     : Yes
Command line compressor         : C:\Program Files (x86)\Exact Audio Copy\Flac\flac.exe
Additional command line options : -6 -V -T "ARTIST=%artist%" -T "TITLE=%title%" -T "ALBUM=%albumtitle%" -T "DATE=%year%" -T "TRACKNUMBER=%tracknr%" -T "GENRE=%genre%" -T "COMMENT=%comment%" %hascover%--picture="%coverfile%"%hascover% %source% -o %dest%
TOC of the extracted CD
     Track |   Start  |  Length  | Start sector | End sector
    ---------------------------------------------------------
        1  |  0:00.00 |  0:52.40 |         0    |     3939
        2  |  0:52.40 |  1:53.13 |      3940    |    12427
        3  |  2:45.53 | 11:43.56 |     12428    |    65208
        4  | 14:29.34 |  8:04.10 |     65209    |   101518
        5  | 22:33.44 | 11:48.68 |    101519    |   154686
        6  | 34:22.37 |  8:13.28 |    154687    |   191689
        7  | 42:35.65 | 10:21.26 |    191690    |   238290
        8  | 52:57.16 |  3:13.64 |    238291    |   252829
        9  | 56:11.05 |  6:47.10 |    252830    |   283364
Track  1
     Filename E:\Music\olaf_alien\FLAMBOROUGH HEAD\2017 - Live at ProgFarm 2006 (& Northern Prog Festival 2015)\CD1 - Live at ProgFarm 2006\01 - Russian Roulette.wav
     Pre-gap length  0:00:02.00
     Peak level 98.2 %
     Extraction speed 3.3 X
     Track quality 100.0 %
     Test CRC 85783B82
     Copy CRC 85783B82
     Accurately ripped (confidence 1)  [3AF04BE6]  (AR v2)
     Copy OK
Track  2
     Filename E:\Music\olaf_alien\FLAMBOROUGH HEAD\2017 - Live at ProgFarm 2006 (& Northern Prog Festival 2015)\CD1 - Live at ProgFarm 2006\02 - For Starters.wav
     Peak level 98.2 %
     Extraction speed 4.4 X
     Track quality 100.0 %
     Test CRC 663B18FA
     Copy CRC 663B18FA
     Accurately ripped (confidence 1)  [A1847A0B]  (AR v2)
     Copy OK
Track  3
     Filename E:\Music\olaf_alien\FLAMBOROUGH HEAD\2017 - Live at ProgFarm 2006 (& Northern Prog Festival 2015)\CD1 - Live at ProgFarm 2006\03 - Maureen.wav
     Peak level 98.2 %
     Extraction speed 6.4 X
     Track quality 100.0 %
     Test CRC 17995235
     Copy CRC 17995235
     Accurately ripped (confidence 1)  [A0695EFD]  (AR v2)
     Copy OK
Track  4
     Filename E:\Music\olaf_alien\FLAMBOROUGH HEAD\2017 - Live at ProgFarm 2006 (& Northern Prog Festival 2015)\CD1 - Live at ProgFarm 2006\04 - Don't Forget Us.wav
     Peak level 98.2 %
     Extraction speed 7.4 X
     Track quality 100.0 %
     Test CRC 6F8F15ED
     Copy CRC 6F8F15ED
     Accurately ripped (confidence 1)  [C2E9422D]  (AR v2)
     Copy OK
Track  5
     Filename E:\Music\olaf_alien\FLAMBOROUGH HEAD\2017 - Live at ProgFarm 2006 (& Northern Prog Festival 2015)\CD1 - Live at ProgFarm 2006\05 - Old Shoes.wav
     Peak level 98.2 %
     Extraction speed 8.5 X
     Track quality 100.0 %
     Test CRC 51905908
     Copy CRC 51905908
     Accurately ripped (confidence 1)  [9C99C38D]  (AR v2)
     Copy OK
Track  6
     Filename E:\Music\olaf_alien\FLAMBOROUGH HEAD\2017 - Live at ProgFarm 2006 (& Northern Prog Festival 2015)\CD1 - Live at ProgFarm 2006\06 - Mantova.wav
     Peak level 98.2 %
     Extraction speed 9.1 X
     Track quality 100.0 %
     Test CRC 453B3BDC
     Copy CRC 453B3BDC
     Accurately ripped (confidence 1)  [0236E2F5]  (AR v2)
     Copy OK
Track  7
     Filename E:\Music\olaf_alien\FLAMBOROUGH HEAD\2017 - Live at ProgFarm 2006 (& Northern Prog Festival 2015)\CD1 - Live at ProgFarm 2006\07 - Silent Stranger.wav
     Peak level 98.2 %
     Extraction speed 10.0 X
     Track quality 100.0 %
     Test CRC 3F383977
     Copy CRC 3F383977
     Accurately ripped (confidence 1)  [67FCFA3C]  (AR v2)
     Copy OK
Track  8
     Filename E:\Music\olaf_alien\FLAMBOROUGH HEAD\2017 - Live at ProgFarm 2006 (& Northern Prog Festival 2015)\CD1 - Live at ProgFarm 2006\08 - Year After Year.wav
     Peak level 98.2 %
     Extraction speed 7.4 X
     Track quality 99.9 %
     Test CRC E25950DB
     Copy CRC E25950DB
     Accurately ripped (confidence 1)  [1EDC7140]  (AR v2)
     Copy OK
Track  9
     Filename E:\Music\olaf_alien\FLAMBOROUGH HEAD\2017 - Live at ProgFarm 2006 (& Northern Prog Festival 2015)\CD1 - Live at ProgFarm 2006\09 - Sleepless Night.wav
     Peak level 98.2 %
     Extraction speed 10.5 X
     Track quality 100.0 %
     Test CRC E08A0DB0
     Copy CRC E08A0DB0
     Accurately ripped (confidence 1)  [F672C643]  (AR v2)
     Copy OK
All tracks accurately ripped
No errors occurred
End of status report
---- CUETools DB Plugin V2.1.6
[CTDB TOCID: Wjh6ePOpXuyNoeh57yD_hsyCGlE-] disk not present in database
Submit result: Wjh6ePOpXuyNoeh57yD_hsyCGlE- has been uploaded
==== Log checksum 06173A353C6F221782CD6161E8381CFD1DB2F15D03C3991D487B29D34432C840 ====
Код: Выделить всё
Exact Audio Copy V1.3 from 2. September 2016
EAC extraction logfile from 11. October 2018, 11:56
Flamborough Head / Northern Prog Festival 2015
Used drive  : ATAPI   iHAS122   F   Adapter: 1  ID: 0
Read mode               : Secure
Utilize accurate stream : Yes
Defeat audio cache      : Yes
Make use of C2 pointers : No
Read offset correction                      : 6
Overread into Lead-In and Lead-Out          : No
Fill up missing offset samples with silence : Yes
Delete leading and trailing silent blocks   : No
Null samples used in CRC calculations       : Yes
Used interface                              : Native Win32 interface for Win NT & 2000
Gap handling                                : Appended to previous track
Used output format              : User Defined Encoder
Selected bitrate                : 1024 kBit/s
Quality                         : High
Add ID3 tag                     : Yes
Command line compressor         : C:\Program Files (x86)\Exact Audio Copy\Flac\flac.exe
Additional command line options : -6 -V -T "ARTIST=%artist%" -T "TITLE=%title%" -T "ALBUM=%albumtitle%" -T "DATE=%year%" -T "TRACKNUMBER=%tracknr%" -T "GENRE=%genre%" -T "COMMENT=%comment%" %hascover%--picture="%coverfile%"%hascover% %source% -o %dest%
TOC of the extracted CD
     Track |   Start  |  Length  | Start sector | End sector
    ---------------------------------------------------------
        1  |  0:00.00 | 12:28.01 |         0    |    56100
        2  | 12:28.01 | 19:05.56 |     56101    |   142031
        3  | 31:33.57 | 11:57.09 |    142032    |   195815
        4  | 43:30.66 |  7:00.61 |    195816    |   227376
        5  | 50:31.52 | 10:05.21 |    227377    |   272772
        6  | 60:36.73 | 12:39.47 |    272773    |   329744
Track  1
     Filename E:\Music\olaf_alien\FLAMBOROUGH HEAD\2017 - Live at ProgFarm 2006 (& Northern Prog Festival 2015)\CD2 - Northern Prog Festival 2015\01 - The Trapper.wav
     Pre-gap length  0:00:02.00
     Peak level 98.2 %
     Extraction speed 5.9 X
     Track quality 99.9 %
     Test CRC 7AAA75CD
     Copy CRC 7AAA75CD
     Accurately ripped (confidence 1)  [44483EA3]  (AR v2)
     Copy OK
Track  2
     Filename E:\Music\olaf_alien\FLAMBOROUGH HEAD\2017 - Live at ProgFarm 2006 (& Northern Prog Festival 2015)\CD2 - Northern Prog Festival 2015\02 - Looking For John Maddock.wav
     Peak level 98.2 %
     Extraction speed 7.7 X
     Track quality 99.9 %
     Test CRC 7D444EA4
     Copy CRC 7D444EA4
     Accurately ripped (confidence 1)  [A623F799]  (AR v2)
     Copy OK
Track  3
     Filename E:\Music\olaf_alien\FLAMBOROUGH HEAD\2017 - Live at ProgFarm 2006 (& Northern Prog Festival 2015)\CD2 - Northern Prog Festival 2015\03 - Lost In Time.wav
     Peak level 98.2 %
     Extraction speed 8.6 X
     Track quality 99.9 %
     Test CRC 59298C0B
     Copy CRC 59298C0B
     Accurately ripped (confidence 1)  [4BBCDE56]  (AR v2)
     Copy OK
Track  4
     Filename E:\Music\olaf_alien\FLAMBOROUGH HEAD\2017 - Live at ProgFarm 2006 (& Northern Prog Festival 2015)\CD2 - Northern Prog Festival 2015\04 - I'll Take The Blame.wav
     Peak level 98.2 %
     Extraction speed 9.8 X
     Track quality 100.0 %
     Test CRC 9639F647
     Copy CRC 9639F647
     Accurately ripped (confidence 1)  [66B6B2EA]  (AR v2)
     Copy OK
Track  5
     Filename E:\Music\olaf_alien\FLAMBOROUGH HEAD\2017 - Live at ProgFarm 2006 (& Northern Prog Festival 2015)\CD2 - Northern Prog Festival 2015\05 - Andrassy Road.wav
     Peak level 98.2 %
     Extraction speed 10.4 X
     Track quality 100.0 %
     Test CRC 7DEAF86D
     Copy CRC 7DEAF86D
     Accurately ripped (confidence 1)  [1644AA27]  (AR v2)
     Copy OK
Track  6
     Filename E:\Music\olaf_alien\FLAMBOROUGH HEAD\2017 - Live at ProgFarm 2006 (& Northern Prog Festival 2015)\CD2 - Northern Prog Festival 2015\06 - Garden of Dreams.wav
     Peak level 98.2 %
     Extraction speed 10.4 X
     Track quality 99.9 %
     Test CRC 3C1F9DE6
     Copy CRC 3C1F9DE6
     Accurately ripped (confidence 1)  [A37252FB]  (AR v2)
     Copy OK
All tracks accurately ripped
No errors occurred
End of status report
---- CUETools DB Plugin V2.1.6
[CTDB TOCID: cu04DpmO6lovDJYnO8TlavLwTHc-] disk not present in database
Submit result: cu04DpmO6lovDJYnO8TlavLwTHc- has been uploaded
==== Log checksum 173497057F43F8FC76A4106F4E43C1A4DC5AB912757698F4DC0A0559B9E203DA ====
Код: Выделить всё
REM GENRE "Progressive Rock"
REM DATE 2017
REM DISCID 7A0EC209
REM COMMENT "ExactAudioCopy v1.3"
PERFORMER "Flamborough Head"
TITLE "Live at ProgFarm 2006"
REM COMPOSER ""
FILE "01 - Russian Roulette.wav" WAVE
  TRACK 01 AUDIO
    TITLE "Russian Roulette"
    PERFORMER "Flamborough Head"
    REM COMPOSER ""
    INDEX 01 00:00:00
FILE "02 - For Starters.wav" WAVE
  TRACK 02 AUDIO
    TITLE "For Starters"
    PERFORMER "Flamborough Head"
    REM COMPOSER ""
    INDEX 01 00:00:00
FILE "03 - Maureen.wav" WAVE
  TRACK 03 AUDIO
    TITLE "Maureen"
    PERFORMER "Flamborough Head"
    REM COMPOSER ""
    INDEX 01 00:00:00
FILE "04 - Don't Forget Us.wav" WAVE
  TRACK 04 AUDIO
    TITLE "Don't Forget Us"
    PERFORMER "Flamborough Head"
    REM COMPOSER ""
    INDEX 01 00:00:00
FILE "05 - Old Shoes.wav" WAVE
  TRACK 05 AUDIO
    TITLE "Old Shoes"
    PERFORMER "Flamborough Head"
    REM COMPOSER ""
    INDEX 01 00:00:00
FILE "06 - Mantova.wav" WAVE
  TRACK 06 AUDIO
    TITLE "Mantova"
    PERFORMER "Flamborough Head"
    REM COMPOSER ""
    INDEX 01 00:00:00
FILE "07 - Silent Stranger.wav" WAVE
  TRACK 07 AUDIO
    TITLE "Silent Stranger"
    PERFORMER "Flamborough Head"
    REM COMPOSER ""
    INDEX 01 00:00:00
FILE "08 - Year After Year.wav" WAVE
  TRACK 08 AUDIO
    TITLE "Year After Year"
    PERFORMER "Flamborough Head"
    REM COMPOSER ""
    INDEX 01 00:00:00
FILE "09 - Sleepless Night.wav" WAVE
  TRACK 09 AUDIO
    TITLE "Sleepless Night"
    PERFORMER "Flamborough Head"
    REM COMPOSER ""
    INDEX 01 00:00:00
Код: Выделить всё
REM GENRE "Progressive Rock"
REM DATE 2017
REM DISCID 4D112C06
REM COMMENT "ExactAudioCopy v1.3"
PERFORMER "Flamborough Head"
TITLE "Northern Prog Festival 2015"
REM COMPOSER ""
FILE "01 - The Trapper.wav" WAVE
  TRACK 01 AUDIO
    TITLE "The Trapper"
    PERFORMER "Flamborough Head"
    REM COMPOSER ""
    INDEX 01 00:00:00
FILE "02 - Looking For John Maddock.wav" WAVE
  TRACK 02 AUDIO
    TITLE "Looking For John Maddock"
    PERFORMER "Flamborough Head"
    REM COMPOSER ""
    INDEX 01 00:00:00
FILE "03 - Lost In Time.wav" WAVE
  TRACK 03 AUDIO
    TITLE "Lost In Time"
    PERFORMER "Flamborough Head"
    REM COMPOSER ""
    INDEX 01 00:00:00
FILE "04 - I'll Take The Blame.wav" WAVE
  TRACK 04 AUDIO
    TITLE "I'll Take The Blame"
    PERFORMER "Flamborough Head"
    REM COMPOSER ""
    INDEX 01 00:00:00
FILE "05 - Andrassy Road.wav" WAVE
  TRACK 05 AUDIO
    TITLE "Andrassy Road"
    PERFORMER "Flamborough Head"
    REM COMPOSER ""
    INDEX 01 00:00:00
FILE "06 - Garden of Dreams.wav" WAVE
  TRACK 06 AUDIO
    TITLE "Garden of Dreams"
    PERFORMER "Flamborough Head"
    REM COMPOSER ""
    INDEX 01 00:00:00
Код: Выделить всё
-----------------------
DON'T MODIFY THIS FILE
-----------------------
PERFORMER: auCDtect Task Manager, ver. 1.5.1RC4 build 1.5.1.5
Copyright (c) 2008-2010 y-soft. All rights reserved
[url=http://y-soft.org]http://y-soft.org[/url]
ANALYZER: auCDtect: CD records authenticity detector, version 0.8.2
Copyright (c) 2004 Oleg Berngardt. All rights reserved.
Copyright (c) 2004 Alexander Djourik. All rights reserved.
FILE: 09 - Sleepless Night.flac
  Size: 44089023 Hash: 70BE05A052BC01B3561EA5A528A8C010 Accuracy: -m8
  Conclusion: CDDA 99%
  Signature: 93A9ACC5C31DEB25BB52E70937264BE2ACBB0CE9
FILE: 08 - Year After Year.flac
  Size: 19165002 Hash: 14C8A97C140A99E0EBE739A1E3C429F0 Accuracy: -m8
  Conclusion: CDDA 100%
  Signature: 6511A7274B3C457B7C5ED3E7082001364C57DB08
FILE: 07 - Silent Stranger.flac
  Size: 66829984 Hash: BBD6187C9FFB1C89BBF900E7115CF559 Accuracy: -m8
  Conclusion: CDDA 99%
  Signature: 08834417ECAC4C167B2C9E8C0589AFD114E437B2
FILE: 06 - Mantova.flac
  Size: 61033764 Hash: 6731651187460B0C2F6B8B14D7F7F52A Accuracy: -m8
  Conclusion: CDDA 100%
  Signature: 968C858D0DE8C395CB37A685CBA0E6F8DDE58914
FILE: 05 - Old Shoes.flac
  Size: 79909757 Hash: E4E3B7301C44F0B235B6DE906D068272 Accuracy: -m8
  Conclusion: CDDA 100%
  Signature: 625275646AAE5A47CC233BA48F1EDEAE5844F8BA
FILE: 04 - Don't Forget Us.flac
  Size: 54579654 Hash: F6E5AE7CD8507F1F8022B7E9A7FBF34A Accuracy: -m8
  Conclusion: CDDA 100%
  Signature: 51D152741B2819C95CB034A35D4EE481FD65CF48
FILE: 03 - Maureen.flac
  Size: 80650117 Hash: 9280948D43D155A52F2509800EA8CA91 Accuracy: -m8
  Conclusion: CDDA 100%
  Signature: DB8B805F54467C228DF9A7B5552FA1D3E989EBB8
FILE: 02 - For Starters.flac
  Size: 10463568 Hash: BB9BFAD589A85CCC097BE3826D1E5724 Accuracy: -m8
  Conclusion: CDDA 100%
  Signature: 678FF2E6B55B4208BADE49E772B3BE28B58F83C2
FILE: 01 - Russian Roulette.flac
  Size: 5752686 Hash: 69FF5901D474172E4999FDF0F0EA8225 Accuracy: -m8
  Conclusion: CDDA 100%
  Signature: 81BA1589EE89B13264829E8160831EC9C596D464
Код: Выделить всё
-----------------------
DON'T MODIFY THIS FILE
-----------------------
PERFORMER: auCDtect Task Manager, ver. 1.5.1RC4 build 1.5.1.5
Copyright (c) 2008-2010 y-soft. All rights reserved
[url=http://y-soft.org]http://y-soft.org[/url]
ANALYZER: auCDtect: CD records authenticity detector, version 0.8.2
Copyright (c) 2004 Oleg Berngardt. All rights reserved.
Copyright (c) 2004 Alexander Djourik. All rights reserved.
FILE: 06 - Garden of Dreams.flac
  Size: 90108881 Hash: 2C1EEB6F51E1805A006A56A460566E43 Accuracy: -m8
  Conclusion: CDDA 99%
  Signature: 2D2104381682E748FCFE5BFC364582E58D15C5C4
FILE: 05 - Andrassy Road.flac
  Size: 59682420 Hash: 7C071930725E7FB4C5283B9D9F4CC9C2 Accuracy: -m8
  Conclusion: CDDA 100%
  Signature: C99F15BA84A8F2DF467423642F6BECFF0B1BA371
FILE: 04 - I'll Take The Blame.flac
  Size: 45070826 Hash: FE8B07DA3E82D6F5EF25221BCB0898AD Accuracy: -m8
  Conclusion: CDDA 100%
  Signature: 22FE0F85AAEECAA0E2BFA0A728708D1316D831B3
FILE: 03 - Lost In Time.flac
  Size: 74879448 Hash: 96D68D2E623FA42558171FB24FAE540B Accuracy: -m8
  Conclusion: CDDA 100%
  Signature: 6D4D82BD2390CFB5A7AFA567076A1F7EA73ABA84
FILE: 02 - Looking For John Maddock.flac
  Size: 118689579 Hash: E5874DF60B9EBBE52053EC0A977D21CA Accuracy: -m8
  Conclusion: CDDA 100%
  Signature: 292568662FBD316D97F5BD6E86E366360FA11DFE
FILE: 01 - The Trapper.flac
  Size: 79000337 Hash: 7704FABEA668423052218715763F4F67 Accuracy: -m8
  Conclusion: CDDA 100%
  Signature: FA71A5EC6AAE0EF432C0F96008EBB929886F28B3
Код: Выделить всё
foobar2000 1.3.16 / Замер динамического диапазона (DR) 1.1.1
Дата отчёта:  2018-10-11 13:25:34
--------------------------------------------------------------------------------
Анализ:   Flamborough Head / Live at ProgFarm 2006
--------------------------------------------------------------------------------
DR         Пики         RMS           Продолжительность трека
--------------------------------------------------------------------------------
DR7       -0.15 дБ    -9.18 дБ      0:53 01-Russian Roulette
DR11      -0.15 дБ   -14.51 дБ      1:53 02-For Starters
DR6       -0.15 дБ    -8.57 дБ     11:44 03-Maureen
DR8       -0.15 дБ    -9.51 дБ      8:04 04-Don't Forget Us
DR7       -0.15 дБ    -9.75 дБ     11:49 05-Old Shoes
DR7       -0.15 дБ    -8.27 дБ      8:13 06-Mantova
DR6       -0.15 дБ    -8.83 дБ     10:21 07-Silent Stranger
DR7       -0.15 дБ   -10.12 дБ      3:14 08-Year After Year
DR6       -0.15 дБ    -8.91 дБ      6:47 09-Sleepless Night
--------------------------------------------------------------------------------
Количество треков: 9
Реальные значения DR: DR7
Частота:   44100 Гц
Каналов:   2
Разрядность:   16
Битрейт:   866 кбит/с
Кодек:   FLAC
================================================================================
Код: Выделить всё
foobar2000 1.3.16 / Замер динамического диапазона (DR) 1.1.1
Дата отчёта:  2018-10-11 13:25:55
--------------------------------------------------------------------------------
Анализ:   Flamborough Head / Northern Prog Festival 2015
--------------------------------------------------------------------------------
DR         Пики         RMS           Продолжительность трека
--------------------------------------------------------------------------------
DR7       -0.15 дБ    -9.64 дБ     12:28 01-The Trapper
DR6       -0.15 дБ    -9.61 дБ     19:06 02-Looking For John Maddock
DR6       -0.15 дБ    -8.34 дБ     11:57 03-Lost In Time
DR6       -0.15 дБ    -7.97 дБ      7:01 04-I'll Take The Blame
DR6       -0.15 дБ    -8.96 дБ     10:05 05-Andrassy Road
DR5       -0.15 дБ    -6.86 дБ     12:40 06-Garden of Dreams
--------------------------------------------------------------------------------
Количество треков: 6
Реальные значения DR: DR6
Частота:   44100 Гц
Каналов:   2
Разрядность:   16
Битрейт:   949 кбит/с
Кодек:   FLAC
================================================================================

- Marcel Derix / Bass (CD 1)
- Eddie Mulder / Bass, Guitar, Backing Vocals
- Koen Roozen / Drums
- Edo Spanninga / Keyboards
- Margriet Boomsma / Lead Vocals, Flute, Acoustic Guitar
- Gert Pölkerman / Guitar, Backing Vocals (CD 2)

Правила, инструкции, FAQ!!!
Торрент  Добавлен [09 мар 2019, 11:26] Скачать торрент Магнет ссылка
Скачать торрент
34.26 КБ

Статус
Проверен 
 
Размер  4.78 ГБ
Приватный: Нет (DHT включён)
.torrent скачан  1
Как залить торрент? | Как скачать Torrent? | Как смотреть и слушать онлайн?  
Гость
 



Вернуться в Progressive & Art-Rock

Кто сейчас на конференции

Сейчас этот форум просматривают: нет зарегистрированных пользователей и гости: 2