(Neo-Prog) [WEB] Jadis - Collection (2 Releases) - 2018-2019, FLAC (tracks), lossless


Статистика раздачи
Размер: 1.02 ГБ | Добавлен: 09 мар 2019, 11:25 | Скачали: 0
Сидеров: 0  [0 байт/сек]    Личеров: 0  [0 байт/сек]

Сообщение Гость » 09 мар 2019, 11:25

Jadis



Collection

Жанр: Neo-Prog
Носитель: WEB
Год издания: 2018-2019
Страна исполнителя (группы): UK
Аудиокодек: FLAC (*.flac)
Тип рипа: tracks
Битрейт аудио: lossless
Продолжительность: 02:35:57
Источник: указан поальбомно
Наличие сканов в содержимом раздачи: нет

01. Sleepwalk [00:08:17]
02. Hiding In The Corner [00:04:17]
03. G13 [00:05:43]
04. Wonderful World [00:08:16]
05. More Than Meets The Eye [00:04:52]
06. The Beginning And The End [00:06:11]
07. Holding Your Breath [00:09:39]
08. G13 - Acoustic Version 2017 [00:04:13]
09. Wonderful World - Acoustic Version 2017 [00:04:44]
10. The Beginning And The End - Live - NL 1993 [00:06:07]
11. This Changing Face - Live - NL 1993 [00:07:27]
12. Follow Me To Salzburg [00:04:33]
13. All In One Day [00:07:03]
14. View From Above [00:07:36]
15. This Changing Face [00:05:02]
Released February 16, 2018
Bandcamp
The 25th Anniversary Edition of ‘More than meets the eye’.
This 2CD Digipak has a new remix by Gary Chandler and CD2 has brand new recorded acoustic renditions of ‘Wonderful World’ and ‘G13’ with Gary and Martin using 12 string guitars, piano, flute and vocals.
As well as 2 unreleased live desk versions of ‘The Beginning & The End’ and 'This Changing Face' recorded in The Netherlands in 1993, there are also 4 remastered songs from ‘Medium Rare’ - ‘Follow Me To Salzburg’, 'All In One Day', ’View From Above’ and ‘This Changing Face’ acoustic. These songs were precursor material to ‘More Than Meets The Eye’, so we decided it was worth including them in this Anniversary Collectors edition.
Disc 2 Track Listing
1. G13 - Acoustic Version - 2017
2. Wonderful World - Acoustic Version - 2017
3. The Beginning & The End - Live - NL - 1993
4. This Changing Face - Live - NL - 1993
Remastered from Medium Rare
5. Follow Me To Salzburg
6. All In One Day
7. View From Above
8. This Changing Face - Acoustic
Gary Chandler – Guitars, Lead Vocals
Martin Orford – Keyboards, Flute, Backing Vocals
John Jowitt – Bass Guitar
Steve Christey – Drums
Код: Выделить всё
-----------------------
DON'T MODIFY THIS FILE
-----------------------
PERFORMER: auCDtect Task Manager, ver. 1.6.0 RC1 build 1.6.0.1
Copyright (c) 2008-2010 y-soft. All rights reserved
[url=http://y-soft.org]http://y-soft.org[/url]
ANALYZER: auCDtect: CD records authenticity detector, version 0.8.2
Copyright (c) 2004 Oleg Berngardt. All rights reserved.
Copyright (c) 2004 Alexander Djourik. All rights reserved.
FILE: Jadis - More Than Meets The Eye 25 - 15 This Changing Face.flac
  Size: 33434233 Hash: 8D877CB207B71E5AE1EB4C866F4B1D35 Accuracy: -m0
  Conclusion: CDDA 100%
  Signature: 61CA4E1AD030190A4AD81E0B65AEC2E8632E0F1B
FILE: Jadis - More Than Meets The Eye 25 - 14 View From Above.flac
  Size: 55658379 Hash: 0A9F949FE577E3AB29ECE3F5128F91F1 Accuracy: -m0
  Conclusion: CDDA 100%
  Signature: 9F3F5417B7A17D1FF8FA68F817F6BA2B5F34283C
FILE: Jadis - More Than Meets The Eye 25 - 13 All In One Day.flac
  Size: 53434321 Hash: 7A08AAE233CD1389DC3100DCFAF96945 Accuracy: -m0
  Conclusion: CDDA 100%
  Signature: 2CE91109CB7BF1F7D737FCC36148392DC5B75E03
FILE: Jadis - More Than Meets The Eye 25 - 12 Follow Me To Salzburg.flac
  Size: 34229784 Hash: 128B667B504BD9E47C6C5D7139FCD120 Accuracy: -m0
  Conclusion: CDDA 100%
  Signature: DF9456021431EC8F22D3E2F32F3E8C2D9CF5CD80
FILE: Jadis - More Than Meets The Eye 25 - 11 This Changing Face - Live - NL 1993.flac
  Size: 54371231 Hash: C580C7AA67499F4235F34D2FFCE41118 Accuracy: -m0
  Conclusion: CDDA 100%
  Signature: 5C19DC0C5C8A4B572E244251FDB94EA0CB00C6C5
FILE: Jadis - More Than Meets The Eye 25 - 10 The Beginning And The End - Live - NL 1993.flac
  Size: 40626395 Hash: BDCA7B0D65D0B2E6563C7AC821E843ED Accuracy: -m0
  Conclusion: CDDA 100%
  Signature: E71DDFD9605A90DE8F92E019210420EAFC53ED3B
FILE: Jadis - More Than Meets The Eye 25 - 09 Wonderful World - Acoustic Version 2017.flac
  Size: 31025984 Hash: 6801D7C103DDA0DC2EC4662D70EFA98B Accuracy: -m0
  Conclusion: CDDA 100%
  Signature: 498AE80498A7AD2C73D29D9B8396EAE11C611BDF
FILE: Jadis - More Than Meets The Eye 25 - 08 G13 - Acoustic Version 2017.flac
  Size: 26554861 Hash: BE8CCA4FB03FD00D50696304FC964CC0 Accuracy: -m0
  Conclusion: CDDA 100%
  Signature: 94381499EEE637C0C0F95D4ABAD65400FDA27825
FILE: Jadis - More Than Meets The Eye 25 - 07 Holding Your Breath.flac
  Size: 64856448 Hash: B73144B9B47A1693B497A566439C706C Accuracy: -m0
  Conclusion: CDDA 100%
  Signature: 72A67CE69BCCF88A326B33D1B12FFAAFCC1EA249
FILE: Jadis - More Than Meets The Eye 25 - 06 The Beginning And The End.flac
  Size: 42358317 Hash: 3528F8B8E1997F27694E14CAEB182709 Accuracy: -m0
  Conclusion: CDDA 99%
  Signature: ED9AAF81D16744947CB86027C2E36C37276B058D
FILE: Jadis - More Than Meets The Eye 25 - 05 More Than Meets The Eye.flac
  Size: 26192648 Hash: B407281EB8EBDCC33F3CD52FF1C2C183 Accuracy: -m0
  Conclusion: CDDA 100%
  Signature: 386FE2B2761C71C107FD82034D469EA63D847BD5
FILE: Jadis - More Than Meets The Eye 25 - 04 Wonderful World.flac
  Size: 54264796 Hash: 77B432BAAA7BEC902E4140E18124B619 Accuracy: -m0
  Conclusion: CDDA 100%
  Signature: A3896CD0D7EA47D96936174344F05BB407F94832
FILE: Jadis - More Than Meets The Eye 25 - 03 G13.flac
  Size: 42079676 Hash: 2FBA50C1573189800F91AE7165E05BED Accuracy: -m0
  Conclusion: CDDA 100%
  Signature: BD8209907E52CF21CEAADE4AB474895001B2A0D8
FILE: Jadis - More Than Meets The Eye 25 - 02 Hiding In The Corner.flac
  Size: 29916915 Hash: 884702213CCF764997FCEB07D9624C8F Accuracy: -m0
  Conclusion: CDDA 99%
  Signature: 2E02E89025CEF8F2E231ADC57EBADBD71350799F
FILE: Jadis - More Than Meets The Eye 25 - 01 Sleepwalk.flac
  Size: 57542240 Hash: 4266675F2BC3F3C180AB6CB11843BEE4 Accuracy: -m0
  Conclusion: CDDA 100%
  Signature: D7204CF84A82ADE0CC1E3757431D34D54336EBBA
Код: Выделить всё
foobar2000 1.3.12 / Dynamic Range Meter 1.1.1
log date: 2019-03-04 10:14:19
--------------------------------------------------------------------------------
Analyzed: Jadis / More Than Meets The Eye 25
--------------------------------------------------------------------------------
DR         Peak         RMS     Duration Track
--------------------------------------------------------------------------------
DR11      -0.04 dB   -14.00 dB      8:18 01-Sleepwalk
DR11      -0.30 dB   -13.13 dB      4:17 02-Hiding In The Corner
DR11      -0.30 dB   -13.53 dB      5:44 03-G13
DR12      -0.01 dB   -13.89 dB      8:17 04-Wonderful World
DR12      -3.77 dB   -19.03 dB      4:53 05-More Than Meets The Eye
DR12       0.00 dB   -13.29 dB      6:12 06-The Beginning And The End
DR11      -0.30 dB   -13.30 dB      9:39 07-Holding Your Breath
DR13      -2.70 dB   -18.17 dB      4:14 08-G13 - Acoustic Version 2017
DR13      -2.34 dB   -18.53 dB      4:44 09-Wonderful World - Acoustic Version 2017
DR11      -0.30 dB   -13.37 dB      6:08 10-The Beginning And The End - Live - NL 1993
DR11      -0.30 dB   -12.97 dB      7:27 11-This Changing Face - Live - NL 1993
DR8       -4.00 dB   -12.89 dB      4:33 12-Follow Me To Salzburg
DR10      -2.16 dB   -13.19 dB      7:04 13-All In One Day
DR9       -2.43 dB   -13.17 dB      7:37 14-View From Above
DR11      -4.76 dB   -18.62 dB      5:02 15-This Changing Face
--------------------------------------------------------------------------------
Number of tracks:  15
Official DR value: DR11
Samplerate:        44100 Hz
Channels:          2
Bits per sample:   16
Bitrate:           882 kbps
Codec:             FLAC
================================================================================
#777
01. There's a Light [00:05:45]
02. Truth From The Lies [00:05:18]
03. No Sacrifice [00:06:42]
04. What Kind of Reason [00:05:47]
05. Standing Still [00:05:30]
06. Photoplay [00:05:56]
07. Daylight Fades [00:05:16]
08. Hear Us [00:03:38]
09. Animated [00:05:44]
10. Your Own Special Way [00:05:55]
11. Comfortably Numb [00:06:16]
Released February 20, 2019
Bandcamp
The Digipak CD is a collection of remixed, reworked, live versions, unreleased new tracks and a couple of covers.
1. There's a light - recorded during our brief, yet very successful, return to gigging in 2018.
2. Truth from the lies - a new unreleased track.
3. No sacrifice - edited and remixed with replayed drums and keyboards.
4. What kind of reason - remixed and edited version from 'Fanatic'.
5. Standing still - remixed version from 'Photoplay'.
6. Photoplay - a completely revamped, reworked and extended version of this instrumental from 'Photoplay', with the addition of drums and bass.
7. Daylight fades - recorded live in 2018.
8. Hear us - end section - recorded live in 2018.
9. Animated - a new unreleased instrumental track.
10. Your own special way - a cover of the Genesis song from 'Wind & Wuthering'. Gary and Martin have been playing this at some of the recent house gigs.
11. Comfortably numb - our take on the Pink Floyd classic, recorded at one of our garden gigs back in 2001. This is remastered from the 2001 'Alive Outside' CD.
Gary Chandler – Guitars, Lead & Backing Vocals, Keyboards, Arrangements, Production & Mixing
Martin Orford – Keyboard Solos, Piano, Flute, Hurdy Gurdy, Backing Vocals
Andy Marlow – Bass Guitar
Steve Christey – Drums, Percussion
Код: Выделить всё
-----------------------
DON'T MODIFY THIS FILE
-----------------------
PERFORMER: auCDtect Task Manager, ver. 1.6.0 RC1 build 1.6.0.1
Copyright (c) 2008-2010 y-soft. All rights reserved
[url=http://y-soft.org]http://y-soft.org[/url]
ANALYZER: auCDtect: CD records authenticity detector, version 0.8.2
Copyright (c) 2004 Oleg Berngardt. All rights reserved.
Copyright (c) 2004 Alexander Djourik. All rights reserved.
FILE: Jadis - Medium Rare II - 11 Comfortably Numb.flac
  Size: 47244121 Hash: F44146D7FEF6B4239C615C4248C14A99 Accuracy: -m0
  Conclusion: CDDA 99%
  Signature: FB0852678AFCA2B266E2CCC89DA94A8E871D68F1
FILE: Jadis - Medium Rare II - 10 Your Own Special Way.flac
  Size: 41589578 Hash: F4FC25255C5AB54529D29390C044A156 Accuracy: -m0
  Conclusion: CDDA 100%
  Signature: 6EDF3CDEEC07A28D88A1854FF625EF41AEC11DF8
FILE: Jadis - Medium Rare II - 09 Animated.flac
  Size: 39229887 Hash: D71656F5CACF3FFCA311006101FEDC38 Accuracy: -m0
  Conclusion: CDDA 100%
  Signature: 03E56479794895B950D6211E089CF30016C242D1
FILE: Jadis - Medium Rare II - 08 Hear Us.flac
  Size: 26722171 Hash: 90112EC736CF4C8EDA2FEDA27C136CF7 Accuracy: -m0
  Conclusion: CDDA 100%
  Signature: 141A5BD3B82247876951B534D9FD8100B9208FDB
FILE: Jadis - Medium Rare II - 07 Daylight Fades.flac
  Size: 36260042 Hash: 4D9CE54FE2AA6F7568C3A8351A3C4CD3 Accuracy: -m0
  Conclusion: CDDA 99%
  Signature: DE33B0CED49B1BB7A8CF5F6AA8908E3CFE783830
FILE: Jadis - Medium Rare II - 06 Photoplay.flac
  Size: 42994458 Hash: 7DC5D1E2F4336E05AF063D813AF2CDB3 Accuracy: -m0
  Conclusion: CDDA 62%
  Signature: 79FE4E8701E60ABBEFBD972144DF73C07B8E8F63
FILE: Jadis - Medium Rare II - 05 Standing Still.flac
  Size: 39072842 Hash: 9B3880E4A9D11E98B09EE9179553F9DC Accuracy: -m0
  Conclusion: CDDA 94%
  Signature: CE10C5D82EF70617F357850875AF3572F82A55B6
FILE: Jadis - Medium Rare II - 04 What Kind of Reason.flac
  Size: 41697185 Hash: 4523A1BEECDB224D9042B1269998E80C Accuracy: -m0
  Conclusion: CDDA 100%
  Signature: AD43BD6D01011CDAB794A216803354D56EDB9A0B
FILE: Jadis - Medium Rare II - 03 No Sacrifice.flac
  Size: 47522003 Hash: 779709313D53832B6CEF941ED34A3D3A Accuracy: -m0
  Conclusion: CDDA 100%
  Signature: 28CEE6787BA79535642DDCEC90040D370C233CC7
FILE: Jadis - Medium Rare II - 02 Truth From The Lies.flac
  Size: 38104490 Hash: 65FC9DB0E7229EFFD0BC9EFAC46C46DC Accuracy: -m0
  Conclusion: CDDA 100%
  Signature: EFF7B1B452824586D0B24F8A6055C19D667F1560
FILE: Jadis - Medium Rare II - 01 There's a Light.flac
  Size: 43734182 Hash: A9F2CE73105F0E48E8D8B39476606D05 Accuracy: -m0
  Conclusion: CDDA 100%
  Signature: 7239933A875C2FA52AFCC10E0C7FBD1334B923BA
Код: Выделить всё
foobar2000 1.3.12 / Dynamic Range Meter 1.1.1
log date: 2019-03-04 10:01:42
--------------------------------------------------------------------------------
Analyzed: Jadis / Medium Rare II
--------------------------------------------------------------------------------
DR         Peak         RMS     Duration Track
--------------------------------------------------------------------------------
DR12      -0.28 dB   -14.20 dB      5:45 01-There's a Light
DR11      -0.31 dB   -13.61 dB      5:18 02-Truth From The Lies
DR11      -0.31 dB   -13.93 dB      6:42 03-No Sacrifice
DR11      -0.25 dB   -13.54 dB      5:47 04-What Kind of Reason
DR11      -0.31 dB   -13.66 dB      5:30 05-Standing Still
DR11      -0.30 dB   -13.55 dB      5:56 06-Photoplay
DR11      -0.30 dB   -13.52 dB      5:17 07-Daylight Fades
DR12      -0.31 dB   -13.83 dB      3:38 08-Hear Us
DR10      -0.30 dB   -13.33 dB      5:44 09-Animated
DR10      -0.30 dB   -13.46 dB      5:55 10-Your Own Special Way
DR11      -0.18 dB   -12.77 dB      6:16 11-Comfortably Numb
--------------------------------------------------------------------------------
Number of tracks:  11
Official DR value: DR11
Samplerate:        44100 Hz
Channels:          2
Bits per sample:   16
Bitrate:           1003 kbps
Codec:             FLAC
================================================================================

Правила, инструкции, FAQ!!!
Торрент  Добавлен [09 мар 2019, 11:25] Скачать торрент Магнет ссылка
Скачать торрент
13.58 КБ

Статус
Проверен 
 
Размер  1.02 ГБ
Приватный: Нет (DHT включён)
.torrent скачан  0
Как залить торрент? | Как скачать Torrent? | Как смотреть и слушать онлайн?  
Гость
 



Вернуться в Progressive & Art-Rock

Кто сейчас на конференции

Сейчас этот форум просматривают: нет зарегистрированных пользователей и гости: 0