(Neo-Prog) [WEB] Castanarc - Burnt Offerings - 1988 (1998), FLAC (tracks), lossless


Статистика раздачи
Размер: 245.45 МБ | Добавлен: 09 мар 2019, 11:25 | Скачали: 0
Сидеров: 0  [0 байт/сек]    Личеров: 0  [0 байт/сек]

Сообщение Гость » 09 мар 2019, 11:25

Castanarc / Burnt Offerings
Жанр: Neo-Prog
Носитель: WEB
Год издания: 1988 (1998)
Страна исполнителя (группы): UK
Аудиокодек: FLAC (*.flac)
Тип рипа: tracks
Битрейт аудио: lossless
Продолжительность: 39:17
Источник: собственная покупка
Наличие сканов в содержимом раздачи: да

01. From Shadows [00:06:08]
02. When Doves Become Eagles [00:06:20]
03. Time Span [00:05:01]
04. The Dream [00:03:01]
05. Everything But The Boiyd [00:04:51]
06. Peyote [00:05:04]
07. No Mans Land [00:04:37]
08. Taliesin [00:04:11]
Доп. информация: Originally released as Cassette in 1988. "Clowns" is replaced with "Time Span", "The Dream" and "Taliesin" are not on the original cassette.
This version is the 1998 Khepra Records reissue...KHEPCD03.
Mark Holiday - Vocals
David Powell - Keyboards and Programming
Pete Robinson - Bass Guitar
Paul Ineson - Guitar
Pat Mount - Guitar
Neil Duty - Guitar
Dave Kirkland - Drums
Код: Выделить всё
-----------------------
DON'T MODIFY THIS FILE
-----------------------
PERFORMER: auCDtect Task Manager, ver. 1.6.0 RC1 build 1.6.0.1
Copyright (c) 2008-2010 y-soft. All rights reserved
[url=http://y-soft.org]http://y-soft.org[/url]
ANALYZER: auCDtect: CD records authenticity detector, version 0.8.2
Copyright (c) 2004 Oleg Berngardt. All rights reserved.
Copyright (c) 2004 Alexander Djourik. All rights reserved.
FILE: Castanarc - Burnt Offerings - 08 Taliesin.flac
  Size: 29047284 Hash: 7FF6A66996E86BBF96C424802E790F4C Accuracy: -m0
  Conclusion: CDDA 100%
  Signature: 296E2A73E0705CCE9715E290F4F9512D302E363F
FILE: Castanarc - Burnt Offerings - 07 No Mans Land.flac
  Size: 26735748 Hash: 9F5F66FA479CF6BB5851BB2E8D063A81 Accuracy: -m0
  Conclusion: CDDA 100%
  Signature: B44CDC8B768794989B6904FDAE5C81C222A637A1
FILE: Castanarc - Burnt Offerings - 06 Peyote.flac
  Size: 34417542 Hash: 9399AA000DCBE65D7966B2F7F363BF28 Accuracy: -m0
  Conclusion: CDDA 100%
  Signature: D1835F86D573FC26E239D224519A6DF2814FA885
FILE: Castanarc - Burnt Offerings - 05 Everything But The Boiyd.flac
  Size: 27138610 Hash: F356EE8B5E9ED2F30A45E0FDDF461836 Accuracy: -m0
  Conclusion: CDDA 100%
  Signature: C86447457BD0D68C4DBB61D15E59D03C4756A3A8
FILE: Castanarc - Burnt Offerings - 04 The Dream.flac
  Size: 20258184 Hash: 384F94139D78A96F4F70F9AAEF22AD6F Accuracy: -m0
  Conclusion: CDDA 100%
  Signature: 960DF8B8A70AFA2E4865CE74670BC7F4326090D2
FILE: Castanarc - Burnt Offerings - 03 Time Span.flac
  Size: 36438219 Hash: 8C5C1982B52B95F13467B3ED4BF5BEDD Accuracy: -m0
  Conclusion: CDDA 100%
  Signature: 03E9AC37BF2E4D43C1911FE390EB73E00373743E
FILE: Castanarc - Burnt Offerings - 02 When Doves Become Eagles.flac
  Size: 36420700 Hash: A42FB2650ED36C878799F269696CE50A Accuracy: -m0
  Conclusion: CDDA 100%
  Signature: E694BDDD35EE55E13D278AE8B28572936BC34717
FILE: Castanarc - Burnt Offerings - 01 From Shadows.flac
  Size: 44789153 Hash: 598B0BAC13B5A5B8F97D6A076178D2EE Accuracy: -m0
  Conclusion: CDDA 100%
  Signature: 51EC71CC459251D38E234DC1F5CBCCD4D96B20DB
Код: Выделить всё
foobar2000 1.3.12 / Dynamic Range Meter 1.1.1
log date: 2019-03-06 08:12:02
--------------------------------------------------------------------------------
Analyzed: Castanarc / Burnt Offerings
--------------------------------------------------------------------------------
DR         Peak         RMS     Duration Track
--------------------------------------------------------------------------------
DR8       -0.10 dB   -10.88 dB      6:09 01-From Shadows
DR10      -0.50 dB   -14.25 dB      6:20 02-When Doves Become Eagles
DR8       -0.15 dB   -11.12 dB      5:02 03-Time Span
DR11      -0.17 dB   -13.36 dB      3:02 04-The Dream
DR10      -0.70 dB   -15.48 dB      4:51 05-Everything But The Boiyd
DR9       -0.10 dB   -11.78 dB      5:05 06-Peyote
DR10      -1.23 dB   -12.88 dB      4:38 07-No Mans Land
DR8       -0.14 dB   -10.86 dB      4:11 08-Taliesin
--------------------------------------------------------------------------------
Number of tracks:  8
Official DR value: DR9
Samplerate:        44100 Hz
Channels:          2
Bits per sample:   16
Bitrate:           922 kbps
Codec:             FLAC
================================================================================
Правила, инструкции, FAQ!!!
Торрент  Добавлен [09 мар 2019, 11:25] Скачать торрент Магнет ссылка
Скачать торрент
20.54 КБ

Статус
Проверен 
 
Размер  245.45 МБ
Приватный: Нет (DHT включён)
.torrent скачан  0
Как залить торрент? | Как скачать Torrent? | Как смотреть и слушать онлайн?  
Гость
 



Вернуться в Progressive & Art-Rock

Кто сейчас на конференции

Сейчас этот форум просматривают: нет зарегистрированных пользователей и гости: 0