Natasha St-Pier - Дискография (7 альбомов) (1996-2009) [FLAC|Lossless]<Pop, French Pop, Pop-Rock, Dance>


Статистика раздачи
Размер: 2.46 ГБ | Добавлен: 12 янв 2015, 21:37 | Скачали: 2
Сидеров: 3  [0 байт/сек]    Личеров: 144  [0 байт/сек]

Сообщение Гость » 12 янв 2015, 21:37

Natasha St-Pier - Дискография (7 альбомов) (1996-2009)



Год: 1996-2009
Жанр: Pop, French Pop, Pop-Rock, Dance
Кодек: FLAC
Битрейт: Lossless
Тип битрейта: CBR
Трек лист: Image+cue
Общая продолжительность: 06:04:48
Год: 1996
Жанр: Pop, French Pop, Pop-Rock, Dance
Продолжительность: 00:47:15
Кодек: FLAC
Тип битрейта: CBR
Битрейт: 933

Трек лист:
01 - Sans Le Savoir
02 - Il Ne Sait Pas
03 - Les Magiciens
04 - Pourquoi Tu M'aimes
05 - J'ai Cru Trouver L'amour
06 - Mou'tian
07 - Le Parcours Du Coeur
08 - Portqs Par La Vague
09 - Friends
10 - Le Monde A Refaire
11 - Repose Ton Ame
AUDIOCHECKER v2.0 beta (build 457) - by Dester -
~~~~~~~~~~~~~~~~~~~~~~~~~~~~~~~~~~

Путь: ...\1996 - Emergence

01 -=- Natasha St-Pier - 1996 - Emergence.flac -=- CDDA (100%)

199966132
Exact Audio Copy V0.99 prebeta 3 from 28. July 2007

EAC extraction logfile from 31. March 2008, 19:07

Natasha St-Pier / Йmergence

Used drive : PLEXTOR DVDR PX-712A Adapter: 6 ID: 1

Read mode : Secure
Utilize accurate stream : Yes
Defeat audio cache : Yes
Make use of C2 pointers : No

Read offset correction : 30
Overread into Lead-In and Lead-Out : No
Fill up missing offset samples with silence : Yes
Delete leading and trailing silent blocks : No
Null samples used in CRC calculations : Yes
Used interface : Installed external ASPI interface

Used output format : Internal WAV Routines
Sample format : 44.100 Hz; 16 Bit; Stereo

TOC of the extracted CD

Track | Start | Length | Start sector | End sector
---------------------------------------------------------
1 | 0:00.00 | 4:43.35 | 0 | 21259
2 | 4:43.35 | 4:11.40 | 21260 | 40124
3 | 8:55.00 | 5:00.27 | 40125 | 62651
4 | 13:55.27 | 3:54.48 | 62652 | 80249
5 | 17:50.00 | 3:15.02 | 80250 | 94876
6 | 21:05.02 | 4:07.45 | 94877 | 113446
7 | 25:12.47 | 4:13.50 | 113447 | 132471
8 | 29:26.22 | 4:24.60 | 132472 | 152331
9 | 33:51.07 | 4:05.45 | 152332 | 170751
10 | 37:56.52 | 4:21.25 | 170752 | 190351
11 | 42:18.02 | 4:57.48 | 190352 | 212674

Range status and errors

Selected range

Filename E:\torrent\releases\Natasha St-Pier - Emergence - 1996\Natasha St-Pier - Emergence.wav

Peak level 100.0 %
Range quality 100.0 %
Copy CRC A90B6553
Copy OK

No errors occurred

End of status report
#777Год: 2001
Жанр: Pop, French Pop, Pop-Rock, Dance
Продолжительность: 00:52:26
Кодек: FLAC
Тип битрейта: CBR
Битрейт: 913

Трек лист:
01 - Je N'ai Que Mon Ame
02 - A Chacun Son Histoire
03 - Laisse-moi Tout Rever
04 - Pres D'une Autre
05 - Tu M'envoles
06 - Toi Et Moi
07 - Dans Mes Nuits
08 - Le Vent
09 - Tu N'es Plus Dans Ma Tete
10 - Je T'aime Encore
11 - Et La Fille Danse
12 - Si Jamais
AUDIOCHECKER v2.0 beta (build 457) - by Dester -
~~~~~~~~~~~~~~~~~~~~~~~~~~~~~~~~~~

Путь: ...\2001 - А Chacun Son Histoire

01 -=- Natasha St-Pier - 2001 - А Chacun Son Histoire.flac -=- CDDA (100%)

140503476
Exact Audio Copy V0.99 prebeta 3 from 28. July 2007

EAC extraction logfile from 1. January 2008, 14:36

Natasha ST-PIER / А chacun son histoire

Used drive : PLEXTOR DVDR PX-712A Adapter: 4 ID: 0

Read mode : Secure
Utilize accurate stream : Yes
Defeat audio cache : Yes
Make use of C2 pointers : No

Read offset correction : 30
Overread into Lead-In and Lead-Out : No
Fill up missing offset samples with silence : Yes
Delete leading and trailing silent blocks : No
Null samples used in CRC calculations : No
Used interface : Installed external ASPI interface

Used output format : Internal WAV Routines
Sample format : 44.100 Hz; 16 Bit; Stereo

TOC of the extracted CD

Track | Start | Length | Start sector | End sector
---------------------------------------------------------
1 | 0:00.00 | 2:52.37 | 0 | 12936
2 | 2:52.37 | 4:49.45 | 12937 | 34656
3 | 7:42.07 | 4:51.08 | 34657 | 56489
4 | 12:33.15 | 5:32.37 | 56490 | 81426
5 | 18:05.52 | 4:21.28 | 81427 | 101029
6 | 22:27.05 | 4:44.70 | 101030 | 122399
7 | 27:12.00 | 4:18.07 | 122400 | 141756
8 | 31:30.07 | 4:23.50 | 141757 | 161531
9 | 35:53.57 | 3:50.73 | 161532 | 178854
10 | 39:44.55 | 3:52.52 | 178855 | 196306
11 | 43:37.32 | 3:58.45 | 196307 | 214201
12 | 47:36.02 | 4:50.10 | 214202 | 235961

Range status and errors

Selected range

Filename E:\torrent\releases\Natasha St-Pier - А chacun son histoire - 2000\Natasha ST-PIER - А chacun son histoire.wav

Peak level 95.3 %
Range quality 100.0 %
Copy CRC A76869C1
Copy OK

No errors occurred

End of status report
#777Год: 2002
Жанр: Pop, French Pop, Pop-Rock, Dance
Продолжительность: 00:56:36
Кодек: FLAC
Тип битрейта: CBR
Битрейт: 964

Трек лист:
01 - Tu Trouveras
02 - Nos Rendez-Vous
03 - Grandir C'est Dire Je T'aime
04 - Tous Les Au-Revoir Se Ressemblent
05 - Alors On Se Raccroche
06 - Les Chansons Ne Servent A Rien
07 - De L'amour Le Mieux
08 - Pourquoi Tant De Larmes
09 - Toi Qui Manques A Ma Vie
10 - On Peut Tout Essayer
11 - Les Diamants Sont Solitaires
12 - Qu'est-Ce Qui Nous En Emprche
13 - L'amour Emporte Tout
14 - L?-Bas (with Florent Pagny)
AUDIOCHECKER v2.0 beta (build 457) - by Dester -
~~~~~~~~~~~~~~~~~~~~~~~~~~~~~~~~~~

Путь: ...\2002 - De L'Amour Le Mieux

01 -=- Natasha St-Pier - 2002 - De L'Amour Le Mieux.flac -=- CDDA (100%)

163865540
Exact Audio Copy V0.99 prebeta 3 from 28. July 2007

EAC extraction logfile from 1. January 2008, 14:52

Natasha St-Pier / De L'Amour Le Mieux

Used drive : PLEXTOR DVDR PX-712A Adapter: 4 ID: 0

Read mode : Secure
Utilize accurate stream : Yes
Defeat audio cache : Yes
Make use of C2 pointers : No

Read offset correction : 30
Overread into Lead-In and Lead-Out : No
Fill up missing offset samples with silence : Yes
Delete leading and trailing silent blocks : No
Null samples used in CRC calculations : No
Used interface : Installed external ASPI interface

Used output format : Internal WAV Routines
Sample format : 44.100 Hz; 16 Bit; Stereo

TOC of the extracted CD

Track | Start | Length | Start sector | End sector
---------------------------------------------------------
1 | 0:00.00 | 5:00.54 | 0 | 22553
2 | 5:00.54 | 3:06.28 | 22554 | 36531
3 | 8:07.07 | 3:33.72 | 36532 | 52578
4 | 11:41.04 | 3:45.00 | 52579 | 69453
5 | 15:26.04 | 4:08.22 | 69454 | 88075
6 | 19:34.26 | 3:32.14 | 88076 | 103989
7 | 23:06.40 | 4:15.00 | 103990 | 123114
8 | 27:21.40 | 4:00.43 | 123115 | 141157
9 | 31:22.08 | 3:22.43 | 141158 | 156350
10 | 34:44.51 | 3:54.26 | 156351 | 173926
11 | 38:39.02 | 4:28.59 | 173927 | 194085
12 | 43:07.61 | 4:05.03 | 194086 | 212463
13 | 47:12.64 | 4:15.18 | 212464 | 231606
14 | 51:28.07 | 5:08.09 | 231607 | 254715

Range status and errors

Selected range

Filename E:\torrent\releases\Natasha St-Pier - De L'Amour Le Mieux - 2002\Natasha St-Pier - De L'Amour Le Mieux.wav

Peak level 100.0 %
Range quality 100.0 %
Copy CRC 9684ECDF
Copy OK

No errors occurred

End of status report
#777Год: 2003
Жанр: Pop, French Pop, Pop-Rock, Dance
Продолжительность: 00:54:12
Кодек: FLAC
Тип битрейта: CBR
Битрейт: 880

Трек лист:
01 - Tant Que C'est Toi
02 - Quand On Cherche L'amour
03 - Mourir Demain
04 - Plus Simple Que Pa
05 - J'avais Quelqu'un
06 - Je Te Souhaite
07 - Chacun Pour Soi
08 - Pour Le Meilleur
09 - Croire
10 - J'oublie Toujour Quelque Chose
11 - Qui A-t-Il Entre Nous?
12 - Juste Un Besoin De Chaleur
13 - Quand Aimer Ne Suffit Pas
AUDIOCHECKER v2.0 beta (build 457) - by Dester -
~~~~~~~~~~~~~~~~~~~~~~~~~~~~~~~~~~

Путь: ...\2003 - L'instant D'apres

01 -=- Natasha St-Pier - 2003 - L'instant D'apres.flac -=- MPEG (95%)

94671892
Exact Audio Copy V0.99 prebeta 3 from 28. July 2007

EAC extraction logfile from 1. January 2008, 15:18

Natasha St-Pier / L'instant d'aprиs

Used drive : PLEXTOR DVDR PX-712A Adapter: 4 ID: 0

Read mode : Secure
Utilize accurate stream : Yes
Defeat audio cache : Yes
Make use of C2 pointers : No

Read offset correction : 30
Overread into Lead-In and Lead-Out : No
Fill up missing offset samples with silence : Yes
Delete leading and trailing silent blocks : No
Null samples used in CRC calculations : No
Used interface : Installed external ASPI interface

Used output format : Internal WAV Routines
Sample format : 44.100 Hz; 16 Bit; Stereo

TOC of the extracted CD

Track | Start | Length | Start sector | End sector
---------------------------------------------------------
1 | 0:00.00 | 6:26.50 | 0 | 28999
2 | 6:26.50 | 3:38.10 | 29000 | 45359
3 | 10:04.60 | 3:37.14 | 45360 | 61648
4 | 13:41.74 | 3:33.59 | 61649 | 77682
5 | 17:15.58 | 3:24.59 | 77683 | 93041
6 | 20:40.42 | 3:49.00 | 93042 | 110216
7 | 24:29.42 | 4:02.64 | 110217 | 128430
8 | 28:32.31 | 3:07.17 | 128431 | 142472
9 | 31:39.48 | 3:29.24 | 142473 | 158171
10 | 35:08.72 | 3:26.50 | 158172 | 173671
11 | 38:35.47 | 3:43.63 | 173672 | 190459
12 | 42:19.35 | 3:30.31 | 190460 | 206240
13 | 45:49.66 | 8:22.23 | 206241 | 243913

Range status and errors

Selected range

Filename E:\torrent\releases\Natasha St-Pier - L'instant d'apres - 2003\Natasha St-Pier - L'instant d'apres.wav

Peak level 98.8 %
Range quality 100.0 %
Copy CRC 434700FF
Copy OK

No errors occurred

End of status report
#777Год: 2006
Жанр: Pop, French Pop, Pop-Rock, Dance
Продолжительность: 00:46:29
Кодек: FLAC
Тип битрейта: CBR
Битрейт: 930

Трек лист:
01 - Un Ange Frappe A Ma Porte
02 - Longueur D'Ondes
03 - Ce Silence
04 - J'Oublie
05 - Tiens Moi A La Vie
06 - Je Peux Tout Quitter
07 - A L'Amour Comme A La Guerre
08 - Tant Que J'Existerai
09 - Comme Dans Un Train
10 - Je Traverserai
11 - Je Fais Comme Si
12 - De Nous
AUDIOCHECKER v2.0 beta (build 457) - by Dester -
~~~~~~~~~~~~~~~~~~~~~~~~~~~~~~~~~~

Путь: ...\2006 - Longueur D'Ondes

01 -=- Natasha St-Pier - 2006 - Longueur D'Ondes.flac -=- CDDA (100%)

106564420
Exact Audio Copy V0.99 prebeta 3 from 28. July 2007

EAC extraction logfile from 1. January 2008, 15:36

Natasha St-Pier / Longueur D'Ondes

Used drive : PLEXTOR DVDR PX-712A Adapter: 4 ID: 0

Read mode : Secure
Utilize accurate stream : Yes
Defeat audio cache : Yes
Make use of C2 pointers : No

Read offset correction : 30
Overread into Lead-In and Lead-Out : No
Fill up missing offset samples with silence : Yes
Delete leading and trailing silent blocks : No
Null samples used in CRC calculations : No
Used interface : Installed external ASPI interface

Used output format : Internal WAV Routines
Sample format : 44.100 Hz; 16 Bit; Stereo

TOC of the extracted CD

Track | Start | Length | Start sector | End sector
---------------------------------------------------------
1 | 0:00.00 | 4:09.44 | 0 | 18718
2 | 4:09.44 | 3:55.63 | 18719 | 36406
3 | 8:05.32 | 3:53.32 | 36407 | 53913
4 | 11:58.64 | 3:33.73 | 53914 | 69961
5 | 15:32.62 | 3:36.29 | 69962 | 86190
6 | 19:09.16 | 3:34.38 | 86191 | 102278
7 | 22:43.54 | 5:23.13 | 102279 | 126516
8 | 28:06.67 | 3:00.34 | 126517 | 140050
9 | 31:07.26 | 3:49.66 | 140051 | 157291
10 | 34:57.17 | 3:55.55 | 157292 | 174971
11 | 38:52.72 | 3:46.38 | 174972 | 191959
12 | 42:39.35 | 3:50.12 | 191960 | 209221

Range status and errors

Selected range

Filename E:\torrent\releases\Natasha St-Pier - Longueur D'Ondes - 2006\Natasha St-Pier - Longueur D'Ondes.wav

Peak level 100.0 %
Range quality 100.0 %
Copy CRC D4886D62
Copy OK

No errors occurred

End of status report
#777Год: 2008
Жанр: Pop, French Pop, Pop-Rock, Dance
Продолжительность: 00:39:01
Кодек: FLAC
Тип битрейта: CBR
Битрейт: 863

Трек лист:
01 - Embrasse-Moi
02 - L'Esprit De Famille
03 - 1, 2, 3
04 - L'Orient-Express
05 - John
06 - Pardonnez-Moi
07 - L'Instinct De Survie
08 - Ou Que J'Aille
09 - J'Irai Te Chercher
10 - Les Murmures De La Fin
11 - On Veut Plus Que De L'Amour
AUDIOCHECKER v2.0 beta (build 457) - by Dester -
~~~~~~~~~~~~~~~~~~~~~~~~~~~~~~~~~~

Путь: ...\2008 - Natasha St-Pier

01 -=- Natasha St-Pier - 2008 - Natasha St-Pier.flac -=- CDDA (100%)

24436052
Exact Audio Copy V0.99 prebeta 4 from 23. January 2008

Отчёт EAC об извлечении, выполненном 3. апреля 2009, 9:35

Natasha St-Pier / Natasha St-Pier

Дисковод: Optiarc DVD RW AD-7203S Adapter: 2 ID: 1

Режим чтения : Достоверность
Использование точного потока : Да
Отключение кэша аудио : Да
Использование указателей C2 : Нет

Коррекция смещения при чтении : 48
Способность читать области Lead-in и Lead-out : Нет
Заполнение пропущенных сэмплов тишиной : Да
Удаление блоков с тишиной в начале и конце : Нет
При вычислениях CRC использовались нулевые сэмплы : Да
Интерфейс : Установленный внешний ASPI-интерфейс

Выходной формат : Внутренние WAV-операции
Формат сэмплов : 44.100 Гц; 16 бит; стерео

TOC извлечённого CD

Трек | Старт | Длительность | Начальный сектор | Конечный сектор
---------------------------------------------------------------------
1 | 0:00.00 | 3:10.11 | 0 | 14260
2 | 3:10.11 | 4:28.51 | 14261 | 34411
3 | 7:38.62 | 4:01.18 | 34412 | 52504
4 | 11:40.05 | 2:54.60 | 52505 | 65614
5 | 14:34.65 | 3:22.37 | 65615 | 80801
6 | 17:57.27 | 3:08.65 | 80802 | 94966
7 | 21:06.17 | 3:15.50 | 94967 | 109641
8 | 24:21.67 | 3:29.02 | 109642 | 125318
9 | 27:50.69 | 3:07.43 | 125319 | 139386
10 | 30:58.37 | 3:54.55 | 139387 | 156991
11 | 34:53.17 | 4:08.46 | 156992 | 175637
12 | 41:33.63 | 12:55.60 | 187038 | 245222

Характеристики диапазона извлечения и сообщения об ошибках

Выбранный диапазон

Имя файла C:\docs\Моя музыка\lossless\Natasha St-Pier - Natasha St-Pier\Natasha St-Pier - Natasha St-Pier-2008.wav

Пиковый уровень 100.0 %
Качество диапазона 100.0 %
CRC теста FFB89772
CRC копии FFB89772
Копирование... OK

Ошибок не произошло

AccurateRip: сводка

Трек 1 нет в базе данных
Трек 2 нет в базе данных
Трек 3 нет в базе данных
Трек 4 нет в базе данных
Трек 5 нет в базе данных
Трек 6 нет в базе данных
Трек 7 нет в базе данных
Трек 8 нет в базе данных
Трек 9 нет в базе данных
Трек 10 нет в базе данных
Трек 11 нет в базе данных

Ни одного трека нет в базе AccurateRip

Конец отчёта
#777Год: 2009
Жанр: Pop, French Pop, Pop-Rock, Dance
Продолжительность: 01:08:47
Кодек: FLAC
Тип битрейта: CBR
Битрейт: 936

Трек лист:
01 - Tu Trouveras
02 - L'instant T [INEDIT]
03 - Je N'ai Que Mon Ame
04 - Mourir Demain
05 - Un Ange Frappe A Ma Porte
06 - Nos Rendez-Vous
07 - Tant Que C'est Toi
08 - Vivre Ou Survivre
09 - Tu M'envoles
10 - Embrasse-Moi
11 - Alors On Se Raccroche
12 - Ce Silence
13 - 1, 2, 3
14 - Tant Que J'existerai
15 - La-bas
16 - Haut Les Coeurs [INEDIT]
17 - Trade It All [INEDIT]
AUDIOCHECKER v2.0 beta (build 457) - by Dester -
~~~~~~~~~~~~~~~~~~~~~~~~~~~~~~~~~~

Путь: ...\2009 - Tu Trouveras... 10 Ans De Succes

01 -=- Natasha St-Pier - 2009 - Tu Trouveras... 10 Ans De Succes.flac -=- CDDA (100%)

157537780
Exact Audio Copy V0.99 prebeta 5 from 4. May 2009

EAC extraction logfile from 31. December 2009, 16:27

Natasha St-Pier / Tu trouveras... 10 ans de succes

Used drive : ASUS DRW-2014L1T Adapter: 5 ID: 0

Read mode : Secure
Utilize accurate stream : Yes
Defeat audio cache : Yes
Make use of C2 pointers : No

Read offset correction : 6
Overread into Lead-In and Lead-Out : No
Fill up missing offset samples with silence : Yes
Delete leading and trailing silent blocks : No
Null samples used in CRC calculations : Yes
Used interface : Native Win32 interface for Win NT & 2000

Used output format : User Defined Encoder
Selected bitrate : 128 kBit/s
Quality : High
Add ID3 tag : No
Command line compressor : C:\Program Files\Exact Audio Copy\FLAC\FLAC.EXE
Additional command line options : -6 -V -T "ARTIST=%a" -T "TITLE=%t" -T "ALBUM=%g" -T "DATE=%y" -T "TRACKNUMBER=%n" -T "GENRE=%m" -T "COMMENT=%e" %s -o %d

TOC of the extracted CD

Track | Start | Length | Start sector | End sector
---------------------------------------------------------
1 | 0:00.00 | 5:00.57 | 0 | 22556
2 | 5:00.57 | 4:25.53 | 22557 | 42484
3 | 9:26.35 | 2:51.56 | 42485 | 55365
4 | 12:18.16 | 3:38.40 | 55366 | 71755
5 | 15:56.56 | 4:09.64 | 71756 | 90494
6 | 20:06.45 | 3:06.34 | 90495 | 104478
7 | 23:13.04 | 6:26.53 | 104479 | 133481
8 | 29:39.57 | 3:10.62 | 133482 | 147793
9 | 32:50.44 | 4:21.43 | 147794 | 167411
10 | 37:12.12 | 3:10.14 | 167412 | 181675
11 | 40:22.26 | 4:08.16 | 181676 | 200291
12 | 44:30.42 | 3:53.50 | 200292 | 217816
13 | 48:24.17 | 4:03.18 | 217817 | 236059
14 | 52:27.35 | 2:59.73 | 236060 | 249557
15 | 55:27.33 | 5:07.71 | 249558 | 272653
16 | 60:35.29 | 3:45.69 | 272654 | 289597
17 | 64:21.23 | 4:25.70 | 289598 | 309542

Range status and errors

Selected range

Filename C:\Natasha St-Pier - Tu trouveras... 10 ans de succes\Natasha St-Pier - Tu trouveras... 10 ans de succes.wav

Peak level 100.0 %
Range quality 99.9 %
Test CRC 0EB49DA5
Copy CRC 0EB49DA5
Copy OK

No errors occurred

AccurateRip summary

Track 1 not present in database
Track 2 not present in database
Track 3 not present in database
Track 4 not present in database
Track 5 not present in database
Track 6 not present in database
Track 7 not present in database
Track 8 not present in database
Track 9 not present in database
Track 10 not present in database
Track 11 not present in database
Track 12 not present in database
Track 13 not present in database
Track 14 not present in database
Track 15 not present in database
Track 16 not present in database
Track 17 not present in database

None of the tracks are present in the AccurateRip database

End of status report
Время раздачи: 24/7 - круглосуточно
Правила, инструкции, FAQ!!!
Торрент  Добавлен [12 янв 2015, 21:37] Скачать торрент Магнет ссылка
Скачать торрент
19.38 КБ

Статус
Проверен 
 
Размер  2.46 ГБ
Приватный: Нет (DHT включён)
.torrent скачан  2
Как залить торрент? | Как скачать Torrent? | Как смотреть и слушать онлайн?  
Гость
 



Вернуться в Дискографии (Зарубежные)

Кто сейчас на конференции

Сейчас этот форум просматривают: нет зарегистрированных пользователей и гости: 0