Наемник / American Assassin (2017) BDRip 1080p | L

Статистика раздачи
Размер: 10.34 ГБ | Добавлен: 15 дек 2017, 19:23 | Скачали: 143
Сидеров: 332  [0 байт/сек]    Личеров: 209  [0 байт/сек]

Сообщение Гость » 15 дек 2017, 19:23

Название: Наемник
Оригинальное название: American Assassin
Год выхода: 2017
Жанр: Боевик, триллер
Режиссер: Майкл Куэста
В ролях: Дилан О’Брайен, Майкл Китон, Шарлотта Вега, Кристофер Бомфорд, Кристофер Уэбстер, Шахид Ахмед, Бастер Ривз, Ник Кавальере, Саймон Коннолли, Юсеф «Джо» Свейд ...

О фильме:
Тайный наёмник ЦРУ Митч Рэпп раздавлен потерей невесты в результате теракта. Заместитель директора ЦРУ назначает Стэна Хёрли обучать убитого горем, но серьёзно настроенного Митча для предотвращения террористических операций и охоты на преступников. Вместе они исследуют волну, на первый взгляд, случайных нападений на военные и гражданские объекты. Но позже напарникам предстоит объединиться с турецким агентом, чтобы предотвратить начало Третьей мировой войны на Ближнем Востоке.

Страна: США
Студия: CBS Films, Di Bonaventura Pictures, Lionsgate, Nick Wechsler Productions
Продолжительность: 01:51:38
Перевод: Mногоголосый закадровый ("Paradox" & Omskbird records)
Без рекламы

Кодек: MPEG-4 AVC
Качество: BDRip 1080p | L
Видео: AVC/H.264, 1920x804, ~12181 Kbps, 23.976 fps
Звук:
Аудио 1: AC3, 6 ch, 448 Kbps - Русский (MVO)
Аудио 2: AC3, 6 ch, 640 Kbps - Английский
Субтитры: Английские (Full, SDH)

Семпл
Общее
Уникальный идентификатор : 179208848781245163580257496359185973546 (0x86D25E6AC561480FBE6A0515E7AC812A)
Полное имя : American Assassin.2017.BDRip.1080p.mkv
Формат : Matroska
Версия формата : Version 4 / Version 2
Размер файла : 10,3 Гбайт
Продолжительность : 1 ч. 51 м.
Общий поток : 13,3 Мбит/сек
Дата кодирования : UTC 2017-12-15 13:02:56
Программа кодирования : mkvmerge v17.0.0 ('Be Ur Friend') 64-bit
Библиотека кодирования : libebml v1.3.5 + libmatroska v1.4.8

Видео
Идентификатор : 1
Формат : AVC
Формат/Информация : Advanced Video Codec
Профиль формата : High@L4.1
Настройки формата : CABAC / 5 Ref Frames
Параметр CABAC формата : Да
Параметр RefFrames формата : 5 кадров
Идентификатор кодека : V_MPEG4/ISO/AVC
Продолжительность : 1 ч. 51 м.
Битрейт : 12,2 Мбит/сек
Ширина : 1920 пикселей
Высота : 804 пикселя
Соотношение сторон : 2,40:1
Режим частоты кадров : Постоянный
Частота кадров : 23,976 (24000/1001) кадра/сек
Цветовое пространство : YUV
Субдискретизация насыщенности : 4:2:0
Битовая глубина : 8 бит
Тип развёртки : Прогрессивная
Бит/(Пиксели*Кадры) : 0.329
Размер потока : 9,49 Гбайт (92%)
Заголовок : WiKi
Библиотека кодирования : x264 core 129 r2245 bc13772
Настройки программы : cabac=1 / ref=5 / deblock=1:-3:-3 / analyse=0x3:0x133 / me=umh / subme=11 / psy=1 / psy_rd=1.05:0.05 / mixed_ref=1 / me_range=64 / chroma_me=1 / trellis=2 / 8x8dct=1 / cqm=0 / deadzone=21,11 / fast_pskip=0 / chroma_qp_offset=-3 / threads=12 / lookahead_threads=2 / sliced_threads=0 / nr=0 / decimate=1 / interlaced=0 / bluray_compat=0 / constrained_intra=0 / bframes=8 / b_pyramid=2 / b_adapt=2 / b_bias=0 / direct=3 / weightb=1 / open_gop=0 / weightp=2 / keyint=250 / keyint_min=23 / scenecut=40 / intra_refresh=0 / rc_lookahead=60 / rc=2pass / mbtree=1 / bitrate=12181 / ratetol=1.0 / qcomp=0.60 / qpmin=0 / qpmax=69 / qpstep=4 / cplxblur=20.0 / qblur=0.5 / vbv_maxrate=40000 / vbv_bufsize=30000 / nal_hrd=none / ip_ratio=1.40 / aq=1:0.80
Язык : English
Default : Да
Forced : Нет

Аудио #1
Идентификатор : 2
Формат : AC-3
Формат/Информация : Audio Coding 3
Идентификатор кодека : A_AC3
Продолжительность : 1 ч. 51 м.
Вид битрейта : Постоянный
Битрейт : 448 Кбит/сек
Каналы : 6 каналов
Расположение каналов : Front: L C R, Side: L R, LFE
Частота : 48,0 КГц
Частота кадров : 31,250 кадров/сек (1536 SPF)
Битовая глубина : 16 бит
Метод сжатия : С потерями
Размер потока : 358 Мбайт (3%)
Заголовок : MVO ["Paradox" & Omskbird records]
Язык : Russian
ServiceKind : Complete Main
Default : Да
Forced : Нет

Аудио #2
Идентификатор : 3
Формат : AC-3
Формат/Информация : Audio Coding 3
Идентификатор кодека : A_AC3
Продолжительность : 1 ч. 51 м.
Вид битрейта : Постоянный
Битрейт : 640 Кбит/сек
Каналы : 6 каналов
Расположение каналов : Front: L C R, Side: L R, LFE
Частота : 48,0 КГц
Частота кадров : 31,250 кадров/сек (1536 SPF)
Битовая глубина : 16 бит
Метод сжатия : С потерями
Размер потока : 511 Мбайт (5%)
Язык : English
ServiceKind : Complete Main
Default : Нет
Forced : Нет

Текст #1
Идентификатор : 4
Формат : UTF-8
Идентификатор кодека : S_TEXT/UTF8
Идентификатор кодека/Информация : UTF-8 Plain Text
Продолжительность : 1 ч. 42 м.
Битрейт : 42 бит/сек
ElementCount : 1107
Размер потока : 31,6 Кбайт (0%)
Заголовок : Full
Язык : English
Default : Нет
Forced : Нет

Текст #2
Идентификатор : 5
Формат : UTF-8
Идентификатор кодека : S_TEXT/UTF8
Идентификатор кодека/Информация : UTF-8 Plain Text
Продолжительность : 1 ч. 42 м.
Битрейт : 49 бит/сек
ElementCount : 1289
Размер потока : 37,5 Кбайт (0%)
Заголовок : SDH
Язык : English
Default : Нет
Forced : Нет

Меню
00:00:00.000 : en:Chapter 1
00:08:55.534 : en:Chapter 2
00:16:09.969 : en:Chapter 3
00:23:30.408 : en:Chapter 4
00:29:16.421 : en:Chapter 5
00:36:45.703 : en:Chapter 6
00:43:58.636 : en:Chapter 7
00:52:32.482 : en:Chapter 8
00:57:09.759 : en:Chapter 9
01:07:08.190 : en:Chapter 10
01:14:02.604 : en:Chapter 11
01:17:44.660 : en:Chapter 12
01:22:37.118 : en:Chapter 13
01:27:14.228 : en:Chapter 14
01:34:03.137 : en:Chapter 15
01:43:25.365 : en:Chapter 16
01:51:37.899 : en:Chapter 17

Правила, инструкции, FAQ!!!
Торрент  Добавлен [15 дек 2017, 19:23]

Статус
Проверен 
 
Размер  10.34 ГБ
Приватный: Нет (DHT включён)
.torrent скачан  143
Как залить торрент? | Как скачать Torrent? | Как смотреть и слушать онлайн?  
Гость
 


  • Похожие торренты
    Ответы
    Просмотры
    Последнее сообщение

Вернуться в Новинки кино

Кто сейчас на конференции

Сейчас этот форум просматривают: нет зарегистрированных пользователей и гости: 0