Moon Safari - 6 Albums (2005-2013) Discography [FLAC|Lossless]<Art Rock/Progressive Rock/Symphonic Rock>


Статистика раздачи
Размер: 2.65 ГБ | Добавлен: 16 мар 2014, 00:13 | Скачали: 0
Сидеров: 1  [0 байт/сек]    Личеров: 49  [0 байт/сек]

Сообщение Гость » 16 мар 2014, 00:13

Moon Safari - 6 Albums (2005-2013) Discography

Жанр: Art Rock/Progressive Rock/Symphonic Rock
Страна: Sweden
Год: 2005-2013
Страна производитель дисков: Sweden
Label: Blomljud Records
Аудио кодек: FLAC
Тип рипа: image+.cue
Битрейт аудио: lossless
Продолжительность: 06:24:45
Scans: в раздаче
Спасибо: Pasheka-Pacheka/Andi_Deris
Дополнительная информация:

Personnel:
- Simon Akesson - lead vocals, backing vocals, piano, Hammond organ, Moog, mellotron, choir arrangements
- Petter Sandstrom - lead vocals, backing vocals, acoustic guitar, harmonica
- Pontus Akesson - guitars, backing vocals
- Johan Westerlund - bass, backing vocals
- Tobias Lundgren - drums, percussion, backing vocals
- Sebastian Akesson - Misc. keys, vocals


#777
A Doorway To Summer
Год: 2005
Catalog#: BRCD001
Продолжительность: 00:59:57
Трек лист:
01. Doorway (11:36)
02. Across the ocean (7:27)
03. Sun of your own (9:19)
04. We spin the world (24:52)
05. Beyond the door (6:40)

Musicians:
- Simon Akesson / lead vocals, backing vocals, piano, Hammond organ, Moogs, Mellotrons & choir arrangements
- Petter Sandstrom / lead vocals, backing vocals, sloppy acoustic guitar & harmonica
- Anthon Johansson / 6, 12-string acoustic guitars, electric guitars, backing vocals & various percussions
- Johan Westerlund / bass, backing vocals, and coffeemaking
- Tobias Lundgren / drums, percussion & backing vocals
Код:
Код: Выделить всё
Exact Audio Copy V1.0 beta 3 from 29. August 2011

Отчёт EAC об извлечении, выполненном 22. сентября 2013, 7:07

Moon Safari    / A doorway to summer

Дисковод: ASUS    BW-12D1S-U   Adapter: 1  ID: 1

Режим чтения                 : Достоверность
Использование точного потока : Да
Отключение кэша аудио        : Да
Использование указателей C2  : Нет

Коррекция смещения при чтении                     : 667
Способность читать области Lead-in и Lead-out     : Да
Заполнение пропущенных сэмплов тишиной            : Да
Удаление блоков с тишиной в начале и конце        : Нет
При вычислениях CRC использовались нулевые сэмплы : Да
Интерфейс                                         : Встроенный Win32-интерфейс для Win NT/2000

Выходной формат          : Пользовательский кодировщик
Выбранный битрейт        : 1024 kBit/s
Качество                 : Высокий
Добавление ID3-тега      : Нет
Утилита сжатия           : C:\Program Files (x86)\Exact Audio Copy\Flac\flac.exe
Дополнительные параметры :  -V -8 -T "Date=%year%" -T "Genre=%genre%" %source%

TOC извлечённого CD

     Трек |   Старт  | Длительность | Начальный сектор | Конечный сектор
    ---------------------------------------------------------------------
       1  |  0:00.00 |   11:35.60   |           0      |      52184
       2  | 11:35.60 |    7:26.38   |       52185      |      85672
       3  | 19:02.23 |    9:19.17   |       85673      |     127614
       4  | 28:21.40 |   24:52.09   |      127615      |     239523
       5  | 53:13.49 |    6:40.07   |      239524      |     269530

Характеристики диапазона извлечения и сообщения об ошибках

Выбранный диапазон

     Имя файла E:\cd\Moon Safari (D)\Moon Safari (2005) - A Doorway To Summer\Moon Safari    - A doorway to summer.wav

     Пиковый уровень 99.8 %
     Скорость извлечения 1.6 X
     Качество диапазона 100.0 %
     CRC теста 8328F4DB
     CRC копии 8328F4DB
     Копирование... OK

Ошибок не произошло

Конец отчёта
Код:
Код: Выделить всё
-----------------------

DON'T MODIFY THIS FILE

-----------------------

PERFORMER: auCDtect Task Manager, ver. 1.5.1RC4 build 1.5.1.5
Copyright (c) 2008-2010 y-soft. All rights reserved
http:/y-soft.org

ANALYZER: auCDtect: CD records authenticity detector, version 0.8.2
Copyright (c) 2004 Oleg Berngardt. All rights reserved.
Copyright (c) 2004 Alexander Djourik. All rights reserved.

FILE: Moon Safari    - A doorway to summer.flac
  Size: 399623095 Hash: 79F02AC2D8F299B6AE85B1FD0F00C5B7 Accuracy: -m0
  Conclusion: CDDA 100%
  Signature: 3CAA32C49549FA780AE2799FB11E28E364A61237
#777
Blomljud
Год: 2008
Catalog#: BRCD002
Продолжительность: 01:43:53
Трек лист:
CD1: Ka-on I (00:51:36)
01. Constant Bloom (1:27)
02. Methuselah's Children (15:43)
03. In The Countryside (5:43)
04. Moonwalk (8:49)
05. Bluebells (10:11)
06. The Ghost Of Flowers Past (9:47)
CD2: Ka-on II (00:50:09)
01. Yasgur's Farm (8:06)
02. Lady Of The Woodlands (3:37)
03. A Tale Of Three & Tree (3:29)
04. The Other Half Of The sky (31:44)
05. To Sail Beyond The Sunset (5:18)

Musicians:
- Simon Akesson / lead and backing vocals, keyboards, sfx, choir arrangements
- Petter Sandstrom / lead and backing vocals, 12 string and electric guitar, sfx
- Pontus Akesson / lead and backing vocals, guitars, mandolin
- Johan Westerlund / lead and backing vocals, bass
- Tobias Lundgren / drums, percussion, backing vocals

Код:
Код: Выделить всё
Exact Audio Copy V1.0 beta 3 from 29. August 2011

Отчёт EAC об извлечении, выполненном 22. октября 2013, 11:10

Moon Safari / Blomljud - Ka-on1

Дисковод: ASUS    BW-12D1S-U   Adapter: 1  ID: 1

Режим чтения                 : Достоверность
Использование точного потока : Да
Отключение кэша аудио        : Да
Использование указателей C2  : Нет

Коррекция смещения при чтении                     : 667
Способность читать области Lead-in и Lead-out     : Нет
Заполнение пропущенных сэмплов тишиной            : Да
Удаление блоков с тишиной в начале и конце        : Нет
При вычислениях CRC использовались нулевые сэмплы : Да
Интерфейс                                         : Встроенный Win32-интерфейс для Win NT/2000

Выходной формат          : Пользовательский кодировщик
Выбранный битрейт        : 1024 kBit/s
Качество                 : Высокий
Добавление ID3-тега      : Нет
Утилита сжатия           : C:\Program Files (x86)\Exact Audio Copy\Flac\flac.exe
Дополнительные параметры :  -V -8 -T "Date=%year%" -T "Genre=%genre%" %source%

TOC извлечённого CD

     Трек |   Старт  | Длительность | Начальный сектор | Конечный сектор
    ---------------------------------------------------------------------
       1  |  0:00.00 |    1:27.01   |           0      |       6525
       2  |  1:27.01 |   15:42.68   |        6526      |      77243
       3  | 17:09.69 |    5:42.47   |       77244      |     102940
       4  | 22:52.41 |    8:48.54   |      102941      |     142594
       5  | 31:41.20 |   10:11.25   |      142595      |     188444
       6  | 41:52.45 |    9:46.45   |      188445      |     232439

Характеристики диапазона извлечения и сообщения об ошибках

Выбранный диапазон

     Имя файла E:\cd\Moon Safari (D)\Moon Safari (2008) - [Blomljud]\Ka-on 1\Moon Safari - Blomljud - Ka-on1.wav

     Пиковый уровень 97.4 %
     Скорость извлечения 7.3 X
     Качество диапазона 100.0 %
     CRC теста FE69CE78
     CRC копии FE69CE78
     Копирование... OK

Ошибок не произошло

AccurateRip: сводка

Трек  1  точность не определена (достоверность 18)  [64E8D062], AccurateRip вернул [434020CB]  (AR v2)
Трек  2  точность не определена (достоверность 18)  [2CA395A3], AccurateRip вернул [4D86E128]  (AR v2)
Трек  3  точность не определена (достоверность 18)  [9C8197F1], AccurateRip вернул [CE875026]  (AR v2)
Трек  4  точность не определена (достоверность 18)  [F801F3B0], AccurateRip вернул [F6A2F3A7]  (AR v2)
Трек  5  точность не определена (достоверность 18)  [E4645ABE], AccurateRip вернул [96F46901]  (AR v2)
Трек  6  точность не определена (достоверность 18)  [C9F9694F], AccurateRip вернул [26A44F54]  (AR v2)

Ни один трек не прошёл проверки на точность
В вашей базе может быть иной вариант штамповки диска

Конец отчёта
Код:
Код: Выделить всё
-----------------------

DON'T MODIFY THIS FILE

-----------------------

PERFORMER: auCDtect Task Manager, ver. 1.5.1RC4 build 1.5.1.5
Copyright (c) 2008-2010 y-soft. All rights reserved
http:/y-soft.org

ANALYZER: auCDtect: CD records authenticity detector, version 0.8.2
Copyright (c) 2004 Oleg Berngardt. All rights reserved.
Copyright (c) 2004 Alexander Djourik. All rights reserved.

FILE: Moon Safari - Blomljud - Ka-on1.flac
  Size: 366461078 Hash: 7A403DF5C4DB8379C07F238214FECD26 Accuracy: -m0
  Conclusion: CDDA 100%
  Signature: 170BD16262AB4FEFDA1DE0AB27D8EB9188C13145
Код:
Код: Выделить всё
Exact Audio Copy V1.0 beta 3 from 29. August 2011

Отчёт EAC об извлечении, выполненном 22. октября 2013, 11:36

Moon Safari / Blomljud - Ka-on 2

Дисковод: ASUS    BW-12D1S-U   Adapter: 1  ID: 1

Режим чтения                 : Достоверность
Использование точного потока : Да
Отключение кэша аудио        : Да
Использование указателей C2  : Нет

Коррекция смещения при чтении                     : 667
Способность читать области Lead-in и Lead-out     : Нет
Заполнение пропущенных сэмплов тишиной            : Да
Удаление блоков с тишиной в начале и конце        : Нет
При вычислениях CRC использовались нулевые сэмплы : Да
Интерфейс                                         : Встроенный Win32-интерфейс для Win NT/2000

Выходной формат          : Пользовательский кодировщик
Выбранный битрейт        : 1024 kBit/s
Качество                 : Высокий
Добавление ID3-тега      : Нет
Утилита сжатия           : C:\Program Files (x86)\Exact Audio Copy\Flac\flac.exe
Дополнительные параметры :  -V -8 -T "Date=%year%" -T "Genre=%genre%" %source%

TOC извлечённого CD

     Трек |   Старт  | Длительность | Начальный сектор | Конечный сектор
    ---------------------------------------------------------------------
       1  |  0:00.00 |    8:06.03   |           0      |      36452
       2  |  8:06.03 |    3:36.49   |       36453      |      52701
       3  | 11:42.52 |    3:28.38   |       52702      |      68339
       4  | 15:11.15 |   31:44.27   |       68340      |     211166
       5  | 46:55.42 |    5:18.33   |      211167      |     235049

Характеристики диапазона извлечения и сообщения об ошибках

Выбранный диапазон

     Имя файла E:\cd\Moon Safari (D)\Moon Safari (2008) - [Blomljud]\Ka-on 2\Moon Safari - Blomljud - Ka-on 2.wav

     Пиковый уровень 96.6 %
     Скорость извлечения 7.3 X
     Качество диапазона 100.0 %
     CRC теста C4074B02
     CRC копии C4074B02
     Копирование... OK

Ошибок не произошло

AccurateRip: сводка

Трек  1  точность не определена (достоверность 18)  [93D56D0A], AccurateRip вернул [79B840A3]  (AR v2)
Трек  2  точность не определена (достоверность 18)  [C19EF281], AccurateRip вернул [8330E67A]  (AR v2)
Трек  3  точность не определена (достоверность 18)  [DA479423], AccurateRip вернул [E8019AB4]  (AR v2)
Трек  4  точность не определена (достоверность 18)  [546A6A47], AccurateRip вернул [DF790A69]  (AR v2)
Трек  5  точность не определена (достоверность 18)  [C0F4FD81], AccurateRip вернул [D0A93CCD]  (AR v2)

Ни один трек не прошёл проверки на точность
В вашей базе может быть иной вариант штамповки диска

Конец отчёта
Код:
Код: Выделить всё
-----------------------

DON'T MODIFY THIS FILE

-----------------------

PERFORMER: auCDtect Task Manager, ver. 1.5.1RC4 build 1.5.1.5
Copyright (c) 2008-2010 y-soft. All rights reserved
http:/y-soft.org

ANALYZER: auCDtect: CD records authenticity detector, version 0.8.2
Copyright (c) 2004 Oleg Berngardt. All rights reserved.
Copyright (c) 2004 Alexander Djourik. All rights reserved.

FILE: Moon Safari - Blomljud - Ka-on 2.flac
  Size: 370157959 Hash: 76B84DDEC7458AC30E691ECE60DB6666 Accuracy: -m0
  Conclusion: CDDA 100%
  Signature: F9AE6FC5859852FA31013A315025EF0A2C721938

#777
Lover's End
Год: 2010
Catalog#: BRCD003
Продолжительность: 00:51:51
Трек лист:
01. Lover's End pt. I (6:42)
02. A Kid Called Panic (13:58)
03. Southern Belle (3:46)
04. The World's Best Dreamers (5:48)
05. New York City Summergirl (4:08)
06. Heartland (5:47)
07. Crossed The Rubicon (9:46)
08. Lover's End pt. II (1:57)

Musicians:
- Simon Akesson / vocals, piano, organ, Moog, Mellotron, keys,
- Petter Sandstrom / vocals, acoustic guitar & harmonica,
- Pontus Akesson / vocals, acoustic guitars, electric guitar,
- Johan Westerlund / vocals, bass guitar,
- Tobias Lundgren / vocals, drums, percussion,
- Sebastian Akesson / keyboards, guitars, vocals.
Код:
Код: Выделить всё
Exact Audio Copy V1.0 beta 3 from 29. August 2011

Отчёт EAC об извлечении, выполненном 22. сентября 2013, 7:33

Moon Safari / Lover's End

Дисковод: ASUS    BW-12D1S-U   Adapter: 1  ID: 1

Режим чтения                 : Достоверность
Использование точного потока : Да
Отключение кэша аудио        : Да
Использование указателей C2  : Нет

Коррекция смещения при чтении                     : 667
Способность читать области Lead-in и Lead-out     : Да
Заполнение пропущенных сэмплов тишиной            : Да
Удаление блоков с тишиной в начале и конце        : Нет
При вычислениях CRC использовались нулевые сэмплы : Да
Интерфейс                                         : Встроенный Win32-интерфейс для Win NT/2000

Выходной формат          : Пользовательский кодировщик
Выбранный битрейт        : 1024 kBit/s
Качество                 : Высокий
Добавление ID3-тега      : Нет
Утилита сжатия           : C:\Program Files (x86)\Exact Audio Copy\Flac\flac.exe
Дополнительные параметры :  -V -8 -T "Date=%year%" -T "Genre=%genre%" %source%

TOC извлечённого CD

     Трек |   Старт  | Длительность | Начальный сектор | Конечный сектор
    ---------------------------------------------------------------------
       1  |  0:00.00 |    6:42.06   |           0      |      30155
       2  |  6:42.06 |   13:57.46   |       30156      |      92976
       3  | 20:39.52 |    3:46.28   |       92977      |     109954
       4  | 24:26.05 |    5:47.42   |      109955      |     136021
       5  | 30:13.47 |    4:08.11   |      136022      |     154632
       6  | 34:21.58 |    5:46.49   |      154633      |     180631
       7  | 40:08.32 |    9:45.45   |      180632      |     224551
       8  | 49:54.02 |    1:56.56   |      224552      |     233307

Характеристики диапазона извлечения и сообщения об ошибках

Выбранный диапазон

     Имя файла E:\cd\Moon Safari (D)\Moon Safari (2010) - Lover's End\Moon Safari - Lover's End.wav

     Пиковый уровень 97.7 %
     Скорость извлечения 7.3 X
     Качество диапазона 100.0 %
     CRC теста 15FF12ED
     CRC копии 15FF12ED
     Копирование... OK

Ошибок не произошло

Конец отчёта
Код:
Код: Выделить всё
-----------------------

DON'T MODIFY THIS FILE

-----------------------

PERFORMER: auCDtect Task Manager, ver. 1.5.1RC4 build 1.5.1.5
Copyright (c) 2008-2010 y-soft. All rights reserved
http:/y-soft.org

ANALYZER: auCDtect: CD records authenticity detector, version 0.8.2
Copyright (c) 2004 Oleg Berngardt. All rights reserved.
Copyright (c) 2004 Alexander Djourik. All rights reserved.

FILE: Moon Safari - Lover's End.flac
  Size: 383340792 Hash: C8B24C80E064FD3C71D5ED1CA2E31954 Accuracy: -m0
  Conclusion: CDDA 100%
  Signature: 5D0BE14735ACBCD839EC0D76DDAC5DF52698C07C
#777
Lover's End Pt. III: Skelleftea Serenade
Год: 2012
Catalog#: BRCD005
Продолжительность: 00:24:21
Трек лист:
01. Lover's End Pt. III: Skelleftea Serenade (24:21)

Musicians:
- Simon Akesson / Keyboards and Vocals
- Petter Sandstrom / Acoustic guitar and Vocals
- Pontus Akesson / Electric guitar and Vocals
- Johan Westerlund / Bass guitar and Vocals
- Tobias Lundgren / Drums and Vocals
- Sebastian Akesson / Misc and Vocals
Код:
Код: Выделить всё
Exact Audio Copy V1.0 beta 3 from 29. August 2011

Отчёт EAC об извлечении, выполненном 22. сентября 2013, 4:45

MoonSafari / Lover's End Pt. III Skelleftea Serenade

Дисковод: ASUS    BW-12D1S-U   Adapter: 1  ID: 1

Режим чтения                 : Достоверность
Использование точного потока : Да
Отключение кэша аудио        : Да
Использование указателей C2  : Нет

Коррекция смещения при чтении                     : 667
Способность читать области Lead-in и Lead-out     : Да
Заполнение пропущенных сэмплов тишиной            : Да
Удаление блоков с тишиной в начале и конце        : Нет
При вычислениях CRC использовались нулевые сэмплы : Да
Интерфейс                                         : Встроенный Win32-интерфейс для Win NT/2000

Выходной формат          : Пользовательский кодировщик
Выбранный битрейт        : 1024 kBit/s
Качество                 : Высокий
Добавление ID3-тега      : Нет
Утилита сжатия           : C:\Program Files (x86)\Exact Audio Copy\Flac\flac.exe
Дополнительные параметры :  -V -8 -T "Date=%year%" -T "Genre=%genre%" %source%

TOC извлечённого CD

     Трек |   Старт  | Длительность | Начальный сектор | Конечный сектор
    ---------------------------------------------------------------------
       1  |  0:00.00 |   24:20.50   |           0      |     109549

Характеристики диапазона извлечения и сообщения об ошибках

Выбранный диапазон

     Имя файла E:\cd\Moon Safari (D)\Moon Safari (2012) - Lover's End Pt. III Skelleftea Serenade\MoonSafari - Lover's End Pt. III Skelleftea Serenade.wav

     Пиковый уровень 98.6 %
     Скорость извлечения 6.2 X
     Качество диапазона 100.0 %
     CRC теста AFAB1C0B
     CRC копии AFAB1C0B
     Копирование... OK

Ошибок не произошло

Конец отчёта

---- CUETools DB Plugin V2.1.3

[CTDB TOCID: tDLTvufPu.OsSeC64lH6srFVSfs-] found, Submit result: tDLTvufPu.OsSeC64lH6srFVSfs- has been confirmed
[f4b81770] (2/4) Accurately ripped
[580b47cd] (1/4) No match
[5935f5d5] (1/4) No match
Код:
Код: Выделить всё
-----------------------

DON'T MODIFY THIS FILE

-----------------------

PERFORMER: auCDtect Task Manager, ver. 1.5.1RC4 build 1.5.1.5
Copyright (c) 2008-2010 y-soft. All rights reserved
http:/y-soft.org

ANALYZER: auCDtect: CD records authenticity detector, version 0.8.2
Copyright (c) 2004 Oleg Berngardt. All rights reserved.
Copyright (c) 2004 Alexander Djourik. All rights reserved.

FILE: MoonSafari - Lover's End Pt. III Skelleftea Serenade.flac
  Size: 186287187 Hash: 6D051917DDC1D2242D7F6A2F3B632D84 Accuracy: -m0
  Conclusion: CDDA 100%
  Signature: A002741B8C498679A9101C56C3D8646A897DECE9
#777
The Gettysburg Address - Live 2CD
Год: 2012
Catalog#: BRCD004
Продолжительность: 01:48:35
Трек лист:
CD-1 (00:48:14)
01. Moonwalk (11:39)
02. Lover's End Pt.1 (6:55)
03. A Kid Called Panic (14:35)
04. Yasgur's Farm (8:45)
05. The World's best Dreamers (6:21)
CD-2 (00:50:30)
01. Dance Across The Ocean (8:49)
02. Heartland (6:05)
03. New York City Summergirl (4:58)
04. Other half of the Sky (30:39)
Musicians:
- Pontus Akesson / Electric Guitar and Vocals
- Sebastian Akesson / Organ, Mellotron, Percussion and Vocals
- Simon Akesson / Lead Synthesizers, Grand Piano, Organ, Mellotron and Vocals
- Tobias Lundgren / Drums, Percussion and Vocals
- Petter Sandstrom / Acoustic Guitar and Vocals
- Johan Westerlund / Bass Guitar and Vocals

Код:
Код: Выделить всё
Exact Audio Copy V1.0 beta 3 from 29. August 2011

Отчёт EAC об извлечении, выполненном 22. октября 2013, 12:02

Moon Safari    / The Gettysburg Address (CD-1)

Дисковод: ASUS    BW-12D1S-U   Adapter: 1  ID: 1

Режим чтения                 : Достоверность
Использование точного потока : Да
Отключение кэша аудио        : Да
Использование указателей C2  : Нет

Коррекция смещения при чтении                     : 667
Способность читать области Lead-in и Lead-out     : Нет
Заполнение пропущенных сэмплов тишиной            : Да
Удаление блоков с тишиной в начале и конце        : Нет
При вычислениях CRC использовались нулевые сэмплы : Да
Интерфейс                                         : Встроенный Win32-интерфейс для Win NT/2000

Выходной формат          : Пользовательский кодировщик
Выбранный битрейт        : 1024 kBit/s
Качество                 : Высокий
Добавление ID3-тега      : Нет
Утилита сжатия           : C:\Program Files (x86)\Exact Audio Copy\Flac\flac.exe
Дополнительные параметры :  -V -8 -T "Date=%year%" -T "Genre=%genre%" %source%

TOC извлечённого CD

     Трек |   Старт  | Длительность | Начальный сектор | Конечный сектор
    ---------------------------------------------------------------------
       1  |  0:00.00 |   11:38.60   |           0      |      52409
       2  | 11:38.60 |    6:55.32   |       52410      |      83566
       3  | 18:34.17 |   14:34.41   |       83567      |     149157
       4  | 33:08.58 |    8:44.64   |      149158      |     188521
       5  | 41:53.47 |    6:20.62   |      188522      |     217083

Характеристики диапазона извлечения и сообщения об ошибках

Выбранный диапазон

     Имя файла E:\cd\Moon Safari (D)\Moon Safari (2012) - The Gettysburg Address\CD-1\Moon Safari    - The Gettysburg Address (CD-1).wav

     Пиковый уровень 97.7 %
     Скорость извлечения 7.2 X
     Качество диапазона 100.0 %
     CRC теста ACBFE5E0
     CRC копии ACBFE5E0
     Копирование... OK

Ошибок не произошло

AccurateRip: сводка

Трек  1  : извлечено точно (доверие 5)  [1376E8B5]  (AR v2)
Трек  2  : извлечено точно (доверие 5)  [C31F72A5]  (AR v2)
Трек  3  : извлечено точно (доверие 5)  [2B344E5C]  (AR v2)
Трек  4  : извлечено точно (доверие 5)  [828C8274]  (AR v2)
Трек  5  : извлечено точно (доверие 5)  [C2930D94]  (AR v2)

Все треки извлечены точно

Конец отчёта
Код:
Код: Выделить всё
-----------------------

DON'T MODIFY THIS FILE

-----------------------

PERFORMER: auCDtect Task Manager, ver. 1.5.1RC4 build 1.5.1.5
Copyright (c) 2008-2010 y-soft. All rights reserved
http:/y-soft.org

ANALYZER: auCDtect: CD records authenticity detector, version 0.8.2
Copyright (c) 2004 Oleg Berngardt. All rights reserved.
Copyright (c) 2004 Alexander Djourik. All rights reserved.

FILE: Moon Safari    - The Gettysburg Address (CD-1).flac
  Size: 339380120 Hash: 7798D8DC6B6614228046672F39889C86 Accuracy: -m0
  Conclusion: CDDA 100%
  Signature: E917062C24F6955E02FBB7E6869E333128093008
Код:
Код: Выделить всё
Exact Audio Copy V1.0 beta 3 from 29. August 2011

Отчёт EAC об извлечении, выполненном 22. октября 2013, 12:28

Moon Safari / The Gettysburg Address (CD-2)

Дисковод: ASUS    BW-12D1S-U   Adapter: 1  ID: 1

Режим чтения                 : Достоверность
Использование точного потока : Да
Отключение кэша аудио        : Да
Использование указателей C2  : Нет

Коррекция смещения при чтении                     : 667
Способность читать области Lead-in и Lead-out     : Нет
Заполнение пропущенных сэмплов тишиной            : Да
Удаление блоков с тишиной в начале и конце        : Нет
При вычислениях CRC использовались нулевые сэмплы : Да
Интерфейс                                         : Встроенный Win32-интерфейс для Win NT/2000

Выходной формат          : Пользовательский кодировщик
Выбранный битрейт        : 1024 kBit/s
Качество                 : Высокий
Добавление ID3-тега      : Нет
Утилита сжатия           : C:\Program Files (x86)\Exact Audio Copy\Flac\flac.exe
Дополнительные параметры :  -V -8 -T "Date=%year%" -T "Genre=%genre%" %source%

TOC извлечённого CD

     Трек |   Старт  | Длительность | Начальный сектор | Конечный сектор
    ---------------------------------------------------------------------
       1  |  0:00.00 |    8:48.39   |           0      |      39638
       2  |  8:48.39 |    6:04.63   |       39639      |      67001
       3  | 14:53.27 |    4:57.38   |       67002      |      89314
       4  | 19:50.65 |   30:39.21   |       89315      |     227260

Характеристики диапазона извлечения и сообщения об ошибках

Выбранный диапазон

     Имя файла E:\cd\Moon Safari (D)\Moon Safari (2012) - The Gettysburg Address\CD-2\Moon Safari - The Gettysburg Address (CD-2).wav

     Пиковый уровень 97.7 %
     Скорость извлечения 7.2 X
     Качество диапазона 99.9 %
     CRC теста 0C8C6AA7
     CRC копии 0C8C6AA7
     Копирование... OK

Ошибок не произошло

AccurateRip: сводка

Трек  1  : извлечено точно (доверие 5)  [FA518295]  (AR v2)
Трек  2  : извлечено точно (доверие 5)  [00186FFB]  (AR v2)
Трек  3  : извлечено точно (доверие 5)  [244963C7]  (AR v2)
Трек  4  : извлечено точно (доверие 5)  [898A920C]  (AR v2)

Все треки извлечены точно

Конец отчёта
Код:
Код: Выделить всё
-----------------------

DON'T MODIFY THIS FILE

-----------------------

PERFORMER: auCDtect Task Manager, ver. 1.5.1RC4 build 1.5.1.5
Copyright (c) 2008-2010 y-soft. All rights reserved
http:/y-soft.org

ANALYZER: auCDtect: CD records authenticity detector, version 0.8.2
Copyright (c) 2004 Oleg Berngardt. All rights reserved.
Copyright (c) 2004 Alexander Djourik. All rights reserved.

FILE: Moon Safari - The Gettysburg Address (CD-2).flac
  Size: 351426254 Hash: F8AC2BF00A346FE17F72B01B01A9FD2B Accuracy: -m0
  Conclusion: CDDA 100%
  Signature: 7BE55C0F68625AB5916EF30981F19EF6A0E5646A

#777
Himlabacken Vol.1
Год: 2013
Catalog#: BRCD006
Продолжительность: 00:46:01
Трек лист:
01. Kids (2:06)
02. Too Young to Say Goodbye (6:29)
03. Mega Moon (8:21)
04. Barfly (4:47)
05. Red White Blues (5:08)
06. My Little Man (2:55)
07. Diamonds (6:42)
08. Sugar Band (9:34)

Musicians:
- Simon Akesson / vocals, piano, organ, moog, mellotron, keys
- Petter Sandstrom / vocals, acoustic guitar & harmonica
- Pontus Akesson / vocals, acoustic & electric guitars
- Johan Westerlund / vocals, bass
- Tobias Lundgren / vocals, drums & percussion
- Sebastian Akesson / vocals, keyboards, guitars
Код:
Код: Выделить всё
Exact Audio Copy V1.0 beta 3 from 29. August 2011

Отчёт EAC об извлечении, выполненном 22. сентября 2013, 5:48

Moon Safari / Himlabacken Vol 1

Дисковод: ASUS    BW-12D1S-U   Adapter: 1  ID: 1

Режим чтения                 : Достоверность
Использование точного потока : Да
Отключение кэша аудио        : Да
Использование указателей C2  : Нет

Коррекция смещения при чтении                     : 667
Способность читать области Lead-in и Lead-out     : Да
Заполнение пропущенных сэмплов тишиной            : Да
Удаление блоков с тишиной в начале и конце        : Нет
При вычислениях CRC использовались нулевые сэмплы : Да
Интерфейс                                         : Встроенный Win32-интерфейс для Win NT/2000

Выходной формат          : Пользовательский кодировщик
Выбранный битрейт        : 1024 kBit/s
Качество                 : Высокий
Добавление ID3-тега      : Нет
Утилита сжатия           : C:\Program Files (x86)\Exact Audio Copy\Flac\flac.exe
Дополнительные параметры :  -V -8 -T "Date=%year%" -T "Genre=%genre%" %source%

TOC извлечённого CD

     Трек |   Старт  | Длительность | Начальный сектор | Конечный сектор
    ---------------------------------------------------------------------
       1  |  0:00.00 |    2:06.31   |           0      |       9480
       2  |  2:06.31 |    6:28.41   |        9481      |      38621
       3  |  8:34.72 |    8:20.46   |       38622      |      76167
       4  | 16:55.43 |    4:47.10   |       76168      |      97702
       5  | 21:42.53 |    5:08.17   |       97703      |     120819
       6  | 26:50.70 |    2:55.31   |      120820      |     133975
       7  | 29:46.26 |    6:42.15   |      133976      |     164140
       8  | 36:28.41 |    9:33.41   |      164141      |     207156

Характеристики диапазона извлечения и сообщения об ошибках

Выбранный диапазон

     Имя файла E:\cd\Moon Safari (D)\Moon Safari (2013) - Himlabacken Vol.1\Moon Safari - Himlabacken Vol 1.wav

     Пиковый уровень 100.0 %
     Скорость извлечения 1.8 X
     Качество диапазона 100.0 %
     CRC теста FA3B56C8
     CRC копии FA3B56C8
     Копирование... OK

Ошибок не произошло

Конец отчёта

---- CUETools DB Plugin V2.1.3

[CTDB TOCID: uMYgxsRHN4hlmzo.84ZBlvpgHX0-] found, Submit result: uMYgxsRHN4hlmzo.84ZBlvpgHX0- has been confirmed
[950bbcae] (1/1) Accurately ripped
Код:
Код: Выделить всё
-----------------------

DON'T MODIFY THIS FILE

-----------------------

PERFORMER: auCDtect Task Manager, ver. 1.5.1RC4 build 1.5.1.5
Copyright (c) 2008-2010 y-soft. All rights reserved
http:/y-soft.org

ANALYZER: auCDtect: CD records authenticity detector, version 0.8.2
Copyright (c) 2004 Oleg Berngardt. All rights reserved.
Copyright (c) 2004 Alexander Djourik. All rights reserved.

FILE: Moon Safari - Himlabacken Vol 1.flac
  Size: 302872459 Hash: 15543E3F2C9D71F1EA8FEC000830866A Accuracy: -m0
  Conclusion: CDDA 100%
  Signature: 3F76B5DFC1E5CF033257AEB83F054DD7CA1989F1
Правила, инструкции, FAQ!!!
Торрент  Добавлен [16 мар 2014, 00:13] Скачать торрент Магнет ссылка
Скачать торрент
22.1 КБ

Статус
Проверен 
 
Размер  2.65 ГБ
Приватный: Нет (DHT включён)
.torrent скачан  0
Как залить торрент? | Как скачать Torrent? | Как смотреть и слушать онлайн?  
Гость
 



Вернуться в Дискографии (Зарубежные)

Кто сейчас на конференции

Сейчас этот форум просматривают: нет зарегистрированных пользователей и гости: 0