Молодые стрелки 2 / Young Guns II (1990) BDRip 720p | P2, A


Статистика раздачи
Размер: 5.21 ГБ | Добавлен: 04 мар 2019, 21:50 | Скачали: 11
Сидеров: 11  [0 байт/сек]    Личеров: 10  [0 байт/сек]

Сообщение Гость » 04 мар 2019, 21:50

Название: Молодые стрелки 2 (Молодые револьверы - II, Лучи славы)
Оригинальное название: Young Guns II (Young Guns - II, Blaze of Glory)
Год выпуска: 1990
Жанр: Вестерн, боевик
Выпущено: США, Morgan Creek Productions, Film Partners 1
Режиссер: Джеф Мерфи
В ролях: Эмилио Эстевез, Кифер Сазерленд, Лу Даймонд Филлипс, Кристиан Слэйтер, Уильям Л. Петерсен, Алан Рак, Р. Д. Колл, Джеймс Коберн, Бэлтазар Гетти, Джек Кихоу, Роберт Неппер, Том Курландер, Вигго Мортенсен, Леон Риппи, Трэйси Уолтер, Роберт Харви, Томас Берд, Бад Стаут, Кэрри Валлум, Бутс Саутерленд, Расти Ли, Марк Силверштейн, Уолтер Фельдбуш, Джон Фуско, Майкл Эйланд, Альберт Тружильо, Дон ’Текс’ Кларк, Эд Адамс, Алина Аренал

О фильме: В Нью-Мексико по-прежнему властвуют законы пограничных территорий, а точнее, царит полное беззаконие. Единственный, кто готов сражаться за справедливость - легендарный Билли Кид, безжалостный к врагам и не знающий, что такое промах. Вместе с новым приятелем Дэйвом Билли вытаскивает из тюрьмы оставшихся в живых друзей: Дока и Чавеса. Слава о подвигах парней вновь гремит на всю Америку. Тогда местные власти и богачи назначают за их головы щедрую награду. "Нужно нанять одного вора, чтобы поймать другого", - сказал Джон С. Чизум, местный король-скотопромышленник, и заплатил Пэту Барретту, одному из прежних партнеров Билли, 1000$, чтобы он убил прежнего босса...


Продолжительность: 01:44:02
Перевод: Профессиональный двухголосый, авторский
Субтитры: Английские

Качество: BDRip (720p)
Видео: MPEG-4 AVC, 5822 Кбит/с, 1280x544
Аудио #1: Русский (AC3, 2 ch, 192 Кбит/с) - DVO (Ekaterinburg Art)
Отдельные файлы в папке:
Аудио #2: Русский (AC3, 2 ch, 192 Кбит/с) - DVO (Премьер)
Аудио #3: Русский (AC3, 2 ch, 192 Кбит/с) - DVO (SDI Media)
Аудио #4: Русский (AC3, 6 ch, 320 Кбит/с) - AVO(А.Гаврилов)
Аудио #5: Английский (AC3, 6 ch, 448 Кбит/с) - оригинал

Формат : Matroska
Версия формата : Version 2
Размер файла : 4,37 Гбайт
Продолжительность : 1 ч. 44 м.
Общий поток : 6014 Кбит/сек
Название фильма : ~V ad~
Дата кодирования : UTC 2019-02-20 16:36:40
Программа кодирования : mkvmerge v6.5.0 ('Isn't she lovely') built on Oct 20 2013 12:50:05
Библиотека кодирования : libebml v1.3.0 + libmatroska v1.4.1

Видео
Идентификатор : 1
Формат : AVC
Формат/Информация : Advanced Video Codec
Профиль формата : High@L4.1
Настройки формата : CABAC / 11 Ref Frames
Параметр CABAC формата : Да
Параметр RefFrames формата : 11 кадров
Идентификатор кодека : V_MPEG4/ISO/AVC
Продолжительность : 1 ч. 44 м.
Битрейт : 5822 Кбит/сек
Ширина : 1280 пикселей
Высота : 544 пикселя
Соотношение сторон : 2,35:1
Режим частоты кадров : Постоянный
Частота кадров : 23,976 (24000/1001) кадра/сек
Цветовое пространство : YUV
Субдискретизация насыщенности : 4:2:0
Битовая глубина : 8 бит
Тип развёртки : Прогрессивная
Бит/(Пиксели*Кадры) : 0.349
Размер потока : 4,14 Гбайт (95%)
Заголовок : ~V~
Библиотека кодирования : x264 core 157 r2935 545de2f
Настройки программы : cabac=1 / ref=11 / deblock=1:-2:-2 / analyse=0x3:0x133 / me=umh / subme=11 / psy=1 / psy_rd=1.00:0.00 / mixed_ref=1 / me_range=32 / chroma_me=1 / trellis=2 / 8x8dct=1 / cqm=0 / deadzone=21,11 / fast_pskip=0 / chroma_qp_offset=-2 / threads=12 / lookahead_threads=1 / sliced_threads=0 / nr=0 / decimate=0 / interlaced=0 / bluray_compat=0 / constrained_intra=0 / bframes=11 / b_pyramid=2 / b_adapt=2 / b_bias=0 / direct=3 / weightb=1 / open_gop=0 / weightp=2 / keyint=240 / keyint_min=23 / scenecut=40 / intra_refresh=0 / rc=2pass / mbtree=0 / bitrate=5822 / ratetol=1.0 / qcomp=0.60 / qpmin=0 / qpmax=69 / qpstep=4 / cplxblur=20.0 / qblur=0.5 / ip_ratio=1.40 / pb_ratio=1.30 / aq=3:0.90
Язык : Английский
Default : Да
Forced : Нет

Аудио
Идентификатор : 2
Формат : AC-3
Формат/Информация : Audio Coding 3
Коммерческое название : Dolby Digital
Идентификатор кодека : A_AC3
Продолжительность : 1 ч. 44 м.
Вид битрейта : Постоянный
Битрейт : 192 Кбит/сек
Каналы : 2 канала
Channel layout : L R
Частота : 48,0 КГц
Частота кадров : 31,250 кадров/сек (1536 SPF)
Битовая глубина : 16 бит
Метод сжатия : С потерями
Размер потока : 143 Мбайт (3%)
Заголовок : DVO[Ekaterinburg Art]
Язык : Русский
Service Kind : Complete Main
Default : Да
Forced : Да

Текст
Идентификатор : 3
Формат : UTF-8
Идентификатор кодека : S_TEXT/UTF8
Идентификатор кодека/Информация : UTF-8 Plain Text
Язык : Английский
Default : Нет
Forced : Нет

Меню
00:00:00.000 : en:Chapter 01
00:10:00.725 : en:Chapter 02
00:20:01.158 : en:Chapter 03
00:30:01.925 : en:Chapter 04
00:40:02.858 : en:Chapter 05
00:50:03.041 : en:Chapter 06
01:00:03.891 : en:Chapter 07
01:10:04.158 : en:Chapter 08
01:20:04.800 : en:Chapter 09
01:30:59.871 : en:Chapter 10
01:39:22.206 : en:Chapter 11





Релиз от:
Правила, инструкции, FAQ!!!
Торрент  Добавлен [04 мар 2019, 21:50] Скачать торрент Магнет ссылка
Скачать торрент
15.26 КБ

Статус
Проверен 
 
Размер  5.21 ГБ
Приватный: Нет (DHT включён)
.torrent скачан  11
Как залить торрент? | Как скачать Torrent? | Как смотреть и слушать онлайн?  
Гость
 



Вернуться в 720p | 1080p

Кто сейчас на конференции

Сейчас этот форум просматривают: нет зарегистрированных пользователей и гости: 0