Миллениум: Трилогия (Девушка с татуировкой дракона / Девушка, которая играла с огнем / Девушка, которая взрывала воздушные замки)/ Män som hatar kvinnor / Flickan som lekte med elden / Luftslottet som sprängdes (2009) [H.264/720р-LQ] BDRip

Статистика раздачи
Размер: 7.68 ГБ | Добавлен: 04 янв 2013, 17:08 | Скачали: 4
Сидеров: 29  [0 байт/сек]    Личеров: 4  [0 байт/сек]

Сообщение Гость » 04 янв 2013, 16:50

Миллениум: Трилогия [H.264] BDRip
Экранизация детективной трилогии «Миллениум» – одного из главных мировых бестселлеров последних лет: общий тираж книг шведского писателя Стига Ларссона приближается к 30 миллионам экземпляров! В центре повествования перипетии следственного репортера Микаэля Блумквиста и татуированной девицы-хакера Лисбет Саландер, которую один из рецензентов назвал «самой крутой напарницей в борьбе с криминалом за многие годы». Два фильма по первым двум книгам трилогии ("Мужчины, которые ненавидят женщин" и "Девушка, которая играла с огнём"), созданные специально для скандинавских стран в 2009 г., вызвали невиданный ажиотаж в Швеции, Дании, Финляндии и Норвегии и побили все рекорды кассовых сборов. Третий фильм: "Королева воздушного замка"/"Девушка, которая взрывала воздушные замки" вышел на экраны 27 ноября 2009 года. Сейчас в Голливуде готовится экранизация для мирового рынка на 2011-2013 год....


Девушка с татуировкой дракона / Man som hatar kvinnor [H.264] BDRip



Русское название: Девушка с татуировкой дракона
Оригинальное название: Man som hatar kvinnor
Год выпуска: 2009
Жанр: Триллер, Криминал, Детектив

Описание фильма:
Микаэль Блумквист — талантливый журналист, который верой и правдой добивается справедливости в самых скандальных делах — неожиданно терпит фиаско в своей деятельности, в результате чего вынужден отбыть срок лишения свободы.
В то же время влиятельный человек Хенрик Вангер поручает ему дело о пропаже его племянницы, которая таинственным образом исчезла из имения Вангеров и о которой вот уже множество лет нет никаких новостей. А попытки Хенрика разыскать родственницу также не приводят к положительным результатам.
Будучи скептиком, Микаэль сначала не верит в удачу, но вскоре обнаруживает запутанную и леденящую кровь историю, связанную с семейством Вангеров. В этом журналисту помогает неформальная особа Лисбет Саландер, прослывшая не только гениальным умом, фотографической памятью, но и прекрасными хакерскими способностями.

Режиссер: Нильс Арден Оплев
Актеры: Микаэл Нюквист, Номи Рапас, Свен-Бертил Таубе, Питер Абер, Петер Андерссон

Продолжительность: 02:32:43
Перевод: Дублированный
Субтитры: Русские



Видеокодек: MPEG-4 AVC/H.264
Битрейт видео: 2017 Кбит/сек
Размер кадра: 1280x544
Качество видео: BDRip
Аудиокодек: AC3 5.1
Битрейт аудио: 384 Кбит/сек
Книга - отличный сценарий для отличного фильма.
Нашумевшая книга Стига Ларссона «Девушка с татуировкой дракона» привлекла моё внимание своим сюжетом. Мне нравятся детективы и я не сомневался, что эта книга будет стоять на моей полке.
Экранизации этой книги пришлось ждать недолго. Хоть и не от Голливуда (а мы всё равно Голливудскую версию увидим), но шведское кино тоже имеет право на жизнь. Нильс Арден Оплев — шведский режиссёр, который снимал кино для Скандинавии. Чем то он мне напоминает Павла Лунгина. Вобще, до этого фильмы, которые он снимал, особой славы не снискали, но «Девушка» прославила его не только в Европе, но и в США, где данная картина набрала чуть более 10 миллионов. Достойный результат. Режиссёрская работа проделана «на ура». Особо грубых ляпов не замечено, а рейтинг кинокритиков, составляющий 86%, говорит о многом.
Из актёров, честно признаюсь, никого не знаю, но один из главных плюсов этого фильма — именно актёры. Нуми Рапас отлично вжилась в роль «неформальной особы», которая не только умная, но и владеет отличной паматью, а так же хакерскими способностями. Неудивительно, что её уже приглашают в Голливуд. Актёры сделали всё возможное: передавали эмоции, вкладывали в свою роль большие силы (судя по интервью и т. п., но это было видно, что они очень стараются).
Отличный детектив с необычным сюжетом — остаётся взять попкорн и провести 2 с половиной часа наедине с замечательным фильмом!
Итог: 9 из 10. Десятку приберёг для «Девушки» Финчера.
Когда Лизбет шлет зашифрованное письмо Чуме, на экране отображается «Расшифровка» вместо «Шифрование».
В начале фильма у Лизбет был фотоаппарат Canon. Однако, чуть позже, компьютер определит его как Nikon.
В сцене с молодым Микаэлем, камера скользит вниз, показывая мальчика в современной обуви.
Эрик Кресс спешно покинул проект по конфиденциальным причинам, и фильм пришлось доснимать Дженсу Фишеру, причем большая часть фильма отснята именно им.
Общее
Уникальный идентификатор : 252026373128082396176921226071459635803 (0xBD9A838D86B51C28862F7F77716E225B)
Полное имя : E:\downloads\Man.Som.Hatar.Kvinnor.2009.720p.BDRip.x264[nnm-club.ru].mkv
Формат : Matroska
Версия формата : Version 2
Размер файла : 2,56 Гбайт
Продолжительность : 2 ч. 32 м.
Общий поток : 2401 Кбит/сек
Дата кодирования : UTC 2012-01-09 08:15:49
Программа кодирования : mkvmerge v5.0.1 ('Es ist Sommer') built on Oct 9 2011 11:55:43
Библиотека кодирования : libebml v1.2.2 + libmatroska v1.3.0

Видео
Идентификатор : 1
Формат : AVC
Формат/Информация : Advanced Video Codec
Профиль формата : [url=mailto:High@L3.1]High@L3.1[/url]
Параметр CABAC формата : Да
Параметр ReFrames формата : 3 кадра
Режим смешивания : Header stripping
Идентификатор кодека : V_MPEG4/ISO/AVC
Продолжительность : 2 ч. 32 м.
Битрейт : 2017 Кбит/сек
Ширина : 1280 пикселей
Высота : 544 пикселя
Соотношение сторон : 2,35:1
Соотношение сторон в оригинале : 2,35:1
Частота кадров : 24,000 кадра/сек
Цветовое пространство : YUV
Субдискретизация насыщенности : 4:2:0
Битовая глубина : 8 бит
Тип развёртки : Прогрессивная
Бит/(Пиксели*Кадры) : 0.121
Размер потока : 2,10 Гбайт (82%)
Библиотека кодирования : x264 core 120 r2120 0c7dab9
Настройки программы : cabac=1 / ref=2 / deblock=1:0:0 / analyse=0x3:0x113 / me=hex / subme=6 / psy=1 / psy_rd=1.00:0.00 / mixed_ref=1 / me_range=16 / chroma_me=1 / trellis=1 / 8x8dct=1 / cqm=0 / deadzone=21,11 / fast_pskip=1 / chroma_qp_offset=-2 / threads=3 / sliced_threads=0 / nr=0 / decimate=1 / interlaced=0 / bluray_compat=0 / constrained_intra=0 / bframes=3 / b_pyramid=1 / b_adapt=1 / b_bias=0 / direct=1 / weightb=1 / open_gop=0 / weightp=2 / keyint=250 / keyint_min=25 / scenecut=40 / intra_refresh=0 / rc_lookahead=30 / rc=2pass / mbtree=1 / bitrate=2017 / ratetol=1.0 / qcomp=0.60 / qpmin=0 / qpmax=69 / qpstep=4 / cplxblur=20.0 / qblur=0.5 / ip_ratio=1.40 / aq=1:1.00

Аудио
Идентификатор : 2
Формат : AC-3
Формат/Информация : Audio Coding 3
Расширение режима : CM (complete main)
Режим смешивания : Header stripping
Идентификатор кодека : A_AC3
Продолжительность : 2 ч. 32 м.
Вид битрейта : Постоянный
Битрейт : 384 Кбит/сек
Каналы : 6 каналов
Расположение каналов : Front: L C R, Side: L R, LFE
Частота : 48,0 КГц
Битовая глубина : 16 бит
Метод сжатия : С потерями
Задержка видео : 3 с. 0 мс.
Размер потока : 419 Мбайт (16%)
Заголовок : Dub
Язык : Russian

Текст
Идентификатор : 3
Формат : UTF-8
Идентификатор кодека : S_TEXT/UTF8
Идентификатор кодека/Информация : UTF-8 Plain Text
Заголовок : Rus
Язык : Russian


Скриншоты:



Девушка, которая играла с огнем / Flickan som lekte med elden [H.264] BDRip


Русское название: Девушка, которая играла с огнем
Оригинальное название: Flickan som lekte med elden
Год выпуска: 2009
Жанр: Триллер, Криминал, Детектив

Описание фильма:
Поздно вечером в своей квартире застрелены журналист и его подруга — люди, изучавшие каналы поставки в Швецию секс-рабынь из Восточной Европы. Среди клиентов малопочтенного бизнеса замечены представители властных структур. Кажется очевидным, каким кругам была выгодна смерть этих двоих. Микаэл Блумквист начинает собственное расследование гибели своих коллег и друзей и вдруг узнает, что в убийстве подозревают его давнюю знакомую Лисбет Саландер, самую странную девушку на свете, склонную играть с огнем — к примеру, заливать его бензином. По всей Швеции идет охота на «убийцу-психопатку», но Лисбет не боится бросить вызов кому угодно — и мафии, и общественным структурам, и самой смерти.

Режиссер: Дэниэл Альфредсон
Актеры: Номи Рапас, Микаэл Нюквист, Петер Андерссон, Ясмин Гарби, Паоло Роберто

Продолжительность: 02:09:25
Перевод: Дублированный
Субтитры: Русские



Видеокодек: MPEG-4 AVC/H.264
Битрейт видео: 2446 Кбит/сек
Размер кадра: 1280x720
Качество видео: BDRip
Аудиокодек: AC3 5.1
Битрейт аудио: 384 Кбит/сек
Трилогия миллениума Стига Ларссона по своей форме идеальный цикл произведений, построенных вокруг центральных персонажей. Пусть сие не столь оригинально, как хотя бы лет сто назад, но оригинальность как фактор можно считать несущественной, когда персонажи по-настоящему удерживают внимание после прочтения. Или после просмотра — киновоплощение трилогии Ларссона сменило режиссера после первого фильма, и в Millennium, part 2 Нильса Ардена Оплева сменяет Дэниэл Альфредсон, под режиссурой которого сделана и «Королева воздушного замка». Однако это тот случай, когда режиссер важен лишь своим наличием и тем, как он выдерживает тон, заданный изначальным материалом.
Первую скрипку здесь играют персонажи — двое главных героев, на историях которых строится вся трилогия, и невероятно удачно подобранные архетипичные образы героев второплановых; подобное в мировом кино было, и было уже не раз, но здесь с этих образов заботливо стряхнута пыль, и, несмотря на осознание, что эти герои, ситуации и фрагменты в том или ином виде уже встречались много раз, здесь они воспринимаются свежо и оригинально, за счет удачного сопоставления их с тщательно прописанным сюжетом, непривычным в этом жанре европейским стилем и высококлассной актерской игрой. Микаэл Найквист во втором фильме играет то же самое, что и в первой части, и даже внешне его персонаж никак не меняется — тот случай, когда развитие персонажа не требуется как обязательная составляющая. Это классический образ киношного журналиста, но Найквист играет так, как будто до него на экране этот типаж не воплощал никто.
Героиня Номи Рэпейс, безусловно, главное украшение и достоинство всех трех фильмов, и во второй части она поистине шикарна в полном смысле этого слова — эффектно снятые сцены, акцентирующие внимание на той самой татуировке; выражение глаз актрисы в редкие моменты тишины на экране; ее спокойная, холодная уверенность в экшен фрагментах, сменившая ее тотальную ярость и сжатую в руке розочку разбитой бутылки первого фильма — практически любая сцена с участием Рэпейс и электрошокера выглядит отдельным маленьким шедевром; и потрясающий макияж в нескольких сценах. Здесь нет необходимости в глубоких идеях — это отличный, качественно сработанный триллер высшего класса, в котором идеально сочетаются все необходимые компоненты.
Говоря о компонентах — сама по себе психопатическая составляющая первого фильма никуда не уходит (благо это одна из главных черт ведущего женского образа — при том, что она сама по себе такой человек, который не думает практически ни о ком, кроме себя, во всяком случае, вовремя), однако на смену общему маньячному уклону сюжета первого фильма в «Девушке, которая играла с огнем» приходит криминально-политическая сюжетная направленность — в лучшем кинематографическом значении этих слов, разумеется. В этот сюжет плавно вольется самое начало психопатичной криминальной карьеры Лисбет Саландер, отраженное в названии. Образ ее с каждым фильмом становится все более насыщенным, эффектным и запоминающимся, в том числе (хотя, пожалуй, особенно) среди голливудских киногероев. Только лишь в отношении внешности и стиля одежды мало кто запоминался настолько сильно и ярко — и это лишь по прошествии только двух картин.
Итог: 9 из 10. Ждем ирокез и общий punk-look style третьей, финальной части.
Общее
Уникальный идентификатор : 213274091849036048068538945985018542505 (0xA07318927FE05331B0F94C0796B739A9)
Полное имя : E:\downloads\Flickan.Som.Lekte.Med.Elden.2009.720p.BDRip.x264[nnm-club.ru].mkv
Формат : Matroska
Версия формата : Version 2
Размер файла : 2,56 Гбайт
Продолжительность : 2 ч. 9 м.
Общий поток : 2830 Кбит/сек
Название фильма : Flickan Som Lekte Med Elden (2009)
Дата кодирования : UTC 2012-01-13 15:19:52
Программа кодирования : mkvmerge v5.0.1 ('Es ist Sommer') built on Oct 9 2011 11:55:43
Библиотека кодирования : libebml v1.2.2 + libmatroska v1.3.0
Attachment : Yes / Yes / Yes

Видео
Идентификатор : 1
Формат : AVC
Формат/Информация : Advanced Video Codec
Профиль формата : [url=mailto:High@L3.1]High@L3.1[/url]
Параметр CABAC формата : Да
Параметр ReFrames формата : 3 кадра
Режим смешивания : Header stripping
Идентификатор кодека : V_MPEG4/ISO/AVC
Продолжительность : 2 ч. 9 м.
Битрейт : 2446 Кбит/сек
Ширина : 1280 пикселей
Высота : 720 пикселей
Соотношение сторон : 16:9
Частота кадров : 24,000 кадра/сек
Цветовое пространство : YUV
Субдискретизация насыщенности : 4:2:0
Битовая глубина : 8 бит
Тип развёртки : Прогрессивная
Бит/(Пиксели*Кадры) : 0.111
Размер потока : 2,16 Гбайт (84%)
Библиотека кодирования : x264 core 120 r2120 0c7dab9
Настройки программы : cabac=1 / ref=2 / deblock=1:0:0 / analyse=0x3:0x113 / me=hex / subme=6 / psy=1 / psy_rd=1.00:0.00 / mixed_ref=1 / me_range=16 / chroma_me=1 / trellis=1 / 8x8dct=1 / cqm=0 / deadzone=21,11 / fast_pskip=1 / chroma_qp_offset=-2 / threads=3 / sliced_threads=0 / nr=0 / decimate=1 / interlaced=0 / bluray_compat=0 / constrained_intra=0 / bframes=3 / b_pyramid=1 / b_adapt=1 / b_bias=0 / direct=1 / weightb=1 / open_gop=0 / weightp=2 / keyint=250 / keyint_min=25 / scenecut=40 / intra_refresh=0 / rc_lookahead=30 / rc=2pass / mbtree=1 / bitrate=2446 / ratetol=1.0 / qcomp=0.60 / qpmin=0 / qpmax=69 / qpstep=4 / cplxblur=20.0 / qblur=0.5 / ip_ratio=1.40 / aq=1:1.00

Аудио
Идентификатор : 2
Формат : AC-3
Формат/Информация : Audio Coding 3
Расширение режима : CM (complete main)
Режим смешивания : Header stripping
Идентификатор кодека : A_AC3
Продолжительность : 2 ч. 9 м.
Вид битрейта : Постоянный
Битрейт : 384 Кбит/сек
Каналы : 6 каналов
Расположение каналов : Front: L C R, Side: L R, LFE
Частота : 48,0 КГц
Битовая глубина : 16 бит
Метод сжатия : С потерями
Задержка видео : 8 мс.
Размер потока : 355 Мбайт (14%)
Заголовок : Dub
Язык : Russian

Текст
Идентификатор : 3
Формат : UTF-8
Идентификатор кодека : S_TEXT/UTF8
Идентификатор кодека/Информация : UTF-8 Plain Text
Язык : Russian


Скриншоты:


Девушка, которая взрывала воздушные замки / Luftslottet som sprangdes [H.264] BDRip
Русское название: Девушка, которая взрывала воздушные замки
Оригинальное название: Luftslottet som sprangdes
Год выпуска: 2009
Жанр: Триллер, Криминал, Детектив

Описание фильма:
Лисбет Саландер находится под неусыпным наблюдением в отделении интенсивной терапии шведской городской больницы. Она борется за жизнь и не только в физическом смысле: когда она почувствует себя достаточно хорошо, ей предстоит предстать перед судом по обвинению в трех убийствах и в покушении еще на одно. С помощью своего друга, журналиста Микаэля Блумквиста, она должна будет доказать свою невиновность и опознать продажных политиканов, из-за злоупотреблений которых страдают простые люди. А со своей стороны она готовится отомстить человеку, который пробовал убить ее и правительственным учреждениям, которые почти разрушили ее жизнь. Когда-то она была жертвой. Теперь Лисбет Саландер готова ответить ударом на удар.

Режиссер: Дэниэл Альфредсон
Актеры: Микаэл Нюквист, Нуми Рапас, Анника Халлин, Лена Эндре, Джейкоб Эрикссон, София Ледарп

Продолжительность: 02:26:47
Перевод: Дублированный
Субтитры: Русские



Видеокодек: MPEG-4 AVC/H.264
Битрейт видео: 2051 Кбит/сек
Размер кадра: 1280x720
Качество видео: BDRip
Аудиокодек: AC3 5.1
Битрейт аудио: 448 Кбит/сек
Гамбит Лисбет Саландер
«Девушка, которая взрывала воздушные замки» заключительная часть трилогии Миллениум и праву должна называться «Девушка, которая разворошила осиное гнездо. Знающие поймут, неосведомленным тут делать нечего. Смотреть этот детективный сериал с конца, все равно что есть мороженное начиная с палочки. Оно конечно процесс интересный, но чреват поломанными зубами, прежде чем язык ощутит вкус десерта.
Тем же, кто пережил невнятную вторую часть, вопрос перевода названия не так важен, как сама кульминация долгой и запутанной историю Лисбет Саландер.
То, что начиналось как расследование семейных тайн шведских аристократов Вангеров превратилась в полномасштабный политический заговор, в который вовлечены высшие круга Швеции и один советский перебежчик по фамилии Салашенко. После встречи с ним (я все-таки оставлю интригу для неофитов) и его белокурым двухметровых солдатом Нидерманом, Лисбет чудом выживает и попадает в больницу. Полиции не терпится арестовать ее, но пока по состоянию здоровья она в безопасности.
Здесь перед нами происходит уникальный эксперимент. Черноволосая Немезида предстает в образе раненной лани, зависимой от лечащего врача и друга журналиста Блумквиста. Больше нет Лисбет, к которой мы привыкли, по крайне мере, в первой части фильма. Пирсинг снят, татуировки спрятаны под больничных халатом, а сама девушка медленно и болезненно приходит в себя. Дракон прячется, не так ли…
Вожжи переходят к Микаэлю Блумквисту, получившему львиную долю времени. Эта рокировка в некотором роде стала спасительной для режиссера Даниэля Альфредсона, получившего серьезную порцию критики за провальную «Девушку которая играла с огнем».
В этот раз он приступил к делу более обстоятельно и попытался исправит допущенные ошибки при помощи профессионального писателя Ульфа Рюберга, который сумел упорядочить остро нуждающийся в хорошей редактуре третий роман творческого наследия Стига Ларссона. А Альфредсон так собрал фильм, чтобы помочь зрителю разобраться во всех хитросплетениях, которые нагромоздились вокруг Лисбет Саландер. Вопросы, которые волновали нас, найдут свои ответы. Что случилось с Лисбет в детстве, почему ей пришлось провести два года в психушке, прикованной к кровати, кто стоит за преступным сговором в высших сферах власти?
Кстати, многие отметят символичность шведского названия первого романа Ларссона «Мужчины, которые ненавидят женщин», в третьем фильме противостояние полов достигает пиковой точки напряжении и, наконец, будет дан завершающий штрих к финальному портрету Лисбет. Ее отец, опекун, психиатр — все пытались унизить ее и поддать насилию, неудивительно, что взрослой она выбрала замкнутый образ жизни хакера, доверяя в сексуальной жизни женщинам. Даже своих друзей — журналиста или участливого врача в больнице она избегает.
Пока Лисбет выздоравливает и готовится предстать перед обвинением в убийстве, Микаэл Блумквист доводит свое расследования до конца. Он должен выпустить разоблачающий номер журнала Миллениум, даже не смотря на то, что его сотрудниками и ему самому грозит страшная опасность. У него начинает проявляться характер, он даже способен на определенные чувства, будь это обыкновенный эгоизм или самолюбие.
Уделено больше времени и его коллегам, между ними и Блумквистом возникают какие-никакие отношения, впрочем, и за два с половиной часа этого не хватает чтобы поверить, что в редакции работают живые люди, а не куклы.
Сам фильм движется быстрее, чем предыдущий, прерываясь лишь на аляповато снятые сцены погони или драк, исключении — финальная сцена противостояния Лисбет и Нидермана. Она хороша, как по задумке, так и по исполнению.
Учтя негативный опыт, режиссер несмотря на старания так и не смог привнести в третий фильм эпопеи такое же волшебство, как это сделал его предшественник. Альфредсон просто прилежно скопировал как лучшие, так и худшие моменты книги.
«Девушка, которая взрывала воздушные замки», без сомнения, стоящий внимания детектив, но из сонма ему подобным его выделяет разве что игра Нуми Рапас.
Теперь взор поклонников обращен к Финчеру. Битва за Швецию закончена, впереди битва за Америку, перефразируя слова колдуна из другой известной трилогии. Надеюсь, что Финчер не подведет.... Итог: 7 из 10.
Общее
Уникальный идентификатор : 243640472337252923645212433188331734176 (0xB74B72B8E72DDE21A511591846D844A0)
Полное имя : E:\downloads\Luftslottet.som.sprangdes.2009.720p.BDRip.x264[nnm-club.ru].mkv
Формат : Matroska
Версия формата : Version 2
Размер файла : 2,56 Гбайт
Продолжительность : 2 ч. 26 м.
Общий поток : 2499 Кбит/сек
Название фильма : LeHiH
Дата кодирования : UTC 2012-01-13 14:48:02
Программа кодирования : mkvmerge v5.0.1 ('Es ist Sommer') built on Oct 9 2011 11:55:43
Библиотека кодирования : libebml v1.2.2 + libmatroska v1.3.0

Видео
Идентификатор : 1
Формат : AVC
Формат/Информация : Advanced Video Codec
Профиль формата : [url=mailto:High@L3.1]High@L3.1[/url]
Параметр CABAC формата : Да
Параметр ReFrames формата : 3 кадра
Режим смешивания : Header stripping
Идентификатор кодека : V_MPEG4/ISO/AVC
Продолжительность : 2 ч. 26 м.
Битрейт : 2051 Кбит/сек
Ширина : 1280 пикселей
Высота : 720 пикселей
Соотношение сторон : 16:9
Частота кадров : 24,000 кадра/сек
Цветовое пространство : YUV
Субдискретизация насыщенности : 4:2:0
Битовая глубина : 8 бит
Тип развёртки : Прогрессивная
Бит/(Пиксели*Кадры) : 0.093
Размер потока : 2,05 Гбайт (80%)
Библиотека кодирования : x264 core 120 r2120 0c7dab9
Настройки программы : cabac=1 / ref=2 / deblock=1:0:0 / analyse=0x3:0x113 / me=hex / subme=6 / psy=1 / psy_rd=1.00:0.00 / mixed_ref=1 / me_range=16 / chroma_me=1 / trellis=1 / 8x8dct=1 / cqm=0 / deadzone=21,11 / fast_pskip=1 / chroma_qp_offset=-2 / threads=3 / sliced_threads=0 / nr=0 / decimate=1 / interlaced=0 / bluray_compat=0 / constrained_intra=0 / bframes=3 / b_pyramid=1 / b_adapt=1 / b_bias=0 / direct=1 / weightb=1 / open_gop=0 / weightp=2 / keyint=250 / keyint_min=25 / scenecut=40 / intra_refresh=0 / rc_lookahead=30 / rc=2pass / mbtree=1 / bitrate=2051 / ratetol=1.0 / qcomp=0.60 / qpmin=0 / qpmax=69 / qpstep=4 / cplxblur=20.0 / qblur=0.5 / ip_ratio=1.40 / aq=1:1.00

Аудио
Идентификатор : 2
Формат : AC-3
Формат/Информация : Audio Coding 3
Расширение режима : CM (complete main)
Режим смешивания : Header stripping
Идентификатор кодека : A_AC3
Продолжительность : 2 ч. 26 м.
Вид битрейта : Постоянный
Битрейт : 448 Кбит/сек
Каналы : 6 каналов
Расположение каналов : Front: L C R, Side: L R, LFE
Частота : 48,0 КГц
Битовая глубина : 16 бит
Метод сжатия : С потерями
Задержка видео : 19 мс.
Размер потока : 470 Мбайт (18%)
Язык : Russian

Текст
Идентификатор : 3
Формат : UTF-8
Идентификатор кодека : S_TEXT/UTF8
Идентификатор кодека/Информация : UTF-8 Plain Text
Язык : Russian


Скриншоты:

Правила, инструкции, FAQ!!!
Торрент  Добавлен [04 янв 2013, 17:08] Скачать торрент Магнет ссылка
Скачать торрент
[ Размер 39.45 КБ / Просмотров 38 ]

Статус
Проверен 
 
Размер  7.68 ГБ
Приватный: Нет (DHT включён)
.torrent скачан  4
Как залить торрент? | Как скачать Torrent? | Как смотреть и слушать онлайн?  
Гость
 


  • Похожие торренты
    Ответы
    Просмотры
    Последнее сообщение

Вернуться в Трилогии

Кто сейчас на конференции

Сейчас этот форум просматривают: нет зарегистрированных пользователей и гости: 0