Michael Cretu - Сольная дискография (1979-1985) [FLAC|Lossless]<Pop>


Статистика раздачи
Размер: 1.02 ГБ | Добавлен: 12 янв 2015, 21:16 | Скачали: 33
Сидеров: 152  [0 байт/сек]    Личеров: 267  [0 байт/сек]

Сообщение Гость » 12 янв 2015, 21:16

Michael Cretu - Сольная дискография (1979-1985)

Год: 1979-1985
Жанр: Pop
Продолжительность: 2:58:06

Кодек: FLAC
Биография (С википедии): Михай Крецу родился в Бухаресте. Его отец был инженером, мать — экономистом. С 1965 по 1968 год обучался в музыкальном лицее № 2 родного города по классу фортепиано. В 1968 году он переехал в Париж, где жил и учился много лет. Там же его румынские имя и фамилия офранцузились и приняли настоящий вид. С 1975 по 1978 год Мишель обучался во Франкфуртской Академии Музыки (ФРГ) которую закончил с отличием. Там он начал серьёзно работать в сфере популярной музыки, помогая в качестве клавишника некоторым исполнителям.

В 1980-е годы Крету стал автором песен и продюсером для других исполнителей. Так, он стал сопродюсером альбома 1987 года Майка Олдфилда, «Islands», приняв участие в записи песни «The Time Has Come».

Во время работы клавишником с известной группой Arabesque он встретился со своей будущей женой — Сандрой, которая была участницей этого коллектива и известной певицей. Они поженились 7 января 1988 года и вскоре после этого поселились на острове Ибица (Испания), где Крету живёт до сих пор. У них двое детей — близнецы Никита и Себастьян, родившиеся в 1995 году. Крету приобретает два дома: старый фермерский дом, перестроенный им в виллу, где он живет и работает, открыв собственную студию звукозаписи (A.R.T. Studios), и дом в центре города Ибица — исторический памятник XVIII столетия. В этом доме Крету открыл ресторан, куда часто приглашает различных музыкантов и исполнителей. Мишель практически не покидает остров, разве что для уплаты налогов и съемок видеоклипов.

В 1990 году увидел свет наиболее популярный до настоящего времени альбом Мишеля Крету MCMXC a.D., выпущенный в рамках проекта Enigma. Тремя годами позже он создал две композиции для саундтрэка голливудского фильма «Щепка» (Sliver).

В 2007 году Крету и Сандра официально развелись, хотя очевидно, что разрыв наступил раньше — Сандра не принимала участия в работе над альбомом Enigma «A Posteriori» 2006 года. Их музыкальное сотрудничество фактически прекратилось. Власти острова Ибица выиграли судебный процесс против Крету, обвинив его в нарушении правил застройки. В 2009 году его вилла по решению суда была подвергнута разрушению. Работа A.R.T. Studios прекращена.

Трек лист:
#77701. '57 (The Year I Was Born) (04:34)
02. Fire and Rain (04:18)
03. Wild River (04:39)
04. Shadows Over My Head (03:58)
05. Love Me (04:03)
06. Moonlight Flower (03:44)
07. Sparks Of Imagination (05:08)
08. Streets Of Time (03:57)
09. Song For Unknown Heroes (06:31)
Код:
Код: Выделить всё
Exact Audio Copy V0.99 prebeta 3 from 28. July 2007

EAC extraction logfile from 12. May 2008, 19:45

Michael Cretu / Wild River

Used drive  : TSSTcorpCDDVDW SH-S203B   Adapter: 4  ID: 0

Read mode               : Secure
Utilize accurate stream : Yes
Defeat audio cache      : Yes
Make use of C2 pointers : No

Read offset correction                      : 6
Overread into Lead-In and Lead-Out          : No
Fill up missing offset samples with silence : Yes
Delete leading and trailing silent blocks   : No
Null samples used in CRC calculations       : Yes
Used interface                              : Native Win32 interface for Win NT & 2000

Used output format : Internal WAV Routines
Sample format      : 44.100 Hz; 16 Bit; Stereo

TOC of the extracted CD

     Track |   Start  |  Length  | Start sector | End sector
    ---------------------------------------------------------
        1  |  0:00.00 |  4:34.09 |         0    |    20558
        2  |  4:34.09 |  4:18.52 |     20559    |    39960
        3  |  8:52.61 |  4:39.02 |     39961    |    60887
        4  | 13:31.63 |  3:58.10 |     60888    |    78747
        5  | 17:29.73 |  4:03.49 |     78748    |    97021
        6  | 21:33.47 |  3:44.45 |     97022    |   113866
        7  | 25:18.17 |  5:08.74 |    113867    |   137040
        8  | 30:27.16 |  3:57.65 |    137041    |   154880
        9  | 34:25.06 |  6:31.12 |    154881    |   184217

Range status and errors

Selected range

     Filename E:\01 Audio\CD IMAGES\Michael Cretu - Wild River 1979\Michael Cretu - Wild River.wav

     Peak level 96.9 %
     Range quality 99.9 %
     Copy CRC DBC98FAE
     Copy OK

No errors occurred

AccurateRip summary

Track  1  not present in database
Track  2  not present in database
Track  3  not present in database
Track  4  not present in database
Track  5  not present in database
Track  6  not present in database
Track  7  not present in database
Track  8  not present in database
Track  9  not present in database

None of the tracks are present in the AccurateRip database

End of status report
Код:
Код: Выделить всё
AUDIOCHECKER v2.0 beta (build 457) - by Dester -
~~~~~~~~~~~~~~~~~~~~~~~~~~~~~~~~~~

Начато: воскресенье, 23. 08. 2009. - 14:32.26
Найдено файлов: 9

1 -===- J:\var\music\Michael Cretu - Solo Albums (Discography)\Michael Cretu - 1979 – Moon, Light & Flowers\Michael Cretu 1979  Wild River 01. '57 (The Year I Was Born).flac
  Извлечение успешно выполнено
  Заключение: этот трек - CDDA с вероятностью 100%
  Временный файл удалён.

2 -===- J:\var\music\Michael Cretu - Solo Albums (Discography)\Michael Cretu - 1979 – Moon, Light & Flowers\Michael Cretu 1979  Wild River 02. Fire and Rain.flac
  Извлечение успешно выполнено
  Заключение: этот трек - CDDA с вероятностью 100%
  Временный файл удалён.

3 -===- J:\var\music\Michael Cretu - Solo Albums (Discography)\Michael Cretu - 1979 – Moon, Light & Flowers\Michael Cretu 1979  Wild River 03. Wild River.flac
  Извлечение успешно выполнено
  Заключение: этот трек - CDDA с вероятностью 100%
  Временный файл удалён.

4 -===- J:\var\music\Michael Cretu - Solo Albums (Discography)\Michael Cretu - 1979 – Moon, Light & Flowers\Michael Cretu 1979  Wild River 04. Shadows Over My Head.flac
  Извлечение успешно выполнено
  Заключение: этот трек - CDDA с вероятностью 99%
  Временный файл удалён.

5 -===- J:\var\music\Michael Cretu - Solo Albums (Discography)\Michael Cretu - 1979 – Moon, Light & Flowers\Michael Cretu 1979  Wild River 05. Love Me.flac
  Извлечение успешно выполнено
  Заключение: этот трек - CDDA с вероятностью 99%
  Временный файл удалён.

6 -===- J:\var\music\Michael Cretu - Solo Albums (Discography)\Michael Cretu - 1979 – Moon, Light & Flowers\Michael Cretu 1979  Wild River 06. Moonlight Flower.flac
  Извлечение успешно выполнено
  Заключение: этот трек - CDDA с вероятностью 100%
  Временный файл удалён.

7 -===- J:\var\music\Michael Cretu - Solo Albums (Discography)\Michael Cretu - 1979 – Moon, Light & Flowers\Michael Cretu 1979  Wild River 07. Sparks Of Imagination.flac
  Извлечение успешно выполнено
  Заключение: этот трек - CDDA с вероятностью 100%
  Временный файл удалён.

8 -===- J:\var\music\Michael Cretu - Solo Albums (Discography)\Michael Cretu - 1979 – Moon, Light & Flowers\Michael Cretu 1979  Wild River 08. Streets Of Time.flac
  Извлечение успешно выполнено
  Заключение: этот трек - CDDA с вероятностью 100%
  Временный файл удалён.

9 -===- J:\var\music\Michael Cretu - Solo Albums (Discography)\Michael Cretu - 1979 – Moon, Light & Flowers\Michael Cretu 1979  Wild River 09. Song For Unknown Heroes.flac
  Извлечение успешно выполнено
  Заключение: этот трек - CDDA с вероятностью 100%
  Временный файл удалён.

Завершено: воскресенье, 23. 08. 2009. - 14:35.50 (Время операции: 0:03.24)
#77701. Legionдre (01:40)
02. Total Normal (03:55)
03. Spiel auf Zeit (03:53)
04. Frau aus Stein (04:54)
05. Goldene Jahre (03:23)
06. Zeitlose Reise (03:23)
07. Data-Alpha-4 (03:27)
08. Karawanen (03:36)
09. Der Planet der verlorenen Zeit (05:54)
Код:
Код: Выделить всё
Exact Audio Copy V0.99 prebeta 4 from 23. January 2008

Отчёт EAC об извлечении, выполненном 27. апреля 2008, 16:34

Michael Cretu / Legionдre

Дисковод: PLEXTOR DVDR   PX-760A   Adapter: 0  ID: 1

Режим чтения                 : Достоверность
Использование точного потока : Да
Отключение кэша аудио        : Да
Использование указателей C2  : Нет

Коррекция смещения при чтении                     : 30
Способность читать области Lead-in и Lead-out     : Нет
Заполнение пропущенных сэмплов тишиной            : Да
Удаление блоков с тишиной в начале и конце        : Нет
При вычислениях CRC использовались нулевые сэмплы : Да
Интерфейс                                         : Установленный внешний ASPI-интерфейс

Выходной формат          : Пользовательский кодировщик
Выбранный битрейт        : 768 kBit/s
Качество                 : Высокий
Добавление ID3-тэга      : Нет
Утилита сжатия           : C:\Program Files\Exact Audio Copy\FLAC\FLAC.EXE
Дополнительные параметры : -6 -V -T "ARTIST=%a" -T "TITLE=%t" -T "ALBUM=%g" -T "DATE=%y" -T "TRACKNUMBER=%n" -T "GENRE=%m" -T "COMMENT=%e" %s -o %d

TOC извлечённого CD

     Трек |   Старт  | Длительность | Начальный сектор | Конечный сектор
    ---------------------------------------------------------------------
       1  |  0:00.32 |    1:40.58   |          32      |       7589
       2  |  1:41.15 |    3:55.02   |        7590      |      25216
       3  |  5:36.17 |    3:53.25   |       25217      |      42716
       4  |  9:29.42 |    4:54.15   |       42717      |      64781
       5  | 14:23.57 |    3:23.48   |       64782      |      80054
       6  | 17:47.30 |    3:23.30   |       80055      |      95309
       7  | 21:10.60 |    3:27.22   |       95310      |     110856
       8  | 24:38.07 |    3:36.35   |      110857      |     127091
       9  | 28:14.42 |    5:54.28   |      127092      |     153669

Характеристики диапазона извлечения и сообщения об ошибках

Выбранный диапазон

     Имя файла F:\Internet\Torrents G_Simonov\Заливки\Michael Cretu\Legionare\1983 - Legionare\Michael Cretu - Legionдre.wav

     Пиковый уровень 99.0 %
     Качество диапазона 100.0 %
     CRC теста 1B068BC8
     CRC копии 1B068BC8
     Копирование... OK

Ошибок не произошло

Конец отчёта

Код:
Код: Выделить всё
AUDIOCHECKER v2.0 beta (build 457) - by Dester -
~~~~~~~~~~~~~~~~~~~~~~~~~~~~~~~~~~

Начато: воскресенье, 23. 08. 2009. - 15:04.50
Найдено файлов: 9

1 -===- C:\Temp\1\Michael Cretu 1983 Legionare 01. Legionare.flac
  Извлечение успешно выполнено
  Заключение: этот трек - CDDA с вероятностью 100%
  Временный файл удалён.

2 -===- C:\Temp\1\Michael Cretu 1983 Legionare 02. Total Normal.flac
  Извлечение успешно выполнено
  Заключение: этот трек - CDDA с вероятностью 100%
  Временный файл удалён.

3 -===- C:\Temp\1\Michael Cretu 1983 Legionare 03. Spiel auf Zeit.flac
  Извлечение успешно выполнено
  Заключение: этот трек - CDDA с вероятностью 100%
  Временный файл удалён.

4 -===- C:\Temp\1\Michael Cretu 1983 Legionare 04. Frau aus Stein.flac
  Извлечение успешно выполнено
  Заключение: этот трек - CDDA с вероятностью 100%
  Временный файл удалён.

5 -===- C:\Temp\1\Michael Cretu 1983 Legionare 05. Goldene Jahre.flac
  Извлечение успешно выполнено
  Заключение: этот трек - CDDA с вероятностью 99%
  Временный файл удалён.

6 -===- C:\Temp\1\Michael Cretu 1983 Legionare 06. Zeitlose Reise.flac
  Извлечение успешно выполнено
  Заключение: этот трек - CDDA с вероятностью 100%
  Временный файл удалён.

7 -===- C:\Temp\1\Michael Cretu 1983 Legionare 07. Data-Alpha-4.flac
  Извлечение успешно выполнено
  Заключение: этот трек - CDDA с вероятностью 100%
  Временный файл удалён.

8 -===- C:\Temp\1\Michael Cretu 1983 Legionare 08. Karawanen.flac
  Извлечение успешно выполнено
  Заключение: этот трек - CDDA с вероятностью 99%
  Временный файл удалён.

9 -===- C:\Temp\1\Michael Cretu 1983 Legionare 09. Der Planet der verlorenen Zeit.flac
  Извлечение успешно выполнено
  Заключение: этот трек - CDDA с вероятностью 100%
  Временный файл удалён.

Завершено: воскресенье, 23. 08. 2009. - 15:08.08 (Время операции: 0:03.18)

#77701. Legionnaires (01:43)
02. Today, Today (03:55)
03. I Obey (03:54)
04. Am I Alone? (04:53)
05. The Time of Our Lives (03:23)
06. Targets (03:26)
07. Mission Unaccomplished (03:29)
08. Nebulae (03:41)
09. We Look To the Stars (05:50)
Код:
Код: Выделить всё
Exact Audio Copy V0.99 prebeta 3 from 28. July 2007

EAC extraction logfile from 24. April 2008, 7:43

Michael Cretu / Legionnaires

Used drive  : TSSTcorpCDDVDW SH-S203B   Adapter: 4  ID: 0

Read mode               : Secure
Utilize accurate stream : Yes
Defeat audio cache      : Yes
Make use of C2 pointers : No

Read offset correction                      : 6
Overread into Lead-In and Lead-Out          : No
Fill up missing offset samples with silence : Yes
Delete leading and trailing silent blocks   : No
Null samples used in CRC calculations       : Yes
Used interface                              : Native Win32 interface for Win NT & 2000

Used output format : Internal WAV Routines
Sample format      : 44.100 Hz; 16 Bit; Stereo

TOC of the extracted CD

     Track |   Start  |  Length  | Start sector | End sector
    ---------------------------------------------------------
        1  |  0:00.00 |  1:43.72 |         0    |     7796
        2  |  1:43.72 |  3:55.51 |      7797    |    25472
        3  |  5:39.48 |  3:54.23 |     25473    |    43045
        4  |  9:33.71 |  4:53.56 |     43046    |    65076
        5  | 14:27.52 |  3:23.11 |     65077    |    80312
        6  | 17:50.63 |  3:26.39 |     80313    |    95801
        7  | 21:17.27 |  3:29.50 |     95802    |   111526
        8  | 24:47.02 |  3:41.20 |    111527    |   128121
        9  | 28:28.22 |  5:50.25 |    128122    |   154396

Range status and errors

Selected range

     Filename E:\01 Audio\CD IMAGES\Michael Cretu - Legionnaires 1983\Michael Cretu - Legionnaires.wav

     Peak level 84.9 %
     Range quality 99.9 %
     Copy CRC D6F06203
     Copy OK

No errors occurred

AccurateRip summary

Track  1  not present in database
Track  2  not present in database
Track  3  not present in database
Track  4  not present in database
Track  5  not present in database
Track  6  not present in database
Track  7  not present in database
Track  8  not present in database
Track  9  not present in database

None of the tracks are present in the AccurateRip database

End of status report

Код:
Код: Выделить всё
AUDIOCHECKER v2.0 beta (build 457) - by Dester -
~~~~~~~~~~~~~~~~~~~~~~~~~~~~~~~~~~

Начато: воскресенье, 23. 08. 2009. - 15:13.41
Найдено файлов: 9

1 -===- C:\Temp\1\Michael Cretu 1983 Legionnaires 01. Legionnaires.flac
  Извлечение успешно выполнено
  Заключение: этот трек - CDDA с вероятностью 100%
  Временный файл удалён.

2 -===- C:\Temp\1\Michael Cretu 1983 Legionnaires 02. Today, Today.flac
  Извлечение успешно выполнено
  Заключение: этот трек - CDDA с вероятностью 100%
  Временный файл удалён.

3 -===- C:\Temp\1\Michael Cretu 1983 Legionnaires 03. I Obey.flac
  Извлечение успешно выполнено
  Заключение: этот трек - CDDA с вероятностью 100%
  Временный файл удалён.

4 -===- C:\Temp\1\Michael Cretu 1983 Legionnaires 04. Am I Alone_.flac
  Извлечение успешно выполнено
  Заключение: этот трек - CDDA с вероятностью 100%
  Временный файл удалён.

5 -===- C:\Temp\1\Michael Cretu 1983 Legionnaires 05. The Time of Our Lives.flac
  Извлечение успешно выполнено
  Заключение: этот трек - CDDA с вероятностью 99%
  Временный файл удалён.

6 -===- C:\Temp\1\Michael Cretu 1983 Legionnaires 06. Targets.flac
  Извлечение успешно выполнено
  Заключение: этот трек - CDDA с вероятностью 100%
  Временный файл удалён.

7 -===- C:\Temp\1\Michael Cretu 1983 Legionnaires 07. Mission Unaccomplished.flac
  Извлечение успешно выполнено
  Заключение: этот трек - CDDA с вероятностью 100%
  Временный файл удалён.

8 -===- C:\Temp\1\Michael Cretu 1983 Legionnaires 08. Nebulae.flac
  Извлечение успешно выполнено
  Заключение: этот трек - CDDA с вероятностью 100%
  Временный файл удалён.

9 -===- C:\Temp\1\Michael Cretu 1983 Legionnaires 09. We Look To the Stars.flac
  Извлечение успешно выполнено
  Заключение: этот трек - CDDA с вероятностью 99%
  Временный файл удалён.

Завершено: воскресенье, 23. 08. 2009. - 15:16.57 (Время операции: 0:03.16)

#77701. Intro (02:28)
02. Mikado (03:17)
03. Coda (00:59)
04. Amazonen (05:20)
05. Die Chinesische Mauer (05:03)
06. Samurai (05:27)
07. Carte Blanche (03:57)
08. Schwarzer Engel (05:19)
09. Zinnsoldat (03:23)
Код:
Код: Выделить всё
Exact Audio Copy V0.99 prebeta 4 from 23. January 2008

Отчёт EAC об извлечении, выполненном 18. октября 2008, 17:58

Michael Cretu / Die Chinesische Mauer

Дисковод: TEAC    CD-W552G   Adapter: 1  ID: 0

Режим чтения                 : Достоверность
Использование точного потока : Да
Отключение кэша аудио        : Да
Использование указателей C2  : Нет

Коррекция смещения при чтении                     : 6
Способность читать области Lead-in и Lead-out     : Нет
Заполнение пропущенных сэмплов тишиной            : Да
Удаление блоков с тишиной в начале и конце        : Нет
При вычислениях CRC использовались нулевые сэмплы : Да
Интерфейс                                         : Установленный внешний ASPI-интерфейс

Выходной формат : Внутренние WAV-операции
Формат сэмплов  : 44.100 Гц; 16 бит; стерео

TOC извлечённого CD

     Трек |   Старт  | Длительность | Начальный сектор | Конечный сектор
    ---------------------------------------------------------------------
       1  |  0:00.32 |    2:28.35   |          32      |      11166
       2  |  2:28.67 |    3:17.23   |       11167      |      25964
       3  |  5:46.15 |    0:59.27   |       25965      |      30416
       4  |  6:45.42 |    5:20.45   |       30417      |      54461
       5  | 12:06.12 |    5:03.20   |       54462      |      77206
       6  | 17:09.32 |    5:27.25   |       77207      |     101756
       7  | 22:36.57 |    3:57.58   |      101757      |     119589
       8  | 26:34.40 |    5:19.27   |      119590      |     143541
       9  | 31:53.67 |    3:23.40   |      143542      |     158806

Характеристики диапазона извлечения и сообщения об ошибках

Выбранный диапазон

     Имя файла C:\Documents and Settings\PC-STUDIO\Рабочий стол\Cretu\Michael Cretu - Die Chinesische Mauer.wav

     Пиковый уровень 72.3 %
     Качество диапазона 100.0 %
     CRC теста C608E7F8
     CRC копии C608E7F8
     Копирование... OK

Ошибок не произошло

AccurateRip: сводка

Трек  1  точное извлечение (доверие 1)  [0898D9F8]
Трек  2  точное извлечение (доверие 1)  [5BFF4038]
Трек  3  точное извлечение (доверие 1)  [F80621F5]
Трек  4  точное извлечение (доверие 1)  [E811F684]
Трек  5  точное извлечение (доверие 1)  [9DA7F01D]
Трек  6  точное извлечение (доверие 1)  [96A7D58A]
Трек  7  точное извлечение (доверие 1)  [89313CF2]
Трек  8  точное извлечение (доверие 1)  [06C06612]
Трек  9  точное извлечение (доверие 1)  [165C6282]

Все треки извлечены точно

Конец отчёта

Код:
Код: Выделить всё
AUDIOCHECKER v2.0 beta (build 457) - by Dester -
~~~~~~~~~~~~~~~~~~~~~~~~~~~~~~~~~~

Начато: воскресенье, 23. 08. 2009. - 15:24.06
Найдено файлов: 9

1 -===- C:\Temp\1\Michael Cretu 1985 Die Chinesische Mauer 01. Intro.flac
  Извлечение успешно выполнено
  Заключение: этот трек - CDDA с вероятностью 99%
  Временный файл удалён.

2 -===- C:\Temp\1\Michael Cretu 1985 Die Chinesische Mauer 02. Mikado.flac
  Извлечение успешно выполнено
  Заключение: этот трек - CDDA с вероятностью 100%
  Временный файл удалён.

3 -===- C:\Temp\1\Michael Cretu 1985 Die Chinesische Mauer 03. Coda.flac
  Извлечение успешно выполнено
  Заключение: этот трек - CDDA с вероятностью 100%
  Временный файл удалён.

4 -===- C:\Temp\1\Michael Cretu 1985 Die Chinesische Mauer 04. Amazonen.flac
  Извлечение успешно выполнено
  Заключение: этот трек - CDDA с вероятностью 100%
  Временный файл удалён.

5 -===- C:\Temp\1\Michael Cretu 1985 Die Chinesische Mauer 05. Die Chinesische Mauer.flac
  Извлечение успешно выполнено
  Заключение: этот трек - CDDA с вероятностью 100%
  Временный файл удалён.

6 -===- C:\Temp\1\Michael Cretu 1985 Die Chinesische Mauer 06. Samurai.flac
  Извлечение успешно выполнено
  Заключение: этот трек - CDDA с вероятностью 100%
  Временный файл удалён.

7 -===- C:\Temp\1\Michael Cretu 1985 Die Chinesische Mauer 07. Carte Blanche.flac
  Извлечение успешно выполнено
  Заключение: этот трек - CDDA с вероятностью 100%
  Временный файл удалён.

8 -===- C:\Temp\1\Michael Cretu 1985 Die Chinesische Mauer 08. Schwarzer Engel.flac
  Извлечение успешно выполнено
  Заключение: этот трек - MPEG с вероятностью 95%
  Временный файл удалён.

9 -===- C:\Temp\1\Michael Cretu 1985 Die Chinesische Mauer 09. Zinnsoldat.flac
  Извлечение успешно выполнено
  Заключение: этот трек - CDDA с вероятностью 100%
  Временный файл удалён.

Завершено: воскресенье, 23. 08. 2009. - 15:27.21 (Время операции: 0:03.14)

#77701. Samurai (05:13)
02. Carte Blanche (03:24)
03. Silver Water (04:42)
04. Your Favorite Toy (03:26)
05. Intro (02:27)
06. Mikado (03:14)
07. Coda (00:59)
08. Heavy Traffic (04:57)
09. The Invisible Man (05:01)
Код:
Код: Выделить всё
EAC extraction logfile from 14. August 2007, 23:09 for CD
Michael Cretu / The Invisible Man
Used drive : PLEXTOR CD-ROM PX-40TS Adapter: 2 ID: 3
Read mode : Secure with C2, accurate stream, disable cache
Read offset correction : 676
Overread into Lead-In and Lead-Out : No
Used output format : Internal WAV Routines
44.100 Hz; 16 Bit; Stereo
Other options :
Fill up missing offset samples with silence : Yes
Delete leading and trailing silent blocks : No
Installed external ASPI interface
Range status and errors
Selected range
Filename I:\Torrents\MC\85\Michael Cretu - The Invisible Man.wav
Peak level 97.1 %
Range quality 99.9 %
CRC 1EC82F4F
Copy OK
No errors occured
End of status report
Код:
Код: Выделить всё
AUDIOCHECKER v2.0 beta (build 457) - by Dester -
~~~~~~~~~~~~~~~~~~~~~~~~~~~~~~~~~~

Начато: воскресенье, 23. 08. 2009. - 15:47.20
Найдено файлов: 9

1 -===- C:\Temp\1\Michael Cretu 1985 The Invisible Man 01. Samurai.flac
  Извлечение успешно выполнено
  Заключение: этот трек - CDDA с вероятностью 100%
  Временный файл удалён.

2 -===- C:\Temp\1\Michael Cretu 1985 The Invisible Man 02. Carte Blanche.flac
  Извлечение успешно выполнено
  Заключение: этот трек - CDDA с вероятностью 100%
  Временный файл удалён.

3 -===- C:\Temp\1\Michael Cretu 1985 The Invisible Man 03. Silver Water.flac
  Извлечение успешно выполнено
  Заключение: этот трек - CDDA с вероятностью 100%
  Временный файл удалён.

4 -===- C:\Temp\1\Michael Cretu 1985 The Invisible Man 04. Your Favorite Toy.flac
  Извлечение успешно выполнено
  Заключение: этот трек - CDDA с вероятностью 100%
  Временный файл удалён.

5 -===- C:\Temp\1\Michael Cretu 1985 The Invisible Man 05. Intro.flac
  Извлечение успешно выполнено
  Заключение: этот трек - CDDA с вероятностью 100%
  Временный файл удалён.

6 -===- C:\Temp\1\Michael Cretu 1985 The Invisible Man 06. Mikado.flac
  Извлечение успешно выполнено
  Заключение: этот трек - CDDA с вероятностью 100%
  Временный файл удалён.

7 -===- C:\Temp\1\Michael Cretu 1985 The Invisible Man 07. Coda.flac
  Извлечение успешно выполнено
  Заключение: этот трек - CDDA с вероятностью 100%
  Временный файл удалён.

8 -===- C:\Temp\1\Michael Cretu 1985 The Invisible Man 08. Heavy Traffic.flac
  Извлечение успешно выполнено
  Заключение: этот трек - CDDA с вероятностью 100%
  Временный файл удалён.

9 -===- C:\Temp\1\Michael Cretu 1985 The Invisible Man 09. The Invisible Man.flac
  Извлечение успешно выполнено
  Заключение: этот трек - CDDA с вероятностью 100%
  Временный файл удалён.

Завершено: воскресенье, 23. 08. 2009. - 15:50.17 (Время операции: 0:02.57)

Время раздачи: 24/7 (до первых 5 сидов или аплоадера на раздаче)
Правила, инструкции, FAQ!!!
Торрент  Добавлен [12 янв 2015, 21:16] Скачать торрент Магнет ссылка
Скачать торрент
21.57 КБ

Статус
Проверен 
 
Размер  1.02 ГБ
Приватный: Нет (DHT включён)
.torrent скачан  33
Как залить торрент? | Как скачать Torrent? | Как смотреть и слушать онлайн?  
Гость
 



Вернуться в Дискографии (Зарубежные)

Кто сейчас на конференции

Сейчас этот форум просматривают: нет зарегистрированных пользователей и гости: 0