Мегамозг 3Д / Megamind 3D (Том МакГрат / Tom McGrath) [2010, мультфильм, фантастика, боевик, комедия, семейный, BDrip 1080p] Anaglyph / Анаглиф


Статистика раздачи
Размер: 6.27 ГБ | Добавлен: 02 ноя 2014, 09:51 | Скачали: 1
Сидеров: 7  [0 байт/сек]    Личеров: 2  [0 байт/сек]

Сообщение Гость » 02 ноя 2014, 09:51

Мегамозг 3Д / Megamind 3D
Страна: США
Слоган: «It's big for a reason.»
Жанр: мультфильм, фантастика, боевик, комедия, семейный
Год выпуска: 2010
Продолжительность: 01:35:58
Перевод: Профессиональный (дублированный)
Русские субтитры: нет

Режиссер: Том МакГрат / Tom McGrath
В ролях: Уилл Феррелл, Брэд Питт, Тина Фей, Джона Хилл, Дэвид Кросс, Джастин Теру, Бен Стиллер, Джессика Шульте, Том МакГрат, Эмили Нордвинд

Описание: Мегамозг — самый гениальный и самый неудачливый злодей в мире. Вот уже много лет он пытается покорить Метро-Сити самыми разнообразными способами. Но каждая такая попытка кончается провалом по вине супергероя по имени Метро-Мэн. Но злодей убивает супергероя, и внезапно Мегамозг лишается цели в жизни. Суперзлодей без супергероя. Единственный выход — создать нового супергероя, которого он называет Титаном. Но Титан решает, что быть злодеем куда интереснее. Вот только ему не хочется править миром, он желает его уничтожить. Мегамозгу предстоит непростой выбор. Сможет ли злой гений стать героем — спасителем человечества.

бюджет $130 000 000
сборы в США $148 415 853
сборы в мире + $171 096 062 = $319 511 915
сборы в России $22 116 204

Качество: BDrip
Формат: MKV
Формат 3D: Anaglyph / Анаглиф red'cyan
Видео кодек: x264
Аудио кодек: DTS, AC3
Видео: MPEG4 Video (H264) 1920x816p 23.98fps 7063 Kbps
Аудио1: Russian Dolby AC3 48000Hz 6ch 640 Kbps
Аудио2: English DTS 48000Hz 6ch 1510 Kbps
Format : Matroska
File size : 6.27 GiB
Duration : 1h 35mn
Overall bit rate : 9 400 Kbps
Encoded date : UTC 2011-04-24 06:15:03
Writing application : mkvmerge v2.9.7 ('Tenderness') built on Jul 1 2009 18:43:35
Writing library : libebml v0.7.7 + libmatroska v0.8.1

Video
ID : 1
Format : AVC
Format/Info : Advanced Video Codec
Format profile : High@L4.0
Format settings, CABAC : Yes
Format settings, ReFrames : 4 frames
Muxing mode : Container profile=Unknown@4.0
Codec ID : V_MPEG4/ISO/AVC
Duration : 1h 35mn
Bit rate : 7 063 Kbps
Width : 1 920 pixels
Height : 816 pixels
Display aspect ratio : 2.35:1
Frame rate : 23.976 fps
Color space : YUV
Chroma subsampling : 4:2:0
Bit depth : 8 bits
Scan type : Progressive
Bits/(Pixel*Frame) : 0.188
Stream size : 4.71 GiB (75%)
Writing library : x264 core 114 r1924 08d04a4
Encoding settings : cabac=1 / ref=4 / deblock=1:-3:-2 / analyse=0x3:0x113 / me=umh / subme=7 / psy=1 / psy_rd=1.00:0.15 / mixed_ref=1 / me_range=16 / chroma_me=1 / trellis=2 / 8x8dct=1 / cqm=0 / deadzone=21,11 / fast_pskip=1 / chroma_qp_offset=-3 / threads=6 / sliced_threads=0 / nr=0 / decimate=1 / interlaced=0 / constrained_intra=0 / bframes=6 / b_pyramid=0 / b_adapt=2 / b_bias=0 / direct=3 / weightb=1 / open_gop=0 / weightp=2 / keyint=250 / keyint_min=23 / scenecut=40 / intra_refresh=0 / rc_lookahead=40 / rc=crf / mbtree=1 / crf=18.0 / qcomp=0.60 / qpmin=10 / qpmax=51 / qpstep=4 / ip_ratio=1.40 / aq=1:1.00
Language : English

Audio #1
ID : 2
Format : AC-3
Format/Info : Audio Coding 3
Mode extension : CM (complete main)
Codec ID : A_AC3
Duration : 1h 35mn
Bit rate mode : Constant
Bit rate : 640 Kbps
Channel(s) : 6 channels
Channel positions : Front: L C R, Side: L R, LFE
Sampling rate : 48.0 KHz
Bit depth : 16 bits
Stream size : 437 MiB (7%)
Language : Russian

Audio #2
ID : 3
Format : DTS
Format/Info : Digital Theater Systems
Codec ID : A_DTS
Duration : 1h 35mn
Bit rate mode : Constant
Bit rate : 1 510 Kbps
Channel(s) : 6 channels
Channel positions : Front: L C R, Side: L R, LFE
Sampling rate : 48.0 KHz
Bit depth : 24 bits
Stream size : 1.01 GiB (16%)
Language : English
Правила, инструкции, FAQ!!!
Торрент  Добавлен [02 ноя 2014, 09:51] Скачать торрент Магнет ссылка
Скачать торрент
31.87 КБ

Статус
Проверен 
 
Размер  6.27 ГБ
Приватный: Нет (DHT включён)
.torrent скачан  1
Как залить торрент? | Как скачать Torrent? | Как смотреть и слушать онлайн?  
Гость
 



Вернуться в HD-Video в 3D

Кто сейчас на конференции

Сейчас этот форум просматривают: нет зарегистрированных пользователей и гости: 0