[TR24][OF] M‡яc▲ll▲ & V▲LH▲LL - Għøsŧs of Λnŧįquįŧұ Remixed - 2012 (EBM, Darkwave, Industrial, Experimental, Witch House)

Статистика раздачи
Размер: 969.67 МБ | Добавлен: 05 дек 2018, 19:23 | Скачали: 0
Сидеров: 6  [0 байт/сек]    Личеров: 2  [0 байт/сек]

Сообщение Гость » 05 дек 2018, 19:23

M‡яc▲ll▲ & V▲LH▲LL / Għøsŧs of Λnŧįquįŧұ Remixed
Формат записи/Источник записи: [TR24][OF]
Наличие водяных знаков: Нет
Год издания/переиздания диска: 2012
Жанр: EBM, Darkwave, Industrial, Experimental, Witch House
Издатель (лейбл): Not On Label (V▲LH▲LL Self-released)
Продолжительность: 01:21:02
Наличие сканов в содержимом раздачи: Буклет PDF
Треклист:
[01] M‡яc▲ll▲ - Şpєcŧr▲l [HELLO, MIRCALLA mix by BLVCK CEILING]
[02] M‡яc▲ll▲ - Şpєcįєs oғ Gяoєsqưєrұ [Midn▲ttssol mix by V▲LH▲LL]
[03] M‡яc▲ll▲ - Şpєcŧr▲l [C-Δ-T mix]
[04] M‡яc▲ll▲ - Şpєcįєs oғ Gяoєsqưєrұ [TΛNZ DΛNZΞ mix by SLEEPLESS NIGHTS]
[05] M‡яc▲ll▲ - I'm Şŧill Ħєrє [ANTONI MAIOVVI mix]
[06] M‡яc▲ll▲ - Şpєcŧr▲l [TOMBZ mix]
[07] M‡яc▲ll▲ + DARKFORCE COMPLEX - Midŋighŧ at tħє Ңoяяor Đisco [M‡яc▲ll▲ vs DARKFORCE COMPLEX]
[08] V▲LH▲LL - R34CH The 5KY [DEATHAUS mix]
[09] V▲LH▲LL - A T4LE On 5TONE [đąŋsє mącąъяє miҳ by M‡яc▲ll▲]
[10] V▲LH▲LL - R34CH The 5KY [∆AIMON mix]
[11] V▲LH▲LL - To the D0ck5... [C-Δ-T mix]
[12] V▲LH▲LL - A T4LE On 5TONE [DSX mix]
[13] V▲LH▲LL - R34CH The 5KY [Machabray mix]
[14] V▲LH▲LL - A T4LE On 5TONE [The .invalid mix]
[15] V▲LH▲LL - R34CH The 5KY [Karl Gründer mix]
[16] V▲LH▲LL - To the D0ck5... [Hollow Tears mix by MAHR]
Контейнер: FLAC (*.flac)
Тип рипа: tracks
Разрядность: 24/44,1
Формат: WAV (flac.ape.wv)
Количество каналов: 2.0
Код: Выделить всё
foobar2000 1.2.5 / Замер динамического диапазона (DR) 1.1.1
Дата отчёта:  2017-11-22 00:48:19
--------------------------------------------------------------------------------
Анализ:   M‡яc▲ll▲ + DARKFORCE COMPLEX / Għøsŧs of Λnŧįquįŧұ Remixed (1)
          M‡яc▲ll▲ / Għøsŧs of Λnŧįquįŧұ Remixed (2-7)
          V▲LH▲LL / Għøsŧs of Λnŧįquįŧұ Remixed (8-16)
--------------------------------------------------------------------------------
DR         Пики         RMS           Продолжительность трека
--------------------------------------------------------------------------------
DR6       -0.04 дБ    -7.18 дБ      4:50 07-Midŋighŧ at tħє Ңoяяor Đisco [M‡яc▲ll▲ vs DARKFORCE COMPLEX]
DR4       -0.04 дБ    -5.31 дБ      4:24 01-Şpєcŧr▲l [HELLO, MIRCALLA mix by BLVCK CEILING]
DR5       -0.04 дБ    -5.60 дБ      5:46 02-Şpєcįєs oғ Gяoєsqưєrұ [Midn▲ttssol mix by V▲LH▲LL]
DR5       -0.05 дБ    -7.48 дБ      4:45 03-Şpєcŧr▲l  [C/Δ/T mix]
DR2       -0.04 дБ    -3.73 дБ      6:51 04-Şpєcįєs oғ Gяoєsqưєrұ [TΛNZ DΛNZΞ mix by SLEEPLESS NIGHTS]
DR7       -0.05 дБ    -8.32 дБ      6:38 05-I'm Şŧill Ħєrє [ANTONI MAIOVVI mix]
DR5       -0.04 дБ    -5.98 дБ      4:48 06-Şpєcŧr▲l [TOMBZ mix]
DR4       -0.04 дБ    -5.32 дБ      4:44 08-R34CH The 5KY [DEATHAUS mix]
DR3       -0.04 дБ    -6.42 дБ      4:20 09-A T4LE On 5TONE [đąŋsє mącąъяє miҳ by M‡яc▲ll▲]
DR3       -0.05 дБ    -5.44 дБ      5:01 10-R34CH The 5KY [∆AIMON mix]
DR3       -0.04 дБ    -4.57 дБ      3:55 11-To the D0ck5... [C/Δ/T mix]
DR9       -0.04 дБ   -10.08 дБ      4:11 12-A T4LE On 5TONE [DSX mix]
DR5       -0.04 дБ    -6.81 дБ      5:31 13-R34CH The 5KY [Machabray mix]
DR6       -0.04 дБ    -8.18 дБ      5:40 14-A T4LE On 5TONE [The .invalid mix]
DR2       -0.04 дБ    -5.05 дБ      3:38 15-R34CH The 5KY [Karl Gründer mix]
DR4       -0.06 дБ    -6.42 дБ      6:02 16-To the D0ck5...  [Hollow Tears mix by MAHR]
--------------------------------------------------------------------------------
Количество треков: 16
Реальные значения DR: DR5
Частота:  44100 Гц
Каналов:  2
Разрядность:   24
Битрейт:  1521 кбит/с
Кодек:   FLAC
================================================================================



Доп. информация: https://musicbrainz.org/release/cf6ee359-9705-478d-ba4d-1268e7d6589c
Источник (релизер): Virus_672
Title of this release is rendered as Għøsŧs of Λnŧįquįŧұ Remixed.
Track titles are listed as:
1. Şpєcŧr▲l (Hello, Mircalla Mix By Blvck Ceiling)
2. Şpєcįєs Oғ Gяoєsqưєrұ (Midn▲ttssol Mix By V▲LH▲LL)
3. Şpєcŧr▲l (C/Δ/T Mix)
4. Şpєcįєs oғ Gяoєsqưєrұ (TΛNZ DΛNZΞ Mix By Sleepless Nights)
5. I'm Şŧill Ħєrє (Antoni Maiovvi Mix)
6. Şpєcŧr▲l (Tombz Mix)
7. Midŋighŧ At Tħє Ңoяяor Đisco (M‡яc▲ll▲ vs Darkforce Complex)
8. R34ch The 5ky (Deathaus Mix)
9. A T4le On 5tone (đąŋsє Mącąъяє Miҳ By M‡яc▲ll▲)
10. R34ch The 5ky (∆AIMON Mix)
11. To The D0ck5... (C/Δ/T Mix)
12. A T4le On 5tone (DSX Mix)
13. R34ch The 5ky (Machabray Mix)
14. A T4le On 5tone (The .invalid Mix)
15. R34ch The 5ky (Karl Gründer Mix)
16. To The D0ck5... (Hollow Tears Mix By Mahr)
Правила, инструкции, FAQ!!!
Торрент  Добавлен [05 дек 2018, 19:23] Скачать торрент Магнет ссылка
Скачать торрент
[ Размер 11.69 КБ / Просмотров 3 ]

Статус
Проверен 
 
Размер  969.67 МБ
Приватный: Нет (DHT включён)
.torrent скачан  0
Как залить торрент? | Как скачать Torrent? | Как смотреть и слушать онлайн?  
Гость
 


  • Похожие торренты
    Ответы
    Просмотры
    Последнее сообщение

Вернуться в Hi-Res stereo (Электронная музыка)

Кто сейчас на конференции

Сейчас этот форум просматривают: нет зарегистрированных пользователей и гости: 0