Лучшее в 3Д / Best of 3D (2012 - 2013) BDRip [1080p] 3D [Вертикальная анаморфная стереопара]


Статистика раздачи
Размер: 35.86 ГБ | Добавлен: 09 янв 2014, 22:26 | Скачали: 2
Сидеров: 77  [0 байт/сек]    Личеров: 7  [0 байт/сек]

Сообщение Гость » 09 янв 2014, 22:26

Лучшее в 3Д / Best of 3D (2012 - 2013) BDRip [1080p]

Режиссер / Телекомпания: Германия, 3D Content Hub
Год выпуска: 2012 - 2013
Жанр: Документальный, спорт, анимация, музыкальный

Описание:
Испытайте почти 360 минут захватывающего стереоскопического 3D, в постановках разных жанров с захватывающими дух эффектами, какие видели только в кино. При просмотре "Лучшее в 3Д" Вы сталкиваетесь с аллигаторами, испытываете быстрые спортивные автомобили, идущие через города, погружаетесь в Коралловые рифы и все в потрясающем 3D окружении. Кроме того, Вы испытаете прилив адреналина при виде экстремальных видов спорта, погружения с акулами в Таиланде, увидите получивший награды анимационный фильм "Маленький Почтальон". "Лучшее в 3Д" был разработан и собран, чтобы включать лучшее международное и сделать стенд на самой высокой доступной платформе. Много стереоскопических 3D-технологий производства 3D-контента, собранные из разных жанров соединились на одном BDRip 3D диске качественного декодинга "Лучшее в 3Д" - это собрание самого удивительного 3D-контента со всего мира. Международное производственное усилие было огромное. Тринадцать независимых съемочных групп и производственные компании создали свое содержание в Южной Африке, Намибии, Таиланде, Австралии, Германии, Швейцарии, США, Великобритании, Италии, Галапагосе, Индии, Бразилии, Польше, Испании, Украине и Пасхальных Островах. Некоторые фильмы используют передовую технологию, такую как захват на 2000 кадров в секунду (FPS) или в экстремальных условиях, как под водой, или во время прыжков с парашютом. Один из самых пугающих подвигов в 3D производстве, однако, должен, конечно, быть короткими выдержками из 3D Stormsurfers, австралийские серфинговые легенды, которые стремятся поехать на самых больших волнах на планете. Действие маленькой переносной 3D камерой, в то время как серфинговые волны XXX метры высотой, конечно ни с чем не сравнимо. Награжденные призом названия мультипликации от Breakthru Films, студии, которая недавно выиграла Оскара (премия Оскар), также среди основных моментов. Некоторые из других режиссеров внесли музыкальные видео, спортивные состязания действия или документальные фильмы дикой природы. «3D Центр Содержания» был нашим ключевым партнером в создании Королевства Аллигатора, «3D пользующийся спросом независимый 3D документальный фильм во всем мире,” сказал Майкл Уочулонис, Emmy-назначенный Исполнительный продюсер 3DigitalVision. “Мы горды иметь наш фильм на ‘Лучше всего 3D’ BDRip и достигнуть еще более многочисленной аудитории.

Продолжительность: 05:44:00
Качество видео: BDRip [1080p]

Перевод: Не требуется (Музыка)
Субтитры: Отсутствуют

Видеокодек: MPEG-4 AVC/H.264
Битрейт видео: ~5.0 - 22.5 Mbps
Размер кадра: 1920x1080
Аудио: Английский, музыка (AC3, 6 ch, 640 Кбит/с), (AC3, 2 ch, 448 Кбит/с)
1.Diving(ExploreTheWorld)(2012)3D-halfOU(Ash61)
1.SandBoarding(2012)3D-halfOU(Ash61)
1.SkateBoarding(2012)3D-halfOU(Ash61)
2.3DBuilder(2012)3D-halfOU(Ash61)
2.AlligatorKingdom(2012)3D-halfOU(Ash61)Eng
2.EasterIsland(2012)3D-halfOU(Ash61)
2.Venice(2012)3D-halfOU(Ash61)
3.CaseLoveGangs(2012)3D-halfOU(Ash61)
3.LittlePostman(2012)3D-halfOU(Ash61)
3.Scarecrow(2012)3D-halfOU(Ash61)
3-Bonus-DualPhasenStahl(2012)3D-halfOU(Ash61)
3-Bonus-MercedesC63AMG(2012)3D-halfOU(Ash61)Eng
3-Bonus-Rise(2012)3D-halfOU(Ash61)
4.ASelectionOfTheBest3D.ExistingToDate(2012)3D-halfOU(Ash61)
4.CosmicJourney(2012)3D-halfOU(Ash61)Eng
4.DeusExHomine(2012)3D-halfOU(Ash61)
4.Ecodingo(2012)3D-halfOU(Ash61)
4.FireBaloons(2012)3D-halfOU(Ash61)
4.Hooked(2012)3D-halfOU(Ash61)
4.Nuts&Robbers(2012)3D-halfOU(Ash61)
4.TheViewInAmerica(2012)3D-halfOU(Ash61)
6.BladeWalker(2012)3D-halfOU(Ash61)
6.Level3D(2012)3D-halfOU(Ash61)
6.MagicTouch(2012)3D-halfOU(Ash61)
6.Shine(2012)3D-halfOU(Ash61)
6.SwitchCraft(2012)3D-halfOU(Ash61)
6-Bonus-TimeTravellerGuides3D(2012)3D-halfOU(Ash61)
7.HolotronicaSpeedway(2013)3D-halfOU(Ash61)
8.Atmosphere(2013)3D-halfOU(Ash61)
8.Big Mouth(2013)3D-halfOU(Ash61)
8.BlackForest.Railways(2013)3D-halfOU(Ash61)
8.DieWeltDerFalken(2013)3D-halfOU(Ash61)Ger
8.UnterwasserweltKaliforniens(2013)3D-halfOU(Ash61)
9.Aragon(2013)3D-halfOU(Ash61)
9.FlyHighShowTaekwon(2013)3D-halfOU(Ash61)
9.Helsinki(2013)3D-halfOU(Ash61)
9.MarsViews3D(2013)3D-halfOU(Ash61)
9-Bonus-Höllenritte(2013)3D-halfOU(Ash61)
Общее
Уникальный идентификатор : 200313324293111991198130811658256246585 (0x96B2F165466DA7FF911D0D60328FE739)
Полное имя : H:\Best of 3D\1.Diving(ExploreTheWorld)(2012)3D-halfOU(Ash61).mkv
Формат : Matroska
Версия формата : Version 2
Размер файла : 4,89 Гбайт
Продолжительность : 30 м.
Общий поток : 23,3 Мбит/сек
Название фильма : Best of 3D (Vol 1-3). Diving (Explore the World) (2012) 3D
Дата кодирования : UTC 2014-01-06 10:29:49
Программа кодирования : mkvmerge v5.8.0 ('No Sleep / Pillow') built on Sep 2 2012 15:37:04
Библиотека кодирования : libebml v1.2.3 + libmatroska v1.3.0

Видео
Идентификатор : 1
Формат : AVC
Формат/Информация : Advanced Video Codec
Профиль формата :
Параметр CABAC формата : Да
Параметр ReFrames формата : 4 кадра
Идентификатор кодека : V_MPEG4/ISO/AVC
Продолжительность : 30 м.
Битрейт : 22,4 Мбит/сек
Ширина : 1920 пикселей
Высота : 1080 пикселей
Соотношение сторон : 16:9
Режим частоты кадров : Постоянный
Частота кадров : 23,976 кадра/сек
Цветовое пространство : YUV
Субдискретизация насыщенности : 4:2:0
Битовая глубина : 8 бит
Тип развёртки : Прогрессивная
Бит/(Пиксели*Кадры) : 0.450
Размер потока : 4,70 Гбайт (96%)
Заголовок : BDrip by Ash61
Библиотека кодирования : x264 core 119 r2106 07efeb4
Настройки программы : cabac=1 / ref=4 / deblock=1:-1:-1 / analyse=0x3:0x113 / me=umh / subme=9 / psy=1 / psy_rd=1.00:0.15 / mixed_ref=1 / me_range=16 / chroma_me=1 / trellis=2 / 8x8dct=1 / cqm=0 / deadzone=21,11 / fast_pskip=1 / chroma_qp_offset=-3 / threads=3 / sliced_threads=0 / nr=0 / decimate=1 / interlaced=0 / bluray_compat=0 / constrained_intra=0 / bframes=6 / b_pyramid=2 / b_adapt=2 / b_bias=0 / direct=3 / weightb=1 / open_gop=0 / weightp=2 / keyint=250 / keyint_min=23 / scenecut=40 / intra_refresh=0 / rc_lookahead=60 / rc=crf / mbtree=1 / crf=18.0 / qcomp=0.60 / qpmin=10 / qpmax=69 / qpstep=4 / vbv_maxrate=30000 / vbv_bufsize=30000 / crf_max=0.0 / nal_hrd=none / frame-packing=4 / ip_ratio=1.40 / aq=1:0.70
Default : Да
Forced : Нет

Аудио
Идентификатор : 2
Формат : AC-3
Формат/Информация : Audio Coding 3
Расширение режима : CM (complete main)
Параметр Endianness формата : Big
Идентификатор кодека : A_AC3
Продолжительность : 30 м.
Вид битрейта : Постоянный
Битрейт : 448 Кбит/сек
Каналы : 2 канала
Расположение каналов : Front: L R
Частота : 48,0 КГц
Битовая глубина : 16 бит
Метод сжатия : С потерями
Размер потока : 96,2 Мбайт (2%)
Заголовок : Music
Default : Да
Forced : Нет

Общее
Уникальный идентификатор : 209327298371464724233963668997817084591 (0x9D7AF8A14AE29541B317C0728675AAAF)
Полное имя : H:\Best of 3D\8.UnterwasserweltKaliforniens(2013)3D-halfOU(Ash61).mkv
Формат : Matroska
Версия формата : Version 2
Размер файла : 320 Мбайт
Продолжительность : 3 м. 53 с.
Общий поток : 11,5 Мбит/сек
Название фильма : Best of 3D (Vol.7-9) Unterwasserwelt Kaliforniens (2013) 3D
Дата кодирования : UTC 2014-01-06 15:51:49
Программа кодирования : mkvmerge v5.8.0 ('No Sleep / Pillow') built on Sep 2 2012 15:37:04
Библиотека кодирования : libebml v1.2.3 + libmatroska v1.3.0

Видео
Идентификатор : 1
Формат : AVC
Формат/Информация : Advanced Video Codec
Профиль формата :
Параметр CABAC формата : Да
Параметр ReFrames формата : 4 кадра
Идентификатор кодека : V_MPEG4/ISO/AVC
Продолжительность : 3 м. 53 с.
Битрейт : 10,7 Мбит/сек
Ширина : 1920 пикселей
Высота : 1080 пикселей
Соотношение сторон : 16:9
Режим частоты кадров : Постоянный
Частота кадров : 23,976 кадра/сек
Цветовое пространство : YUV
Субдискретизация насыщенности : 4:2:0
Битовая глубина : 8 бит
Тип развёртки : Прогрессивная
Бит/(Пиксели*Кадры) : 0.214
Размер потока : 296 Мбайт (92%)
Заголовок : BDRip by Ash61
Библиотека кодирования : x264 core 129 r2245 bc13772
Настройки программы : cabac=1 / ref=4 / deblock=1:-1:-1 / analyse=0x3:0x113 / me=umh / subme=10 / psy=1 / psy_rd=1.00:0.15 / mixed_ref=1 / me_range=32 / chroma_me=1 / trellis=2 / 8x8dct=1 / cqm=0 / deadzone=21,11 / fast_pskip=1 / chroma_qp_offset=-3 / threads=12 / lookahead_threads=2 / sliced_threads=0 / nr=0 / decimate=1 / interlaced=0 / bluray_compat=0 / constrained_intra=0 / bframes=10 / b_pyramid=2 / b_adapt=2 / b_bias=0 / direct=3 / weightb=1 / open_gop=0 / weightp=2 / keyint=250 / keyint_min=23 / scenecut=40 / intra_refresh=0 / rc_lookahead=60 / rc=crf / mbtree=1 / crf=18.0 / qcomp=0.70 / qpmin=10 / qpmax=69 / qpstep=4 / vbv_maxrate=40000 / vbv_bufsize=30000 / crf_max=0.0 / nal_hrd=none / frame-packing=4 / ip_ratio=1.40 / aq=1:0.70
Default : Да
Forced : Нет

Аудио
Идентификатор : 2
Формат : AC-3
Формат/Информация : Audio Coding 3
Расширение режима : CM (complete main)
Параметр Endianness формата : Big
Идентификатор кодека : A_AC3
Продолжительность : 3 м. 53 с.
Вид битрейта : Постоянный
Битрейт : 640 Кбит/сек
Каналы : 6 каналов
Расположение каналов : Front: L C R, Side: L R, LFE
Частота : 48,0 КГц
Битовая глубина : 16 бит
Метод сжатия : С потерями
Размер потока : 17,8 Мбайт (6%)
Заголовок : Music
Default : Да
Forced : Нет
Скриншоты:

Правила, инструкции, FAQ!!!
Торрент  Добавлен [09 янв 2014, 22:26] Скачать торрент Магнет ссылка
Скачать торрент
93.58 КБ

Статус
Проверен 
 
Размер  35.86 ГБ
Приватный: Нет (DHT включён)
.torrent скачан  2
Как залить торрент? | Как скачать Torrent? | Как смотреть и слушать онлайн?  
Гость
 



Вернуться в HD-Video в 3D

Кто сейчас на конференции

Сейчас этот форум просматривают: нет зарегистрированных пользователей и гости: 5