Lower Than Atlantis - 3 альбома + 1 EP (2008-2012) Дискография [FLAC|Lossless]<Post-Hardcore | Southern Rock>


Статистика раздачи
Размер: 1.16 ГБ | Добавлен: 16 мар 2014, 00:55 | Скачали: 2
Сидеров: 10  [0 байт/сек]    Личеров: 51  [0 байт/сек]

Сообщение Гость » 16 мар 2014, 00:55

Lower Than Atlantis - 3 альбома + 1 EP (2008-2012) Дискография

Год: 2009-2012
Жанр: Post-Hardcore, Southern Rock
Продолжительность: 02:42:15
Тип издания: Дискография
Страна: Великобритания

Кодек: FLAC
Битрейт: Lossless
Источник: what.cd


#777Продолжительность: 00:19:46
Издатель: Thirty Days Of Night Records
Треклист:
01. March of the LTA (00:58)
02. Frankie Goes to Hemel (02:56)
03. The Juggernaut (03:14)
04. Sleeping in the Bath (03:11)
05. Bretton (02:40)
06. I Hate Comic Sans (00:24)
07. What a Beautiful Day to Impersonate an Officer (02:56)
08. Vampires Suck, Blood (03:25)
Код:
Код: Выделить всё
Exact Audio Copy V1.0 beta 2 from 29. April 2011

EAC extraction logfile from 19. September 2012, 18:11

Lower Than Atlantis / Bretton

Used drive  : hp      DVDRAM GT20L   Adapter: 1  ID: 0

Read mode               : Secure
Utilize accurate stream : Yes
Defeat audio cache      : Yes
Make use of C2 pointers : No

Read offset correction                      : 667
Overread into Lead-In and Lead-Out          : No
Fill up missing offset samples with silence : Yes
Delete leading and trailing silent blocks   : No
Null samples used in CRC calculations       : Yes
Used interface                              : Native Win32 interface for Win NT & 2000
Gap handling                                : Appended to previous track

Used output format              : User Defined Encoder
Selected bitrate                : 1024 kBit/s
Quality                         : High
Add ID3 tag                     : No
Command line compressor         : C:\Program Files (x86)\Exact Audio Copy\Flac\flac.exe
Additional command line options : -8 -V -T "ARTIST=%artist%" -T "TITLE=%title%" -T "ALBUM=%albumtitle%" -T "DATE=%year%" -T "TRACKNUMBER=%tracknr%" -T "GENRE=%genre%" -T "PERFORMER=%albuminterpret%" -T "COMPOSER=%composer%" %haslyrics%--tag-from-file=LYRICS

TOC of the extracted CD

     Track |   Start  |  Length  | Start sector | End sector
    ---------------------------------------------------------
        1  |  0:00.00 |  0:58.00 |         0    |     4349
        2  |  0:58.00 |  2:56.50 |      4350    |    17599
        3  |  3:54.50 |  3:14.50 |     17600    |    32199
        4  |  7:09.25 |  3:11.04 |     32200    |    46528
        5  | 10:20.29 |  2:40.50 |     46529    |    58578
        6  | 13:01.04 |  0:24.07 |     58579    |    60385
        7  | 13:25.11 |  2:56.00 |     60386    |    73585
        8  | 16:21.11 |  3:25.50 |     73586    |    89010

Track  1

     Filename C:\Users\Tom\Desktop\EAC\01 March Of The LTA.wav

     Pre-gap length  0:00:02.00

     Peak level 100.0 %
     Extraction speed 0.8 X
     Track quality 100.0 %
     Test CRC 2732048A
     Copy CRC 2732048A
     Track not present in AccurateRip database
     Copy OK

Track  2

     Filename C:\Users\Tom\Desktop\EAC\02 Frankie Goes To Hemel.wav

     Peak level 100.0 %
     Extraction speed 1.2 X
     Track quality 100.0 %
     Test CRC 4008883B
     Copy CRC 4008883B
     Track not present in AccurateRip database
     Copy OK

Track  3

     Filename C:\Users\Tom\Desktop\EAC\03 The Juggernaut.wav

     Peak level 100.0 %
     Extraction speed 1.3 X
     Track quality 100.0 %
     Test CRC 04A23274
     Copy CRC 04A23274
     Track not present in AccurateRip database
     Copy OK

Track  4

     Filename C:\Users\Tom\Desktop\EAC\04 Sleeping In The Bath.wav

     Pre-gap length  0:00:01.86

     Peak level 100.0 %
     Extraction speed 1.4 X
     Track quality 100.0 %
     Test CRC C25BECED
     Copy CRC C25BECED
     Track not present in AccurateRip database
     Copy OK

Track  5

     Filename C:\Users\Tom\Desktop\EAC\05 Bretton.wav

     Peak level 100.0 %
     Extraction speed 1.2 X
     Track quality 99.9 %
     Test CRC E0DF0BAE
     Copy CRC E0DF0BAE
     Track not present in AccurateRip database
     Copy OK

Track  6

     Filename C:\Users\Tom\Desktop\EAC\06 I Hate Comic Sans.wav

     Pre-gap length  0:00:01.88

     Peak level 100.0 %
     Extraction speed 0.6 X
     Track quality 100.0 %
     Test CRC E392E6EB
     Copy CRC E392E6EB
     Track not present in AccurateRip database
     Copy OK

Track  7

     Filename C:\Users\Tom\Desktop\EAC\07 What A Beautiful Day To Impersonate An Officer.wav

     Pre-gap length  0:00:01.82

     Peak level 100.0 %
     Extraction speed 1.5 X
     Track quality 100.0 %
     Test CRC 26FBAAD7
     Copy CRC 26FBAAD7
     Track not present in AccurateRip database
     Copy OK

Track  8

     Filename C:\Users\Tom\Desktop\EAC\08 Vampires Suck, Blood.wav

     Peak level 100.0 %
     Extraction speed 1.7 X
     Track quality 100.0 %
     Test CRC 186691B8
     Copy CRC 186691B8
     Track not present in AccurateRip database
     Copy OK

None of the tracks are present in the AccurateRip database

No errors occurred

End of status report

==== Log checksum 6A5E752C3C6F68020D171AFE622FEAAECD848948405E198D247D54CD95B2DBE8 ====
Код:
Код: Выделить всё
-----------------------

DON'T MODIFY THIS FILE

-----------------------

PERFORMER: auCDtect Task Manager, ver. 1.6.0 RC1 build 1.6.0.1
Copyright (c) 2008-2010 y-soft. All rights reserved
http:/y-soft.org

ANALYZER: auCDtect: CD records authenticity detector, version 0.8.2
Copyright (c) 2004 Oleg Berngardt. All rights reserved.
Copyright (c) 2004 Alexander Djourik. All rights reserved.

FILE: 08 Vampires Suck, Blood.flac
  Size: 29797699 Hash: D823BC9236C80D05B752E922298267F3 Accuracy: -m0
  Conclusion: CDDA 100%
  Signature: 1C49390D4D080044999586A77494F4A256F14378
FILE: 07 What A Beautiful Day To Impersonate An Officer.flac
  Size: 25190874 Hash: 454B59E061C3EF5B729ABAF1BD8EABC3 Accuracy: -m0
  Conclusion: CDDA 100%
  Signature: CA729FED8995679B4A65E09AC2C2719C7BC67998
FILE: 06 I Hate Comic Sans.flac
  Size: 3269639 Hash: C6B8BE31003E6A5860D2EB82DCFBAD4B Accuracy: -m0
  Conclusion: CDDA 100%
  Signature: 56FE722F0711AD5C8C39C54F2BF9A139B9F8C7FE
FILE: 05 Bretton.flac
  Size: 21692759 Hash: 5455F010F058217E19E3A5B69B6AA28E Accuracy: -m0
  Conclusion: CDDA 100%
  Signature: 73D6129C8297148554AE09B1F520A2149063A7FD
FILE: 04 Sleeping In The Bath.flac
  Size: 27144684 Hash: 6B0B7E2BF067500554CD2222DEDEDCAF Accuracy: -m0
  Conclusion: CDDA 100%
  Signature: 4A378C32F7FBD50664A34074868A7FD728454A5C
FILE: 03 The Juggernaut.flac
  Size: 27410812 Hash: D9501F211F8FB2D5EC641DC085EE8DF8 Accuracy: -m0
  Conclusion: CDDA 99%
  Signature: 72CF5364DEA720E23D271C25193097344CDBF9D9
FILE: 02 Frankie Goes To Hemel.flac
  Size: 24576692 Hash: C0CAC06EBFC978B2DBD9F19095C419FE Accuracy: -m0
  Conclusion: CDDA 100%
  Signature: FDCBCEE7B52356A9372AE4E64F5A6E79F4F40BDB
FILE: 01 March Of The LTA.flac
  Size: 7721844 Hash: AAEFC24AC0C56CFAB043EFD8E1A7F99D Accuracy: -m0
  Conclusion: CDDA 100%
  Signature: A64DF0AEA78223972BCFC218CF4A88765966DB16

#777Продолжительность: 00:40:34
Издатель: A Wolf At Your Door
Треклист:
01. Far Q (04:12)
02. B.O.R.E.D. (01:50)
03. Taping Songs off the Radio (02:50)
04. I'm Not Bulimic (I Just Wanted to See How Far I Could Stick My Fingers Down My Throat) (04:47)
05. Eating is Cheating (03:22)
06. No Belts (03:37)
07. Face Full of Scars (03:24)
08. A/S/L? (02:39)
09. Down with the Kids (03:48)
10. Yo Music Scene, What Happened? (03:19)
11. Mike Duce's Symphony No.11 in D Minor (03:09)
12. Extra! Extra! Read All About It! (03:30)
Код:
Код: Выделить всё
Exact Audio Copy V1.0 beta 1 from 15. November 2010

EAC extraction logfile from 25. May 2011, 16:04

Lower Than Atlantis / Far Q

Used drive  : TSSTcorpCD/DVDW TS-H652L   Adapter: 5  ID: 0

Read mode               : Secure
Utilize accurate stream : Yes
Defeat audio cache      : Yes
Make use of C2 pointers : No

Read offset correction                      : 6
Overread into Lead-In and Lead-Out          : No
Fill up missing offset samples with silence : Yes
Delete leading and trailing silent blocks   : No
Null samples used in CRC calculations       : Yes
Used interface                              : Native Win32 interface for Win NT & 2000
Gap handling                                : Appended to previous track

Used output format              : User Defined Encoder
Selected bitrate                : 128 kBit/s
Quality                         : High
Add ID3 tag                     : No
Command line compressor         : C:\Program Files\Exact Audio Copy\Flac\flac.exe
Additional command line options : -V -8 -T "artist=%a" -T "title=%t" -T "album=%g" -T "date=%y" -T "tracknumber=%n" -T "genre=%m" %s

TOC of the extracted CD

     Track |   Start  |  Length  | Start sector | End sector
    ---------------------------------------------------------
        1  |  0:00.00 |  4:12.26 |         0    |    18925
        2  |  4:12.26 |  1:50.62 |     18926    |    27237
        3  |  6:03.13 |  2:50.50 |     27238    |    40037
        4  |  8:53.63 |  4:47.71 |     40038    |    61633
        5  | 13:41.59 |  3:22.69 |     61634    |    76852
        6  | 17:04.53 |  3:37.23 |     76853    |    93150
        7  | 20:42.01 |  3:24.57 |     93151    |   108507
        8  | 24:06.58 |  2:39.50 |    108508    |   120482
        9  | 26:46.33 |  3:48.26 |    120483    |   137608
       10  | 30:34.59 |  3:19.59 |    137609    |   152592
       11  | 33:54.43 |  3:09.64 |    152593    |   166831
       12  | 37:04.32 |  3:30.37 |    166832    |   182618

Track  1

     Filename L:\Lower Than Atlantis - Far Q (2010) [FLAC]\01 - Far Q.wav

     Pre-gap length  0:00:02.00

     Peak level 99.1 %
     Extraction speed 4.1 X
     Track quality 99.9 %
     Test CRC 646C8D74
     Copy CRC 646C8D74
     Track not present in AccurateRip database
     Copy OK

Track  2

     Filename L:\Lower Than Atlantis - Far Q (2010) [FLAC]\02 - B.O.R.E.D..wav

     Peak level 100.0 %
     Extraction speed 4.3 X
     Track quality 100.0 %
     Test CRC 207ABA0C
     Copy CRC 207ABA0C
     Track not present in AccurateRip database
     Copy OK

Track  3

     Filename L:\Lower Than Atlantis - Far Q (2010) [FLAC]\03 - Taping Songs Off the Radio.wav

     Peak level 99.1 %
     Extraction speed 4.2 X
     Track quality 99.9 %
     Test CRC 554357D0
     Copy CRC 554357D0
     Track not present in AccurateRip database
     Copy OK

Track  4

     Filename L:\Lower Than Atlantis - Far Q (2010) [FLAC]\04 - I'm Not Bulimic (I Just Wanted to See How Far I Could Stick My Fingers Down My Throat).wav

     Peak level 99.1 %
     Extraction speed 5.7 X
     Track quality 100.0 %
     Test CRC CCB4E5E6
     Copy CRC CCB4E5E6
     Track not present in AccurateRip database
     Copy OK

Track  5

     Filename L:\Lower Than Atlantis - Far Q (2010) [FLAC]\05 - Eating Is Cheating.wav

     Peak level 99.1 %
     Extraction speed 5.8 X
     Track quality 100.0 %
     Test CRC B2B452AB
     Copy CRC B2B452AB
     Track not present in AccurateRip database
     Copy OK

Track  6

     Filename L:\Lower Than Atlantis - Far Q (2010) [FLAC]\06 - No Belts.wav

     Peak level 99.1 %
     Extraction speed 6.0 X
     Track quality 100.0 %
     Test CRC DB5B1559
     Copy CRC DB5B1559
     Track not present in AccurateRip database
     Copy OK

Track  7

     Filename L:\Lower Than Atlantis - Far Q (2010) [FLAC]\07 - Face Full of Scars.wav

     Peak level 100.0 %
     Extraction speed 6.4 X
     Track quality 100.0 %
     Test CRC BB92139C
     Copy CRC BB92139C
     Track not present in AccurateRip database
     Copy OK

Track  8

     Filename L:\Lower Than Atlantis - Far Q (2010) [FLAC]\08 - A,S,L.wav

     Peak level 99.1 %
     Extraction speed 6.1 X
     Track quality 100.0 %
     Test CRC C6FCD085
     Copy CRC C6FCD085
     Track not present in AccurateRip database
     Copy OK

Track  9

     Filename L:\Lower Than Atlantis - Far Q (2010) [FLAC]\09 - Down With the Kids.wav

     Peak level 99.1 %
     Extraction speed 6.9 X
     Track quality 100.0 %
     Test CRC 882A62DE
     Copy CRC 882A62DE
     Track not present in AccurateRip database
     Copy OK

Track 10

     Filename L:\Lower Than Atlantis - Far Q (2010) [FLAC]\10 - Yo Music Scene, What Happened.wav

     Peak level 99.1 %
     Extraction speed 5.9 X
     Track quality 100.0 %
     Test CRC F8866C36
     Copy CRC F8866C36
     Track not present in AccurateRip database
     Copy OK

Track 11

     Filename L:\Lower Than Atlantis - Far Q (2010) [FLAC]\11 - Mike Duce's Symphony No. 11 In D Minor.wav

     Peak level 99.1 %
     Extraction speed 7.4 X
     Track quality 100.0 %
     Test CRC E53BBF8E
     Copy CRC E53BBF8E
     Track not present in AccurateRip database
     Copy OK

Track 12

     Filename L:\Lower Than Atlantis - Far Q (2010) [FLAC]\12 - EXTRA! EXTRA! Read All About It!.wav

     Peak level 99.2 %
     Extraction speed 7.7 X
     Track quality 100.0 %
     Test CRC 7589B0FC
     Copy CRC 7589B0FC
     Track not present in AccurateRip database
     Copy OK

None of the tracks are present in the AccurateRip database

No errors occurred

End of status report

==== Log checksum D389A22E74D7092146C94CE808FB99F09EFCDB656031AF08AC2A392C0DBAB47F ====
Код:
Код: Выделить всё
-----------------------

DON'T MODIFY THIS FILE

-----------------------

PERFORMER: auCDtect Task Manager, ver. 1.6.0 RC1 build 1.6.0.1
Copyright (c) 2008-2010 y-soft. All rights reserved
http:/y-soft.org

ANALYZER: auCDtect: CD records authenticity detector, version 0.8.2
Copyright (c) 2004 Oleg Berngardt. All rights reserved.
Copyright (c) 2004 Alexander Djourik. All rights reserved.

FILE: 12 - EXTRA! EXTRA! Read All About It!.flac
  Size: 27121212 Hash: 2BFD1C0F8FFBEBE8C11CA9623C169189 Accuracy: -m0
  Conclusion: CDDA 99%
  Signature: 55155AAD56AD3892E7E6ECC8476085B7A815887D
FILE: 11 - Mike Duce's Symphony No. 11 In D Minor.flac
  Size: 19582483 Hash: 6E09B310E94C7C58EA4B50CFEF2A5933 Accuracy: -m0
  Conclusion: CDDA 99%
  Signature: A3F78FFCF597B7D2E4E7C22470E1B0FC873DB1B6
FILE: 10 - Yo Music Scene, What Happened.flac
  Size: 26531973 Hash: 0244CE4743CFB0B652732FCE3323461B Accuracy: -m0
  Conclusion: CDDA 100%
  Signature: 143007B1057DBEB034073E5107C6B0716C878701
FILE: 09 - Down With the Kids.flac
  Size: 29784720 Hash: 689B9CEF46D10DE081ED4C4403B081F2 Accuracy: -m0
  Conclusion: CDDA 100%
  Signature: D829BBDB877297B03D751FEC6E8106CC9ACC2F0A
FILE: 08 - A,S,L.flac
  Size: 20964018 Hash: 3C2FB271C23F635F7550F189856559B6 Accuracy: -m0
  Conclusion: CDDA 100%
  Signature: 4F088220484BAC855A3C7717F7A015143C04422B
FILE: 07 - Face Full of Scars.flac
  Size: 27720279 Hash: 206A941CEBDE3F06D51E0AF0BEF05722 Accuracy: -m0
  Conclusion: CDDA 100%
  Signature: 1B4FD367679166CFD127385040C45B242C2CE570
FILE: 06 - No Belts.flac
  Size: 29430997 Hash: 4BFC3CBE48DB18373A036E90B9C56E1E Accuracy: -m0
  Conclusion: CDDA 100%
  Signature: DCE8A6804A6CCD0BEBA0C51AA3E6DC5F87EC8F5C
FILE: 05 - Eating Is Cheating.flac
  Size: 26488224 Hash: 4D96DBB00C41BE028373EBDFB8A88713 Accuracy: -m0
  Conclusion: CDDA 100%
  Signature: E52B7E1CFADA6C8C31FCD93290FFCB9D274F1B82
FILE: 04 - I'm Not Bulimic (I Just Wanted to See How Far I Could Stick My Fingers Down My Throat).flac
  Size: 37243308 Hash: 845E42753F29198D8760495681D0E0F3 Accuracy: -m0
  Conclusion: CDDA 100%
  Signature: 49F4953640F4C831CB3C41E2D7BDA650B14ECC99
FILE: 03 - Taping Songs Off the Radio.flac
  Size: 22483957 Hash: 1E83F8BCB7B183B2F5B2507F8F00D257 Accuracy: -m0
  Conclusion: CDDA 99%
  Signature: 2915D3DD28221EC5200AADC40415818EEE0DBE45
FILE: 02 - B.O.R.E.D..flac
  Size: 15505945 Hash: 6C6EB135AE4C424B79E8D3E0022644D1 Accuracy: -m0
  Conclusion: CDDA 100%
  Signature: 7FF0BCB95893EC436F2966CECE86B41B36BC3C71
FILE: 01 - Far Q.flac
  Size: 32741275 Hash: DA711A3E3A8173B3C0864B06ABC08E80 Accuracy: -m0
  Conclusion: CDDA 100%
  Signature: 1B902469B9E20A7025B3EFE5728EE5D4E92D089B

#777Продолжительность: 00:47:42
Издатель: Sumerian Records
Треклист:
01. (Motor) Way of Life (3:05)
02. Beech Like the Tree (2:18)
03. High At Five (3:59)
04. Uni 9MM (3:19)
05. Another Sad Song (4:31)
06. Marilyn's Mansion (1:35)
07. Deadliest Catch (3:40)
08. Bug (1:47)
09. Up In Smoke (3:04)
10. Could You? Would You? (3:47)
11. Working for the Man By Day, Stickin' It to the Man By Night (3:10)
12. R.O.I. (2:52)
US bonus tracks
13. Live By the Remote, Die By the Remote (3:51)
14. Beside Myself (4:07)
15. Grounded (2:37)
Код:
Код: Выделить всё
Exact Audio Copy V1.0 beta 1 from 15. November 2010

EAC extraction logfile from 25. May 2011, 13:39

Lower Than Atlantis / World Record

Used drive  : TSSTcorpCD/DVDW TS-H652L   Adapter: 5  ID: 0

Read mode               : Secure
Utilize accurate stream : Yes
Defeat audio cache      : Yes
Make use of C2 pointers : No

Read offset correction                      : 6
Overread into Lead-In and Lead-Out          : No
Fill up missing offset samples with silence : Yes
Delete leading and trailing silent blocks   : No
Null samples used in CRC calculations       : Yes
Used interface                              : Native Win32 interface for Win NT & 2000
Gap handling                                : Appended to previous track

Used output format              : User Defined Encoder
Selected bitrate                : 128 kBit/s
Quality                         : High
Add ID3 tag                     : No
Command line compressor         : C:\Program Files\Exact Audio Copy\Flac\flac.exe
Additional command line options : -V -8 -T "artist=%a" -T "title=%t" -T "album=%g" -T "date=%y" -T "tracknumber=%n" -T "genre=%m" %s

TOC of the extracted CD

     Track |   Start  |  Length  | Start sector | End sector
    ---------------------------------------------------------
        1  |  0:00.00 |  3:05.27 |         0    |    13901
        2  |  3:05.27 |  2:18.36 |     13902    |    24287
        3  |  5:23.63 |  3:59.29 |     24288    |    42241
        4  |  9:23.17 |  3:19.35 |     42242    |    57201
        5  | 12:42.52 |  4:31.09 |     57202    |    77535
        6  | 17:13.61 |  1:34.51 |     77536    |    84636
        7  | 18:48.37 |  3:40.16 |     84637    |   101152
        8  | 22:28.53 |  1:46.59 |    101153    |   109161
        9  | 24:15.37 |  3:04.00 |    109162    |   122961
       10  | 27:19.37 |  3:46.43 |    122962    |   139954
       11  | 31:06.05 |  3:09.55 |    139955    |   154184
       12  | 34:15.60 |  2:51.56 |    154185    |   167065
       13  | 37:07.41 |  3:50.69 |    167066    |   184384
       14  | 40:58.35 |  4:07.03 |    184385    |   202912
       15  | 45:05.38 |  2:36.43 |    202913    |   214655

Track  1

     Filename L:\Lower Than Atlantis - World Record (2011) [FLAC]\01 - (Motor) Way of Life.wav

     Pre-gap length  0:00:02.00

     Peak level 100.0 %
     Extraction speed 4.3 X
     Track quality 100.0 %
     Test CRC 0B243556
     Copy CRC 0B243556
     Track not present in AccurateRip database
     Copy OK

Track  2

     Filename L:\Lower Than Atlantis - World Record (2011) [FLAC]\02 - Beech Like the Tree.wav

     Peak level 100.0 %
     Extraction speed 3.6 X
     Track quality 99.9 %
     Test CRC 5B003528
     Copy CRC 5B003528
     Track not present in AccurateRip database
     Copy OK

Track  3

     Filename L:\Lower Than Atlantis - World Record (2011) [FLAC]\03 - High At Five.wav

     Peak level 100.0 %
     Extraction speed 4.5 X
     Track quality 99.9 %
     Test CRC 04F53EA5
     Copy CRC 04F53EA5
     Track not present in AccurateRip database
     Copy OK

Track  4

     Filename L:\Lower Than Atlantis - World Record (2011) [FLAC]\04 - Uni 9MM.wav

     Peak level 100.0 %
     Extraction speed 5.2 X
     Track quality 100.0 %
     Test CRC B1C011C5
     Copy CRC B1C011C5
     Track not present in AccurateRip database
     Copy OK

Track  5

     Filename L:\Lower Than Atlantis - World Record (2011) [FLAC]\05 - Another Sad Song.wav

     Peak level 100.0 %
     Extraction speed 6.0 X
     Track quality 100.0 %
     Test CRC D1B42549
     Copy CRC D1B42549
     Track not present in AccurateRip database
     Copy OK

Track  6

     Filename L:\Lower Than Atlantis - World Record (2011) [FLAC]\06 - Marilyn's Mansion.wav

     Peak level 100.0 %
     Extraction speed 5.1 X
     Track quality 100.0 %
     Test CRC 8E1DB6B2
     Copy CRC 8E1DB6B2
     Track not present in AccurateRip database
     Copy OK

Track  7

     Filename L:\Lower Than Atlantis - World Record (2011) [FLAC]\07 - Deadliest Catch.wav

     Peak level 100.0 %
     Extraction speed 6.1 X
     Track quality 100.0 %
     Test CRC 48E81D17
     Copy CRC 48E81D17
     Track not present in AccurateRip database
     Copy OK

Track  8

     Filename L:\Lower Than Atlantis - World Record (2011) [FLAC]\08 - Bug.wav

     Peak level 100.0 %
     Extraction speed 5.5 X
     Track quality 100.0 %
     Test CRC B9C58FDE
     Copy CRC B9C58FDE
     Track not present in AccurateRip database
     Copy OK

Track  9

     Filename L:\Lower Than Atlantis - World Record (2011) [FLAC]\09 - Up In Smoke.wav

     Peak level 100.0 %
     Extraction speed 6.3 X
     Track quality 100.0 %
     Test CRC 9B26A704
     Copy CRC 9B26A704
     Track not present in AccurateRip database
     Copy OK

Track 10

     Filename L:\Lower Than Atlantis - World Record (2011) [FLAC]\10 - Could You Would You.wav

     Peak level 100.0 %
     Extraction speed 7.0 X
     Track quality 100.0 %
     Test CRC 5E606B41
     Copy CRC 5E606B41
     Track not present in AccurateRip database
     Copy OK

Track 11

     Filename L:\Lower Than Atlantis - World Record (2011) [FLAC]\11 - Working for the Man By Day, Stickin' It to the Man By Night.wav

     Peak level 100.0 %
     Extraction speed 6.9 X
     Track quality 100.0 %
     Test CRC C34264F1
     Copy CRC C34264F1
     Track not present in AccurateRip database
     Copy OK

Track 12

     Filename L:\Lower Than Atlantis - World Record (2011) [FLAC]\12 - R.O.I..wav

     Peak level 100.0 %
     Extraction speed 6.9 X
     Track quality 100.0 %
     Test CRC 85975D3D
     Copy CRC 85975D3D
     Track not present in AccurateRip database
     Copy OK

Track 13

     Filename L:\Lower Than Atlantis - World Record (2011) [FLAC]\13 - Live By the Remote, Die By the Remote.wav

     Peak level 100.0 %
     Extraction speed 7.3 X
     Track quality 100.0 %
     Test CRC 2DF274BB
     Copy CRC 2DF274BB
     Track not present in AccurateRip database
     Copy OK

Track 14

     Filename L:\Lower Than Atlantis - World Record (2011) [FLAC]\14 - Beside Myself.wav

     Peak level 100.0 %
     Extraction speed 6.9 X
     Track quality 99.9 %
     Test CRC CDD49E8A
     Copy CRC CDD49E8A
     Track not present in AccurateRip database
     Copy OK

Track 15

     Filename L:\Lower Than Atlantis - World Record (2011) [FLAC]\15 - Grounded.wav

     Peak level 100.0 %
     Extraction speed 7.5 X
     Track quality 100.0 %
     Test CRC 1B8537F8
     Copy CRC 1B8537F8
     Track not present in AccurateRip database
     Copy OK

None of the tracks are present in the AccurateRip database

No errors occurred

End of status report

==== Log checksum 8AF7FA35001C837661F09D9F43ED55A080A1ED9CFC98D36248BD5AEBE69E1E38 ====
Код:
Код: Выделить всё
-----------------------

DON'T MODIFY THIS FILE

-----------------------

PERFORMER: auCDtect Task Manager, ver. 1.6.0 RC1 build 1.6.0.1
Copyright (c) 2008-2010 y-soft. All rights reserved
http:/y-soft.org

ANALYZER: auCDtect: CD records authenticity detector, version 0.8.2
Copyright (c) 2004 Oleg Berngardt. All rights reserved.
Copyright (c) 2004 Alexander Djourik. All rights reserved.

FILE: 15 - Grounded.flac
  Size: 18671474 Hash: C483BA465524E3D7B405479D9741C486 Accuracy: -m0
  Conclusion: MPEG 95%
  Signature: 70942C63243588207162BD8086BB1AFA3C25A560
FILE: 14 - Beside Myself.flac
  Size: 30657361 Hash: 05D4F8167206BB79E7BACCEC44AC7F6B Accuracy: -m0
  Conclusion: MPEG 95%
  Signature: 8E3557ED8D4674DEDF62D08FD12F5046DC4B904F
FILE: 13 - Live By the Remote, Die By the Remote.flac
  Size: 28131526 Hash: 78E95932A34E042D24DAF36F26B3B434 Accuracy: -m0
  Conclusion: MPEG 95%
  Signature: 4D330F5412283FD642C74E5827A5EE06BEC8727D
FILE: 12 - R.O.I..flac
  Size: 21296139 Hash: 19B9FC74BF944BA82E30F1347D706255 Accuracy: -m0
  Conclusion: CDDA 100%
  Signature: 75701E4DE5D893B85B87D91A1A7B523ECC5E13CC
FILE: 11 - Working for the Man By Day, Stickin' It to the Man By Night.flac
  Size: 23528976 Hash: EA2A0F224A7614F86AF2D7444342C92E Accuracy: -m0
  Conclusion: CDDA 99%
  Signature: C4830D4A40E3DBE24A6E478B10BF64BF62AF5A8F
FILE: 10 - Could You Would You.flac
  Size: 29467323 Hash: 52A6DB2BFE04B4BB11E7A17A054547D5 Accuracy: -m0
  Conclusion: CDDA 100%
  Signature: EDDADA8815C8B3FF6450D2C0DC89561B983CD64B
FILE: 09 - Up In Smoke.flac
  Size: 23344747 Hash: DA0837B1DA5F7BD97DF760257A3EA775 Accuracy: -m0
  Conclusion: CDDA 100%
  Signature: 1CDBBAF0CB7563E0C61A9C6C52FC6E0F9BEB29BF
FILE: 08 - Bug.flac
  Size: 13952564 Hash: 157B0EC64341596B4A84487DD9C0605C Accuracy: -m0
  Conclusion: CDDA 100%
  Signature: F10EABC29243C528D247243E9C602887DFC94C18
FILE: 07 - Deadliest Catch.flac
  Size: 28469224 Hash: B15AD66F9009EEA76FA9AC1046B245EF Accuracy: -m0
  Conclusion: CDDA 100%
  Signature: B64DF6EBA914444125AD5E55EE6B084FDC483A14
FILE: 06 - Marilyn's Mansion.flac
  Size: 12360615 Hash: C14D921CB58F4EF3277212ECAB8E31BA Accuracy: -m0
  Conclusion: CDDA 100%
  Signature: A56F60DB4997A3451C63DB0754BF568473937AFE
FILE: 05 - Another Sad Song.flac
  Size: 30168820 Hash: 519B70B169B9F8527415CCA67E80CEFD Accuracy: -m0
  Conclusion: CDDA 100%
  Signature: ACE7EB6ABE711B3F964C023A4305B0B1FA187831
FILE: 04 - Uni 9MM.flac
  Size: 25379868 Hash: 81088452F1201A02E54F4F3CE56E7EA5 Accuracy: -m0
  Conclusion: CDDA 100%
  Signature: C2D002D2D474F9C89C72EB92D4222452F32093CE
FILE: 03 - High At Five.flac
  Size: 29805916 Hash: F7444D67E81F04544AFF82B425BBB0A0 Accuracy: -m0
  Conclusion: CDDA 100%
  Signature: 64DFB23609A667E009595BF913487B7FE9144E2C
FILE: 02 - Beech Like the Tree.flac
  Size: 17854268 Hash: C035C32B710626E592B6D0BB30BD3168 Accuracy: -m0
  Conclusion: CDDA 100%
  Signature: 2EB1CBF26B322FAF88219688FF920FFF1B8ABFC9
FILE: 01 - (Motor) Way of Life.flac
  Size: 24246183 Hash: 960F493F8F6F657C98F2DA12DA8E8B49 Accuracy: -m0
  Conclusion: CDDA 100%
  Signature: 5C6B7B9A5A50FCCF00441DF6DA23AB89030BD1B2
Три бонусных трека явно MPEG, но это официальное издание. Видимо, не удосужились сделать все качественно



#777Продолжительность: 00:54:11
Издатель: Island Records
Треклист:
01. Prologue (2:49)
02. Love Someone Else (2:30)
03. Move Along (2:59)
04. Wars With Words (1:49)
05. Go On Strike (2:52)
06. Scared Of The Dark (4:22)
07. Normally Strange (3:26)
08. Something Better Came Along (3:59)
09. PMA (2:28)
10. Cool Kids (3:27)
11. I Know A Song That Will Get On Your Nerves (2:44)
12. Showtime (3:23)
Deluxe Edition bonus tracks:
13. Counting Sheep (2:59)
14. Soul Doubt (3:59)
15. Time Flies (3:43)
16. Short Way Home (2:49)
17. If The World Was To End (3:53)
Код:
Код: Выделить всё
-----------------------

DON'T MODIFY THIS FILE

-----------------------

PERFORMER: auCDtect Task Manager, ver. 1.6.0 RC1 build 1.6.0.1
Copyright (c) 2008-2010 y-soft. All rights reserved
http:/y-soft.org

ANALYZER: auCDtect: CD records authenticity detector, version 0.8.2
Copyright (c) 2004 Oleg Berngardt. All rights reserved.
Copyright (c) 2004 Alexander Djourik. All rights reserved.

FILE: 17 - If the World Was to End.flac
  Size: 29665381 Hash: 6C8EFAD588B9B870BF9324CCF63C4EE7 Accuracy: -m0
  Conclusion: CDDA 99%
  Signature: 0659F559A1344120D83505534DA690A98BC74712
FILE: 16 - Short Way Home.flac
  Size: 21830179 Hash: E301C1405E111C2EA9B7E13EDA5F732F Accuracy: -m0
  Conclusion: CDDA 100%
  Signature: C5B07508F5A7967CEE87F03A8DBF87E88B591A9A
FILE: 15 - Time Flies.flac
  Size: 28268991 Hash: CCF61B5BD0EA838FC2F105ACEEAA64B6 Accuracy: -m0
  Conclusion: CDDA 100%
  Signature: C2E86A26074F6F09C9FA0AB82A41F398C5850BBD
FILE: 14 - Soul Doubt.flac
  Size: 30284036 Hash: DC6CE6073656069C863350EF35CEC01C Accuracy: -m0
  Conclusion: CDDA 100%
  Signature: F8D407BB0BBEA19A01D51EC417F4E51B66D3E7A7
FILE: 13 - Counting Sheep.flac
  Size: 23370083 Hash: A1F63B15CD0F478354832D62EFC1431F Accuracy: -m0
  Conclusion: CDDA 100%
  Signature: E6680E0777B4CC8786568514B9D2AF4D9ADCF8E1
FILE: 12 - Showtime.flac
  Size: 25842884 Hash: AD691B9ED0B61A9A4C1ADE58220DD175 Accuracy: -m0
  Conclusion: CDDA 100%
  Signature: 6834434D602EDD6ED5E9C9AF4F28DF22CE585EA7
FILE: 11 - I Know a Song That Will Get On Your Nerves.flac
  Size: 20047837 Hash: F07F33ED60BC7F0DD15BDC81F592BC19 Accuracy: -m0
  Conclusion: CDDA 100%
  Signature: 421DAB360EBDEAA04C1D82A054A14341331B2B94
FILE: 10 - Cool Kids.flac
  Size: 26440761 Hash: 7F579EA2AA21246CCCDD5EE46258B0C5 Accuracy: -m0
  Conclusion: CDDA 100%
  Signature: B3BD3DC4B229649D1C9ECDF7CAB096C0EB297F54
FILE: 09 - PMA.flac
  Size: 19106020 Hash: 5855279FC5F5785407253516A0F12EDD Accuracy: -m0
  Conclusion: CDDA 100%
  Signature: 9F9B2EED8B8E737DE64713B9FB93DA3987859314
FILE: 08 - Something Better Came Along.flac
  Size: 29073731 Hash: 9518B66177CFE2B30C03BF39DD4464ED Accuracy: -m0
  Conclusion: CDDA 99%
  Signature: F33F14F67BD286ED7ECDA70013637144A80F33F8
FILE: 07 - Normally Strange.flac
  Size: 26054564 Hash: 9367D002808F957BB866070602F02BF9 Accuracy: -m0
  Conclusion: CDDA 100%
  Signature: 2D313489A42603BF09F149048515A20493F3389B
FILE: 06 - Scared of the Dark.flac
  Size: 28451646 Hash: F8735EDEE6B241039762D9527022BB19 Accuracy: -m0
  Conclusion: CDDA 99%
  Signature: 0E2805DA2E036926FDD137EC9C8A1B16CC5D62C3
FILE: 05 - Go On Strike.flac
  Size: 22029479 Hash: 8B5F5C2AE6EEB363702F4024B5BA6014 Accuracy: -m0
  Conclusion: CDDA 100%
  Signature: 6D2E9D1398E373B65DB56656AB1BFE7693DEA643
FILE: 04 - Wars With Words.flac
  Size: 14305776 Hash: D0B5EE3C3EF838D123FFAB3D0D4252E4 Accuracy: -m0
  Conclusion: CDDA 100%
  Signature: 2D069473B399EFF3A0010688414F2F6CD15BE8E6
FILE: 03 - Move Along.flac
  Size: 23109719 Hash: 59A45FBA6B9081C6BE1FB7F4F0EFD77A Accuracy: -m0
  Conclusion: CDDA 100%
  Signature: 2A7A47949EC8F7B40CAF9849E531A27415A270AC
FILE: 02 - Love Someone Else.flac
  Size: 19989321 Hash: C1AADDFA15E2EA2FA881F24A3E6C55BF Accuracy: -m0
  Conclusion: CDDA 100%
  Signature: 4DDF124C195E299C226CE0F59825A5AA4D942170
FILE: 01 - Prologue.flac
  Size: 19782020 Hash: 5E04641242B6FFD3091CCC1527C2D36B Accuracy: -m0
  Conclusion: CDDA 100%
  Signature: 994D0BD2D7F531207E9BBD12C5B24B2A3841119F
Правила, инструкции, FAQ!!!
Торрент  Добавлен [16 мар 2014, 00:55] Скачать торрент Магнет ссылка
Скачать торрент
19.09 КБ

Статус
Проверен 
 
Размер  1.16 ГБ
Приватный: Нет (DHT включён)
.torrent скачан  2
Как залить торрент? | Как скачать Torrent? | Как смотреть и слушать онлайн?  
Гость
 



Вернуться в Дискографии (Зарубежные)

Кто сейчас на конференции

Сейчас этот форум просматривают: нет зарегистрированных пользователей и гости: 0