Ледниковый период: Гигантское Рождество в 3Д / Ice Age: A Mammoth Christmas 3D (Карен Дишер / Karen Disher) [2011, Мультфильм, короткометражка, комедия, приключения, BDrip-avc] Half SideBySide / Горизонтальная анаморфная стереопара


Статистика раздачи
Размер: 864.79 МБ | Добавлен: 02 ноя 2014, 09:56 | Скачали: 1
Сидеров: 32  [0 байт/сек]    Личеров: 12  [0 байт/сек]

Сообщение Гость » 02 ноя 2014, 09:56

Ледниковый период: Гигантское Рождество / Ice Age: A Mammoth Christmas

Год выпуска: 2011
Страна: США
Студия: Reel FX Creative Studios
Жанр: Мультфильм, короткометражка, комедия, приключения
Продолжительность: 00:25:30

Перевод: Профессиональный (дублированный)
Режиссер: Карен Дишер / Karen Disher
В ролях: Джон Легуизамо, Шонн Уильям Скотт, ТиДжей Миллер, Кьяра Браво, Куин Латифа, Дэнис Лири, Рэй Романо, Джошуа Раш, Крис Уэдж

Роли озвучивали: Степан Старчиков, Антон Комолов, Александр Груздев, Ольга Шелест, Андрей Бархударов

Описание: Когда Сид случайно разрушает рождественский камень, Мэнни говорит ему, что Сид попал в черный список Санты. Ленивцу придется отправиться на северный полюс просить извинения у Санты. На северном полюсе Сид хотел все сделать как лучше, но только усугубил ситуацию. Теперь дело за Мэнни и компанией. Только объединившись они сохранят Рождество для всего мира!



Сэмпл-1: http://dfiles.ru/files/r7rl0v04i
Сэмпл-2: http://dfiles.ru/files/x784l6wd6

Качество: BDrip
Контейнер: MKV
Формат 3D: Half SideBySide / Горизонтальная анаморфная стереопара
Порядок ракурсов: левый ракурс первый
Видео кодек: x264
Аудио кодек: AC3
Видео: AVC / 23,976 fps / 1024х576 / 16:9 / 4199 Kbps
Аудио: Русский / AC-3 / 48 KHz / 5.1 ch / 448 Kbps
General
Unique ID : 115654515141037955185624315435962358497 (0x57023FD81CE7308F084D326D0F785AE1)
Complete name : D:\Films\Ice Age A Mammoth Christmas.mkv
Format : Matroska
Format version : Version 2
File size : 865 MiB
Duration : 25mn 30s
Overall bit rate : 4 741 Kbps
Movie name : BD3DRip_by_Serj69
Writing application : Lavf54.37.100
Writing library : Lavf54.37.100

Video
ID : 1
Format : AVC
Format/Info : Advanced Video Codec
Format profile : High 4:4:4 Predictive@L3.1
Format settings, CABAC : Yes
Format settings, ReFrames : 2 frames
Codec ID : V_MPEG4/ISO/AVC
Duration : 25mn 30s
Bit rate : 4 199 Kbps
Width : 1 024 pixels
Height : 576 pixels
Display aspect ratio : 16:9
Frame rate mode : Constant
Frame rate : 23.976 fps
Color space : YUV
Chroma subsampling : 4:4:4
Bit depth : 8 bits
Scan type : Progressive
Bits/(Pixel*Frame) : 0.297
Stream size : 766 MiB (89%)
Writing library : x264 core 128 r2216 198a7ea
Encoding settings : cabac=1 / ref=1 / deblock=0:0:0 / analyse=0:0 / me=hex / subme=8 / psy=1 / psy_rd=1.00:0.00 / mixed_ref=0 / me_range=16 / chroma_me=1 / trellis=0 / 8x8dct=0 / cqm=0 / deadzone=21,11 / fast_pskip=1 / chroma_qp_offset=4 / threads=1 / lookahead_threads=1 / sliced_threads=0 / nr=0 / decimate=1 / interlaced=0 / bluray_compat=0 / constrained_intra=0 / bframes=1 / b_pyramid=0 / b_adapt=0 / b_bias=0 / direct=1 / weightb=0 / open_gop=0 / weightp=0 / keyint=250 / keyint_min=23 / scenecut=0 / intra_refresh=0 / rc=crf / mbtree=0 / crf=18.0 / qcomp=0.60 / qpmin=0 / qpmax=69 / qpstep=4 / ip_ratio=1.40 / pb_ratio=1.30 / aq=0
Default : Yes
Forced : No
HANDLER_NAME : VideoHandler

Audio
ID : 2
Format : AC-3
Format/Info : Audio Coding 3
Mode extension : CM (complete main)
Format settings, Endianness : Big
Codec ID : A_AC3
Duration : 25mn 30s
Bit rate mode : Constant
Bit rate : 448 Kbps
Channel(s) : 6 channels
Channel positions : Front: L C R, Side: L R, LFE
Sampling rate : 48.0 KHz
Bit depth : 16 bits
Compression mode : Lossy
Stream size : 81.7 MiB (9%)
Default : Yes
Forced : No
HANDLER_NAME : SoundHandler


Правила, инструкции, FAQ!!!
Торрент  Добавлен [02 ноя 2014, 09:56] Скачать торрент Магнет ссылка
Скачать торрент
17.38 КБ

Статус
Проверен 
 
Размер  864.79 МБ
Приватный: Нет (DHT включён)
.torrent скачан  1
Как залить торрент? | Как скачать Torrent? | Как смотреть и слушать онлайн?  
Гость
 



Вернуться в HD-Video в 3D

Кто сейчас на конференции

Сейчас этот форум просматривают: нет зарегистрированных пользователей и гости: 6