Красавица и чудовище / Beauty and the Beast (2017) BDRip 1080p от Ash61 | 3D-Video | halfOU | Лицензия


Статистика раздачи
Размер: 9.54 ГБ | Добавлен: 25 июн 2017, 21:19 | Скачали: 966
Сидеров: 588  [0 байт/сек]    Личеров: 146  [0 байт/сек]

Сообщение Гость » 25 июн 2017, 21:19

Год выпуска: 2017
Страна: США (Walt Disney Pictures)
Жанр: Мюзикл, Фэнтези, Мелодрама, Семейный
Продолжительность: 02:09:17

Перевод: Профессиональный дублированный (лицензия)

Режиссер: Билл Кондон / Bill Condon



Роли исполняли (дублировали):



Belle - Эмма Уотсон (Юлия Довганишина)
Beast - Дэн Стивенс (Андрей Бирин)
Gaston - Люк Эванс (Дмитрий Ермак)
LeFou - Джош Гад (Вадим Мичман)
Maurice - Кевин Клайн (Александр Давыдов)
Agathe / Enchantress - Хэтти Морахэн (Юлия Баранчук)
Clothilde - Хейдн Гвин
Jean the Potter - Джерард Хоран
Père Robert - Рэй Фиарон
Lumière - Юэн МакГрегор (Евгений Вальц)
Cogsworth - Иэн МакКеллен (Владимир Левашёв)
Mrs. Potts - Эмма Томпсон (Анна Гученкова)
Maestro Cadenza - Стэнли Туччи (Алексей Россошанский)



Описание: Обозлённая Волшебница превратила принца Адама в отвратительное чудовище за то, что тот был злым, самовлюблённым и грубым. Чтобы снять чары с себя и слуг своего замка, ему необходимо научиться быть добрым, любить и быть любимым. Произойти это должно до того, как с розы, подаренной Волшебницей, упадёт последний лепесток.
В далёкой деревушке живёт красивая девушка по имени Белль. Однажды её отец Морис отправляется на ярмарку, но по дороге сбивается с пути. Оказавшись в заколдованном замке, он становится пленником Чудовища. Белль спешит отцу на помощь.


Некоторое время на роль Белль всерьёз рассматривали актрису Аманду Сайфред.
Юэн МакГрегор однажды сказал, что во время съёмок очень переживал, потому что ему было трудно говорить с французским акцентом. Актёр даже консультировался на эту тему со своей женой-француженкой. МакГрегор позже признался, что акцент ему так и не дался.
Эмма Томпсон, исполнительница роли миссис Поттс, и Хэтти Морахэн, которая играет Агату, сыграли Элинор Дэшвуд — в фильме Энга Ли «Разум и чувства» (1995) и телесериале BBC (2008) по одноимённому роману Джейн Остин (1775-1817).
Эмма Уотсон, исполнившая роль Белль, Люк Эванс, который сыграл Гастона, и Эмма Томпсон, которая исполнила миссис Поттс, родились в один день 15 апреля. Эмма Уотсон родилась в 1990 году, Люк Эванс — в 1979-м, а Эмма Томпсон — в 1959-м.
Третий фильм компании Disney в актёрской карьере Кевина Клайна, который играет Мориса. Он озвучил капитана Феба в анимационном фильме Горбун из Нотр Дама (Гари Труздейл, Кирк Уайз, 1996) и его сиквеле «Горбун из Нотр Дама 2» (Брэдли Рэймонд, 2002). В 1991 году Гари Труздейл и Кирк Уайз сняли анимационный фильм «Красавица и Чудовище». А ещё это третий фильм компании Disney, в котором играет Клайн, и действие которого разворачивается во Франции.
Более 8700 свечей (или 2,65 километра воска) было использовано в декорациях за время производства картины.
Пол бального зала в замке Чудовища, который занимает 1115 квадратных метров, сделан из искусственного мрамора, а его дизайн основан на узоре потолка в Бенедиктинском монастыре, расположенном в аббатстве Браунау-ин-Рор в Германии. Десять стеклянных люстр, освещающих бальный зал, каждая размером 2х4 метра, были сконструированы на основе реальных люстр из французского королевского дворца в Версале, покрыты глазурью, имитирующей иней, и задрапированы тканью.
Примерно 1500 роз были выращены или приобретены за время съёмок в исследовательских целях или для использования в декорациях.
На создание заколдованного леса из живых деревьев и кустарников, который окружает замок Чудовища, покрытого льдом озера и 20 000 сосулек, которые украсили съемочную площадку фильма, ушло более 15 недель.
Более 12000 часов работы было потрачено на создание желтого бального платья Белль. Кроме того, на это платье художники по костюмам израсходовали около 55 метров невесомой органзы, 914 метров нити и 2160 кристаллов Swarovski.
Фруфру, собачку Мадам де Гардероб (Одра МакДональд) и маэстро Каденцы (Стэнли Туччи), играет пёс по кличке Гизмо, который на самом деле является питомцем одного из старейших и самых знаменитых приютов для животных в Великобритании.
Некоторые строки из песен «Гастон» и «Чудовище и Белль», написанные Ховардом Эшманом для анимационного фильма, но не исполненные в 1991 году, впервые прозвучат в песнях, записанных для кинопостановки.
[*]Фонарики на террасе, лестница в замке Чудовища и розовая колоннада на территории замка — это дань уважения авангардистской версии сказки «Красавица и Чудовище», снятой в 1946 году французским режиссером Жаном Кокто, фильм которого стал источником вдохновения для Билла Кондона.

Премьера: 23 февраля 2017 (16 марта 2017)
Релиз на Blu-Ray (DVD) (Россия): 22 августа 2017
Бюджет: $160 000 000
Кассовые сборы: $1 247 884 156





Качество: BDRip (by Ash61)
Контейнер: MKV
Формат 3D: Half OverUnder / Вертикальная анаморфная стереопара
Порядок ракурсов: левый ракурс первый



Видео: AVC / 1920х1080p / 23,976 fps / 9074 Kbps

Аудио:
#1 - Русский / AC3 / 48 KHz / 5.1 ch / 640 Kbps (Дубляж - BD Eur)
#2 - Английский / AC3 / 48 KHz / 5.1 ch / 640 Kbps (Original - BD 3D)

Субтитры (внешние SRT UTF-8):
#1 - Русские Полные
#2 - English Full
#3 - English SDH

General
Unique ID : 235792279769946035414921286299468257507 (0xB163F0F43712D646A251BB95D5D558E3)
Complete name : E:BeautyAndTheBeast(2017)3D-halfOU(Ash61)BeautyAndTheBeast(2017)3D-halfOU(Ash61).mkv
Format : Matroska
Format version : Version 2
File size : 9.54 GiB
Duration : 2h 9mn
Overall bit rate : 10.6 Mbps
Movie name : Красавица и чудовище / Beauty and the Beast (2017) в 3Д
Encoded date : UTC 2017-06-24 12:40:22
Writing application : mkvmerge v5.8.0 ('No Sleep / Pillow') built on Sep 2 2012 15:37:04
Writing library : libebml v1.2.3 + libmatroska v1.3.0

Video
ID : 1
Format : AVC
Format/Info : Advanced Video Codec
Format profile : High@L4.1
Format settings, CABAC : Yes
Format settings, ReFrames : 4 frames
Codec ID : V_MPEG4/ISO/AVC
Duration : 2h 9mn
Bit rate : 9 074 Kbps
Width : 1 920 pixels
Height : 1 080 pixels
Display aspect ratio : 16:9
Frame rate mode : Constant
Frame rate : 23.976 fps
Color space : YUV
Chroma subsampling : 4:2:0
Bit depth : 8 bits
Scan type : Progressive
Bits/(Pixel*Frame) : 0.183
Stream size : 8.19 GiB (86%)
Title : BDRip by Ash61
Writing library : x264 core 146 r2538 121396c
Encoding settings : cabac=1 / ref=4 / deblock=1:-3:-3 / analyse=0x3:0x113 / me=umh / subme=10 / psy=1 / psy_rd=1.00:0.00 / mixed_ref=1 / me_range=32 / chroma_me=1 / trellis=2 / 8x8dct=1 / cqm=0 / deadzone=21,11 / fast_pskip=1 / chroma_qp_offset=-2 / threads=12 / lookahead_threads=3 / sliced_threads=0 / nr=0 / decimate=1 / interlaced=0 / bluray_compat=0 / constrained_intra=0 / bframes=12 / b_pyramid=2 / b_adapt=2 / b_bias=0 / direct=3 / weightb=1 / open_gop=0 / weightp=2 / keyint=250 / keyint_min=23 / scenecut=40 / intra_refresh=0 / rc_lookahead=60 / rc=crf / mbtree=0 / crf=16.5 / qcomp=0.70 / qpmin=0 / qpmax=69 / qpstep=4 / vbv_maxrate=40000 / vbv_bufsize=30000 / crf_max=0.0 / nal_hrd=none / filler=0 / frame-packing=4 / ip_ratio=1.40 / pb_ratio=1.30 / aq=1:0.70
Language : English
Default : Yes
Forced : No

Audio #1
ID : 2
Format : AC-3
Format/Info : Audio Coding 3
Mode extension : CM (complete main)
Format settings, Endianness : Big
Codec ID : A_AC3
Duration : 2h 9mn
Bit rate mode : Constant
Bit rate : 640 Kbps
Channel(s) : 6 channels
Channel positions : Front: L C R, Side: L R, LFE
Sampling rate : 48.0 KHz
Bit depth : 16 bits
Compression mode : Lossy
Stream size : 592 MiB (6%)
Title : Дубляж - BD Eur
Language : Russian
Default : Yes
Forced : No

Audio #2
ID : 3
Format : AC-3
Format/Info : Audio Coding 3
Mode extension : CM (complete main)
Format settings, Endianness : Big
Codec ID : A_AC3
Duration : 2h 9mn
Bit rate mode : Constant
Bit rate : 640 Kbps
Channel(s) : 6 channels
Channel positions : Front: L C R, Side: L R, LFE
Sampling rate : 48.0 KHz
Bit depth : 16 bits
Compression mode : Lossy
Stream size : 592 MiB (6%)
Title : Original
Language : English
Default : No
Forced : No

Menu
00:00:00.000 : :1
00:04:36.276 : :2
00:08:06.526 : :3
00:08:06.528 : :4
00:11:18.259 : :5 / :6
00:15:21.543 : :7
00:15:21.546 : :8
00:18:57.384 : :9
00:25:05.921 : :10
00:31:41.566 : :11
00:36:08.708 : :12
00:42:32.257 : :13
00:47:01.318 : :14
00:54:44.989 : :15
01:00:43.556 : :16
01:07:40.931 : :17
01:14:38.221 : :18
01:14:38.224 : :199
01:19:43.694 : :20 / :21
01:22:02.751 : :22
01:28:53.368 : :23 / :24
01:34:01.301 : :25
01:38:10.175 : :26
01:38:10.176 : :27
01:45:23.692 : :28
01:49:13.962 : :29
01:55:54.197 : :30
01:58:49.497 : :31














Правила, инструкции, FAQ!!!
Торрент  Добавлен [25 июн 2017, 21:19] Скачать торрент Магнет ссылка
Скачать торрент
48.9 КБ

Статус
Проверен 
 
Размер  9.54 ГБ
Приватный: Нет (DHT включён)
.torrent скачан  966
Как залить торрент? | Как скачать Torrent? | Как смотреть и слушать онлайн?  
Гость
 



Вернуться в HD-Video в 3D

Кто сейчас на конференции

Сейчас этот форум просматривают: нет зарегистрированных пользователей и гости: 0