Крадущийся тигр, затаившийся дракон: Меч судьбы / Crouching Tiger, Hidden Dragon: Sword of Destiny (2016) BDRip 1080p | 3D-Video | hOU | L


Статистика раздачи
Размер: 7.22 ГБ | Добавлен: 16 сен 2017, 20:17 | Скачали: 37
Сидеров: 21  [0 байт/сек]    Личеров: 2  [0 байт/сек]

Сообщение Гость » 16 сен 2017, 20:17


Крадущийся тигр, затаившийся дракон: Меч судьбы
Crouching Tiger, Hidden Dragon: Sword of Destiny



#777Год выпуска: 2016
Страна: Китай, США (My Way Film Company Ltd., Honger Music Venture, H.K.Screen Art, China Film Co., Netflix, The Weinstein Company, Pegasus Pictures)
Жанр: Фэнтези, Боевик, Драма, Приключения
Продолжительность: 01:42:31

Перевод: Любительский многоголосый закадровый - Parovoz Production

Режиссер: Юэнь Воо-пин / Yuen Woo-ping



исполняли:



Meng Sizhao / Silent Wolf - Донни Йен
Yu Shu Lien - Мишель Йео
Wei Fang - Гарри Шам мл.
Snow Vase - Наташа Лью Бордиццо
Hades Dai - Джейсон Скотт Ли
Blind Enchantress - Евгения Йуан
Iron Crow - Роджер Йуан
Silver Dart Shi - Жужу Чан
Flying Blade - Крис Пэнг
Thunder Fist - Вун Янг Парк
Turtle Ma - Дэррил Квон
Mantis - Вероника Нго



Описание: История об утраченной любви, юной любви, легендарном мече и единственном шансе на спасение.



Премьера (мир): 18 февраля 2016





Качество: BDRip (by Ash61 from BD 3D Chinese)
Контейнер: MKV
Формат 3D: Half OverUnder / Вертикальная анаморфная стереопара
Порядок ракурсов: левый ракурс первый



Видео: AVC / 23,976 fps / 1920х1080p / 7958 Kbps

Аудио:
#1 - Русский / AC3 / 48 KHz / 5.1 ch / 640 Kbps (MVO - Parovoz Production) (сведЕние в 5.1 - Ash61)
#2 - Английский / AC3 / 48 KHz / 5.1 ch / 640 Kbps
#3 - Китайский / AC3 / 48 KHz / 5.1 ch / 640 Kbps (Original - BD 3D)

Субтитры (SRT):
Вшитые (softsub):
#1 - Русские Форсированные (включены по умолчанию) (непереведённые полфразы)

Внешние (UTF-8):
#1 - Русские Форсированные (включены по умолчанию) (непереведённые полфразы)

General
Unique ID : 237239673795772016165550900386274889853 (0xB27AB2FD32AB2A1EB121BDDA8FFE507D)
Complete name : E:CrouchingTiger,HiddenDragon.SwordOfDestiny(2016)3D-halfOU(Ash61)MVOCrouchingTiger,HiddenDragon.SwordOfDestiny(2016)3D-halfOU(Ash61)MVO.mkv
Format : Matroska
Format version : Version 2
File size : 7.22 GiB
Duration : 1h 42mn
Overall bit rate : 10.1 Mbps
Movie name : Крадущийся тигр, затаившийся дракон: Меч судьбы / Crouching Tiger, Hidden Dragon: Sword of Destiny (2016) в 3Д
Encoded date : UTC 2016-04-16 15:33:33
Writing application : mkvmerge v5.8.0 ('No Sleep / Pillow') built on Sep 2 2012 15:37:04
Writing library : libebml v1.2.3 + libmatroska v1.3.0

Video
ID : 1
Format : AVC
Format/Info : Advanced Video Codec
Format profile : High@L4.1
Format settings, CABAC : Yes
Format settings, ReFrames : 4 frames
Codec ID : V_MPEG4/ISO/AVC
Duration : 1h 42mn
Bit rate : 7 958 Kbps
Width : 1 920 pixels
Height : 1 080 pixels
Display aspect ratio : 16:9
Frame rate mode : Constant
Frame rate : 23.976 fps
Color space : YUV
Chroma subsampling : 4:2:0
Bit depth : 8 bits
Scan type : Progressive
Bits/(Pixel*Frame) : 0.160
Stream size : 5.70 GiB (79%)
Title : BDRip by Ash61
Writing library : x264 core 146 r2538 121396c
Encoding settings : cabac=1 / ref=4 / deblock=1:-3:-3 / analyse=0x3:0x113 / me=umh / subme=10 / psy=1 / psy_rd=1.00:0.00 / mixed_ref=1 / me_range=32 / chroma_me=1 / trellis=2 / 8x8dct=1 / cqm=0 / deadzone=21,11 / fast_pskip=1 / chroma_qp_offset=-2 / threads=12 / lookahead_threads=3 / sliced_threads=0 / nr=0 / decimate=1 / interlaced=0 / bluray_compat=0 / constrained_intra=0 / bframes=12 / b_pyramid=2 / b_adapt=2 / b_bias=0 / direct=3 / weightb=1 / open_gop=0 / weightp=2 / keyint=250 / keyint_min=23 / scenecut=40 / intra_refresh=0 / rc_lookahead=60 / rc=crf / mbtree=1 / crf=16.5 / qcomp=0.70 / qpmin=0 / qpmax=69 / qpstep=4 / vbv_maxrate=40000 / vbv_bufsize=30000 / crf_max=0.0 / nal_hrd=none / filler=0 / frame-packing=4 / ip_ratio=1.40 / aq=1:0.70
Language : Chinese
Default : Yes
Forced : No

Audio #1
ID : 2
Format : AC-3
Format/Info : Audio Coding 3
Mode extension : CM (complete main)
Format settings, Endianness : Big
Codec ID : A_AC3
Duration : 1h 42mn
Bit rate mode : Constant
Bit rate : 640 Kbps
Channel(s) : 6 channels
Channel positions : Front: L C R, Side: L R, LFE
Sampling rate : 48.0 KHz
Bit depth : 16 bits
Compression mode : Lossy
Stream size : 469 MiB (6%)
Title : Многоголосый закадровый - Parovoz Production (сведЕние в 5.1 - Ash61)
Language : Russian
Default : Yes
Forced : No

Audio #2
ID : 3
Format : AC-3
Format/Info : Audio Coding 3
Mode extension : CM (complete main)
Format settings, Endianness : Big
Codec ID : A_AC3
Duration : 1h 42mn
Bit rate mode : Constant
Bit rate : 640 Kbps
Channel(s) : 6 channels
Channel positions : Front: L C R, Side: L R, LFE
Sampling rate : 48.0 KHz
Bit depth : 16 bits
Compression mode : Lossy
Stream size : 469 MiB (6%)
Language : English
Default : No
Forced : No

Audio #3
ID : 4
Format : AC-3
Format/Info : Audio Coding 3
Mode extension : CM (complete main)
Format settings, Endianness : Big
Codec ID : A_AC3
Duration : 1h 42mn
Bit rate mode : Constant
Bit rate : 640 Kbps
Channel(s) : 6 channels
Channel positions : Front: L C R, Side: L R, LFE
Sampling rate : 48.0 KHz
Bit depth : 16 bits
Compression mode : Lossy
Stream size : 469 MiB (6%)
Title : Original - BD 3D
Language : Chinese
Default : No
Forced : No

Text
ID : 5
Format : UTF-8
Codec ID : S_TEXT/UTF8
Codec ID/Info : UTF-8 Plain Text
Title : Форсированные (на половину непереведённой фразы)
Language : Russian
Default : Yes
Forced : No

Menu
00:00:00.000 : :1
00:07:52.514 : :2
00:17:19.288 : :3
00:23:26.196 : :4
00:35:37.552 : :5
00:45:17.840 : :6
00:50:26.148 : :7
00:57:38.872 : :8
01:09:58.903 : :9
01:18:32.499 : :10
01:26:14.252 : :11
01:32:28.877 : :12














Правила, инструкции, FAQ!!!
Торрент  Добавлен [16 сен 2017, 20:17] Скачать торрент Магнет ссылка
Скачать торрент
37.23 КБ

Статус
Проверен 
 
Размер  7.22 ГБ
Приватный: Нет (DHT включён)
.torrent скачан  37
Как залить торрент? | Как скачать Torrent? | Как смотреть и слушать онлайн?  
Гость
 



Вернуться в HD-Video в 3D

Кто сейчас на конференции

Сейчас этот форум просматривают: нет зарегистрированных пользователей и гости: 3