Kiss - Дискография (31 альбом) (1974-2009) [FLAC|Lossless]<Hard Rock, Glam Rock>


Статистика раздачи
Размер: 14.06 ГБ | Добавлен: 29 окт 2016, 08:58 | Скачали: 5
Сидеров: 52  [0 байт/сек]    Личеров: 112  [0 байт/сек]

Сообщение Гость » 21 июл 2014, 10:43

Kiss - Дискография (31 альбом) (1974-2009)

Год: 1974-2009
Жанр: Hard Rock, Glam Rock
Кодек: FLAC
Битрейт: Lossless
Тип битрейта: CBR
Общая продолжительность: 32:41:26
#777Год: 1974
Жанр: Hard Rock, Glam Rock
Продолжительность: 00:33:17
Кодек: FLAC
Тип битрейта: CBR
Битрейт: 878

Трек лист:
01 - Got to Choose
02 - Parasite
03 - Goin' Blind
04 - Hotter Than Hell
05 - Let Me Go, Rock 'n' Roll
06 - All the Way
07 - Watchin' You
08 - Mainline
09 - Comin' Home
10 - Strange Ways
-===- E:\1\Kiss\1974 - Hotter Than Hell [Japanese]\Kiss - 1974 - Hotter Than Hell [Japanese].flac
Извлечение успешно выполнено
Заключение: этот трек - CDDA с вероятностью 99%
Временный файл удалён.
Exact Audio Copy V0.99 prebeta 3 from 28. July 2007

EAC extraction logfile from 14. January 2008, 22:34

Kiss / Hotter Than Hell

Used drive : PLEXTOR CD-R PX-W4012A Adapter: 3 ID: 0

Read mode : Secure
Utilize accurate stream : Yes
Defeat audio cache : Yes
Make use of C2 pointers : No

Read offset correction : 98
Overread into Lead-In and Lead-Out : Yes
Fill up missing offset samples with silence : Yes
Delete leading and trailing silent blocks : No
Null samples used in CRC calculations : Yes
Used interface : Installed external ASPI interface

Used output format : User Defined Encoder
Selected bitrate : 32 kBit/s
Quality : High
Add ID3 tag : No
Command line compressor : C:\Archivos de programa\Exact Audio Copy\wapet.exe
Additional command line options : %d -t "Artist=%a" -t "Title=%t" -t "Album=%g" -t "Year=%y" -t "Track=%n" -t "Genre=%m" mac.exe %s %d -c3000

TOC of the extracted CD

Track | Start | Length | Start sector | End sector
---------------------------------------------------------
1 | 0:00.00 | 3:54.42 | 0 | 17591
2 | 3:54.42 | 3:04.33 | 17592 | 31424
3 | 6:59.00 | 3:36.37 | 31425 | 47661
4 | 10:35.37 | 3:31.58 | 47662 | 63544
5 | 14:07.20 | 2:15.60 | 63545 | 73729
6 | 16:23.05 | 3:18.47 | 73730 | 88626
7 | 19:41.52 | 3:45.30 | 88627 | 105531
8 | 23:27.07 | 3:52.13 | 105532 | 122944
9 | 27:19.20 | 2:39.25 | 122945 | 134894
10 | 29:58.45 | 3:18.55 | 134895 | 149799

Range status and errors

Selected range

Filename C:\RIPEOS EAC\Kiss - Hotter Than Hell.wav

Peak level 100.0 %
Range quality 99.9 %
Test CRC 4D53C53E
Copy CRC 4D53C53E
Copy OK

No errors occurred

End of status report
:]#777Год: 1974
Жанр: Hard Rock, Glam Rock
Продолжительность: 00:35:23
Кодек: FLAC
Тип битрейта: CBR
Битрейт: 956

Трек лист:
01 - Strutter
02 - Nothin' To Lose
03 - Firehouse
04 - Cold Gin
05 - Let Me Know
06 - Kissin' Time
07 - Deuce
08 - Love Theme From Kiss
09 - 100,000 Years
10 - Black Diamond
-===- E:\1\Kiss\1974 - Kiss [Japanese]\Kiss - 1974 - Kiss [Japanese].flac
Извлечение успешно выполнено
Заключение: этот трек - CDDA с вероятностью 100%
Временный файл удалён.
Exact Audio Copy V0.99 prebeta 3 from 28. July 2007

EAC extraction logfile from 13. January 2008, 11:21

Kiss / Kiss

Used drive : PLEXTOR CD-R PREMIUM Adapter: 1 ID: 0

Read mode : Secure
Utilize accurate stream : Yes
Defeat audio cache : Yes
Make use of C2 pointers : No

Read offset correction : 30
Overread into Lead-In and Lead-Out : Yes
Fill up missing offset samples with silence : Yes
Delete leading and trailing silent blocks : No
Null samples used in CRC calculations : Yes
Used interface : Installed external ASPI interface

Used output format : User Defined Encoder
Selected bitrate : 32 kBit/s
Quality : High
Add ID3 tag : No
Command line compressor : C:\Archivos de programa\Exact Audio Copy\wapet.exe
Additional command line options : %d -t "Artist=%a" -t "Title=%t" -t "Album=%g" -t "Year=%y" -t "Track=%n" -t "Genre=%m" mac.exe %s %d -c3000

TOC of the extracted CD

Track | Start | Length | Start sector | End sector
---------------------------------------------------------
1 | 0:00.00 | 3:13.37 | 0 | 14511
2 | 3:13.37 | 3:26.73 | 14512 | 30034
3 | 6:40.35 | 3:18.47 | 30035 | 44931
4 | 9:59.07 | 4:22.53 | 44932 | 64634
5 | 14:21.60 | 2:59.65 | 64635 | 78124
6 | 17:21.50 | 3:53.45 | 78125 | 95644
7 | 21:15.20 | 3:06.02 | 95645 | 109596
8 | 24:21.22 | 2:24.53 | 109597 | 120449
9 | 26:46.00 | 3:23.37 | 120450 | 135711
10 | 30:09.37 | 5:13.53 | 135712 | 159239

Range status and errors

Selected range

Filename C:\RIPEOS EAC\Kiss - Kiss.wav

Peak level 100.0 %
Range quality 99.9 %
Test CRC 61F76011
Copy CRC 61F76011
Copy OK

No errors occurred

End of status report
#777Год: 1975
Жанр: Hard Rock, Glam Rock
Продолжительность: 00:30:15
Кодек: FLAC
Тип битрейта: CBR
Битрейт: 969

Трек лист:
01 - Room Service
02 - Two Timer
03 - Ladies In Waiting
04 - Getaway
05 - Rock Bottom
06 - C'mon And Love Me
07 - Anything For My Baby
08 - She
09 - Love Her All I Can
10 - Rock And Roll All Nite
-===- E:\1\Kiss\1975 - Dressed To Kill [Japanese]\Kiss - 1975 - Dressed To Kill [Japanese].flac
Извлечение успешно выполнено
Заключение: этот трек - CDDA с вероятностью 100%
Временный файл удалён.
Exact Audio Copy V0.99 prebeta 3 from 28. July 2007

EAC extraction logfile from 14. January 2008, 15:30

Kiss / Dressed To Kill

Used drive : PLEXTOR CD-R PX-W4012A Adapter: 3 ID: 0

Read mode : Secure
Utilize accurate stream : Yes
Defeat audio cache : Yes
Make use of C2 pointers : No

Read offset correction : 98
Overread into Lead-In and Lead-Out : Yes
Fill up missing offset samples with silence : Yes
Delete leading and trailing silent blocks : No
Null samples used in CRC calculations : Yes
Used interface : Installed external ASPI interface

Used output format : User Defined Encoder
Selected bitrate : 32 kBit/s
Quality : High
Add ID3 tag : No
Command line compressor : C:\Archivos de programa\Exact Audio Copy\wapet.exe
Additional command line options : %d -t "Artist=%a" -t "Title=%t" -t "Album=%g" -t "Year=%y" -t "Track=%n" -t "Genre=%m" mac.exe %s %d -c3000

TOC of the extracted CD

Track | Start | Length | Start sector | End sector
---------------------------------------------------------
1 | 0:00.00 | 3:00.12 | 0 | 13511
2 | 3:00.12 | 2:49.00 | 13512 | 26186
3 | 5:49.12 | 2:33.30 | 26187 | 37691
4 | 8:22.42 | 2:43.55 | 37692 | 49971
5 | 11:06.22 | 3:55.35 | 49972 | 67631
6 | 15:01.57 | 2:58.18 | 67632 | 80999
7 | 18:00.00 | 2:35.45 | 81000 | 92669
8 | 20:35.45 | 4:09.00 | 92670 | 111344
9 | 24:44.45 | 2:41.30 | 111345 | 123449
10 | 27:26.00 | 2:49.02 | 123450 | 136126

Range status and errors

Selected range

Filename C:\RIPEOS EAC\Kiss - Dressed To Kill.wav

Peak level 100.0 %
Range quality 99.9 %
Test CRC B1707B73
Copy CRC B1707B73
Copy OK

No errors occurred

End of status report
#777Год: 1976
Жанр: Hard Rock, Glam Rock
Продолжительность: 00:34:29
Кодек: FLAC
Тип битрейта: CBR
Битрейт: 910

Трек лист:
01 - Detroit Rock City
02 - King Of The Night Time World
03 - God Of Thunder
04 - Great Expectations
05 - Flaming Youth
06 - Sweet Pain
07 - Shout It Out Loud
08 - Beth
09 - Do You Love Me
10 - Bonus Track
-===- E:\1\Kiss\1976 - Destroyer [Japanese]\Kiss - 1976 - Destroyer [Japanese].flac
Извлечение успешно выполнено
Заключение: этот трек - CDDA с вероятностью 100%
Временный файл удалён.
Exact Audio Copy V0.99 prebeta 3 from 28. July 2007

EAC extraction logfile from 13. January 2008, 21:29

Kiss / Destroyer

Used drive : PLEXTOR CD-R PX-W4012A Adapter: 3 ID: 0

Read mode : Secure
Utilize accurate stream : Yes
Defeat audio cache : Yes
Make use of C2 pointers : No

Read offset correction : 98
Overread into Lead-In and Lead-Out : Yes
Fill up missing offset samples with silence : Yes
Delete leading and trailing silent blocks : No
Null samples used in CRC calculations : Yes
Used interface : Installed external ASPI interface

Used output format : User Defined Encoder
Selected bitrate : 32 kBit/s
Quality : High
Add ID3 tag : No
Command line compressor : C:\Archivos de programa\Exact Audio Copy\wapet.exe
Additional command line options : %d -t "Artist=%a" -t "Title=%t" -t "Album=%g" -t "Year=%y" -t "Track=%n" -t "Genre=%m" mac.exe %s %d -c3000

TOC of the extracted CD

Track | Start | Length | Start sector | End sector
---------------------------------------------------------
1 | 0:00.00 | 5:18.12 | 0 | 23861
2 | 5:18.12 | 3:21.03 | 23862 | 38939
3 | 8:39.15 | 4:17.15 | 38940 | 58229
4 | 12:56.30 | 4:24.37 | 58230 | 78066
5 | 17:20.67 | 3:00.45 | 78067 | 91611
6 | 20:21.37 | 3:21.38 | 91612 | 106724
7 | 23:43.00 | 2:50.67 | 106725 | 119541
8 | 26:33.67 | 2:49.45 | 119542 | 132261
9 | 29:23.37 | 3:40.35 | 132262 | 148796
10 | 33:03.72 | 1:25.25 | 148797 | 155196

Range status and errors

Selected range

Filename C:\RIPEOS EAC\Kiss - Destroyer.wav

Peak level 100.0 %
Range quality 100.0 %
Test CRC D78949B4
Copy CRC D78949B4
Copy OK

No errors occurred

End of status report
#777Год: 1976
Жанр: Hard Rock, Glam Rock
Продолжительность: 00:33:36
Кодек: FLAC
Тип битрейта: CBR
Битрейт: 982

Трек лист:
01 - I Want You
02 - Take Me
03 - Calling Dr. Love
04 - Ladies Room
05 - Baby Driver
06 - Love 'em And Leave 'em
07 - Mr. Speed
08 - See You In Your Dreams
09 - Hard Luck Woman
10 - Makin' Love
-===- E:\1\Kiss\1976 - Rock And Roll Over [Japanese]\Kiss - 1976 - Rock And Roll Over [Japanese].flac
Извлечение успешно выполнено
Заключение: этот трек - CDDA с вероятностью 100%
Временный файл удалён.
EAC extraction logfile from 22. December 2006, 14:06 for CD
Kiss / Rock And Roll Over

Used drive : PLEXTOR CD-R PREMIUM Adapter: 1 ID: 0
Read mode : Secure with NO C2, accurate stream, disable cache
Read offset correction : 30
Overread into Lead-In and Lead-Out : Yes

Used output format : C:\Archivos de programa\Exact Audio Copy\wavpack.exe (User Defined Encoder)
128 kBit/s
Additional command line options : -hm -w "Cuesheet=@*.cue" -w "Artist=%a" -w "Album=%g" -w "Year=%y" -w "Genre=%m" %s %d

Other options :
Fill up missing offset samples with silence : Yes
Delete leading and trailing silent blocks : No
Installed external ASPI interface

Range status and errors
Selected range
Filename C:\RIPEOS EAC\Kiss - Rock And Roll Over.wav.wav

Peak level 100.0 %
Range quality 100.0 %
CRC 532ABBB0
Copy OK

No errors occured

End of status report
#777Год: 1977
Жанр: Hard Rock, Glam Rock
Продолжительность: 00:32:55
Кодек: FLAC
Тип битрейта: CBR
Битрейт: 965

Трек лист:
01 - I Stole Your Love
02 - Christine Sixteen
03 - Got Love for Sale
04 - Shock Me
05 - Tomorrow and Tonight
06 - Love Gun
07 - Hooligan
08 - Almost Human
09 - Plaster Caster
10 - Then She Kissed Me
-===- E:\1\Kiss\1977 - Love Gun [Japanese]\Kiss - 1977 - Love Gun [Japanese].flac
Извлечение успешно выполнено
Заключение: этот трек - CDDA с вероятностью 100%
Временный файл удалён.
Exact Audio Copy V0.99 prebeta 3 from 28. July 2007

EAC extraction logfile from 13. January 2008, 13:11

Kiss / Love Gun

Used drive : PLEXTOR CD-R PREMIUM Adapter: 1 ID: 0

Read mode : Secure
Utilize accurate stream : Yes
Defeat audio cache : Yes
Make use of C2 pointers : No

Read offset correction : 30
Overread into Lead-In and Lead-Out : Yes
Fill up missing offset samples with silence : Yes
Delete leading and trailing silent blocks : No
Null samples used in CRC calculations : Yes
Used interface : Installed external ASPI interface

Used output format : User Defined Encoder
Selected bitrate : 32 kBit/s
Quality : High
Add ID3 tag : No
Command line compressor : C:\Archivos de programa\Exact Audio Copy\wapet.exe
Additional command line options : %d -t "Artist=%a" -t "Title=%t" -t "Album=%g" -t "Year=%y" -t "Track=%n" -t "Genre=%m" mac.exe %s %d -c3000

TOC of the extracted CD

Track | Start | Length | Start sector | End sector
---------------------------------------------------------
1 | 0:00.00 | 3:05.12 | 0 | 13886
2 | 3:05.12 | 3:14.40 | 13887 | 28476
3 | 6:19.52 | 3:28.30 | 28477 | 44106
4 | 9:48.07 | 3:48.50 | 44107 | 61256
5 | 13:36.57 | 3:39.68 | 61257 | 77749
6 | 17:16.50 | 3:18.52 | 77750 | 92651
7 | 20:35.27 | 3:00.63 | 92652 | 106214
8 | 23:36.15 | 2:48.45 | 106215 | 118859
9 | 26:24.60 | 3:28.05 | 118860 | 134464
10 | 29:52.65 | 3:02.37 | 134465 | 148151

Range status and errors

Selected range

Filename C:\RIPEOS EAC\Kiss - Love Gun.wav

Peak level 100.0 %
Range quality 100.0 %
Test CRC F5723ACC
Copy CRC F5723ACC
Copy OK

No errors occurred

End of status report
#777Год: 1978
Жанр: Hard Rock, Glam Rock
Продолжительность: 01:09:45
Кодек: FLAC
Тип битрейта: CBR
Битрейт: 971

Трек лист:
01 - Strutter '78
02 - Do You Love Me
03 - Hard Luck Woman
04 - Calling Dr. Love
05 - Let Me Go, Rock 'n' Roll
06 - Love Gun
07 - God Of Thunder
08 - Firehouse
09 - Hotter Than Hell
10 - I Want You
11 - Deuce
12 - 100,000 Years
13 - Detroit Rock City
14 - Rock Bottom (intro.)/She
15 - Rock And Roll All Nite
16 - Beth
17 - Makin' Love
18 - C'mon And Love Me
19 - Cold Gin
20 - Black Diamond
-===- E:\1\Kiss\1978 - Double Platinum [Japanese]\Kiss - 1978 - Double Platinum [Japanese].flac
Извлечение успешно выполнено
Заключение: этот трек - CDDA с вероятностью 99%
Временный файл удалён.
Exact Audio Copy V0.99 prebeta 3 from 28. July 2007

EAC extraction logfile from 13. January 2008, 19:12

Kiss / Double Platinum

Used drive : PLEXTOR CD-R PX-W4012A Adapter: 3 ID: 0

Read mode : Secure
Utilize accurate stream : Yes
Defeat audio cache : Yes
Make use of C2 pointers : No

Read offset correction : 98
Overread into Lead-In and Lead-Out : Yes
Fill up missing offset samples with silence : Yes
Delete leading and trailing silent blocks : No
Null samples used in CRC calculations : Yes
Used interface : Installed external ASPI interface

Used output format : User Defined Encoder
Selected bitrate : 32 kBit/s
Quality : High
Add ID3 tag : No
Command line compressor : C:\Archivos de programa\Exact Audio Copy\wapet.exe
Additional command line options : %d -t "Artist=%a" -t "Title=%t" -t "Album=%g" -t "Year=%y" -t "Track=%n" -t "Genre=%m" mac.exe %s %d -c3000

TOC of the extracted CD

Track | Start | Length | Start sector | End sector
---------------------------------------------------------
1 | 0:00.00 | 3:43.67 | 0 | 16791
2 | 3:43.67 | 3:34.38 | 16792 | 32879
3 | 7:18.30 | 3:23.50 | 32880 | 48154
4 | 10:42.05 | 3:19.45 | 48155 | 63124
5 | 14:01.50 | 2:16.07 | 63125 | 73331
6 | 16:17.57 | 3:17.03 | 73332 | 88109
7 | 19:34.60 | 4:14.57 | 88110 | 107216
8 | 23:49.42 | 3:20.33 | 107217 | 122249
9 | 27:10.00 | 3:31.52 | 122250 | 138126
10 | 30:41.52 | 3:04.05 | 138127 | 151931
11 | 33:45.57 | 3:03.23 | 151932 | 165679
12 | 36:49.05 | 3:22.70 | 165680 | 180899
13 | 40:12.00 | 3:36.00 | 180900 | 197099
14 | 43:48.00 | 5:28.00 | 197100 | 221699
15 | 49:16.00 | 2:49.12 | 221700 | 234386
16 | 52:05.12 | 2:46.33 | 234387 | 246869
17 | 54:51.45 | 3:14.67 | 246870 | 261486
18 | 58:06.37 | 2:58.00 | 261487 | 274836
19 | 61:04.37 | 4:23.13 | 274837 | 294574
20 | 65:27.50 | 4:17.52 | 294575 | 313901

Range status and errors

Selected range

Filename C:\RIPEOS EAC\Kiss - Double Platinum.wav

Peak level 100.0 %
Range quality 100.0 %
Test CRC CAB9CACC
Copy CRC CAB9CACC
Copy OK

No errors occurred

End of status report
#777Год: 1978
Жанр: Hard Rock, Glam Rock
Продолжительность: 00:36:49
Кодек: FLAC
Тип битрейта: CBR
Битрейт: 987

Трек лист:
01 - Rip It Out
02 - Speedin' Back To My Baby
03 - Snow Blind
04 - Ozone
05 - What's On Your Mind?
06 - New York Groove
07 - I'm In Need Of Love
08 - Wiped-Out
09 - Fractured Mirror
-===- E:\1\Kiss\1978 - Frehley Ace [The Remasters]\Kiss - 1978 - Frehley Ace [The Remasters].flac
Извлечение успешно выполнено
Заключение: этот трек - CDDA с вероятностью 100%
Временный файл удалён.
EAC extraction logfile from 12. February 2006, 16:00 for CD
KISS / Ace Frehley (Remastered)

Used drive : COMPAQ DVD-ROM GD-8000 Adapter: 1 ID: 0
Read mode : Secure with NO C2, accurate stream, disable cache
Read offset correction : 667
Overread into Lead-In and Lead-Out : No

Used output format : Internal WAV Routines
44.100 Hz; 16 Bit; Stereo
Use compression offset : 0

Other options :
Fill up missing offset samples with silence : Yes
Delete leading and trailing silent blocks : No
Native Win32 interface for Win NT & 2000

Range status and errors
Selected range
Filename D:
\Audio\FLAC\Kiss - 1978 - Ace Frehley (Remastered)\
KISS - Ace Frehley (Remastered).wav

Peak level 100.0 %
Range quality 100.0 %
CRC E4DA5882
Copy OK

No errors occured

End of status report
#777Год: 1978
Жанр: Hard Rock, Glam Rock
Продолжительность: 00:39:02
Кодек: FLAC
Тип битрейта: CBR
Битрейт: 931

Трек лист:
01 - Radioactive
02 - Burning Up With Fever
03 - See You Tonite
04 - Tunnel Of Love
05 - True Confessions
06 - Living In Sin
07 - Always Near You / Nowhere To Hide
08 - Man Of 1,000 Faces
09 - Mr. Make Believe
10 - See You In Your Dreams
11 - When You Wish Upon A Star
-===- E:\1\Kiss\1978 - Gene Simmons [The Remasters]\Kiss - 1978 - Gene Simmons [The Remasters].flac
Извлечение успешно выполнено
Заключение: этот трек - CDDA с вероятностью 100%
Временный файл удалён.
EAC extraction logfile from 19. March 2007, 19:35 for CD
KISS / Gene Simmons [The Remasters]

Used drive : _NEC DVD_RW ND-3540A Adapter: 0 ID: 1
Read mode : Burst
Read offset correction : 0
Overread into Lead-In and Lead-Out : No

Used output format : Internal WAV Routines
44.100 Hz; 16 Bit; Stereo

Other options :
Fill up missing offset samples with silence : Yes
Delete leading and trailing silent blocks : No
Native Win32 interface for Win NT & 2000

Range status and errors
Selected range
Filename D:\Shared Files\Kiss [1978, 1997] Gene Simmons (The Remasters) [CD Image] + scans [EAC-APE] by twin 2\Kiss - Gene Simmons.wav

Peak level 100.0 %
CRC 1F60F815
Copy OK

No errors occured

End of status report
#777Год: 1978
Жанр: Hard Rock, Glam Rock
Продолжительность: 00:35:28
Кодек: FLAC
Тип битрейта: CBR
Битрейт: 937

Трек лист:
01 - Tonight You Belong To Me
02 - Move On
03 - Ain't Quite Right
04 - Wouldn't You Like To Know Me
05 - Take Me Away (Together As One)
06 - It's Alright
07 - Hold Me, Touch Me (Think Of Me When We're Apart)
08 - Love In Chains
09 - Goodbye
-===- E:\1\Kiss\1978 - Paul Stanley [The Remasters]\Paul Stanley - 1978 - Paul Stanley [The Remasters].flac
Извлечение успешно выполнено
Заключение: этот трек - CDDA с вероятностью 99%
Временный файл удалён.
EAC extraction logfile from 11. October 2006, 19:02 for CD
KISS / Paul Stanley

Used drive : _NEC DVD_RW ND-2510A Adapter: 1 ID: 0
Read mode : Secure with NO C2, accurate stream, disable cache
Read offset correction : 48
Overread into Lead-In and Lead-Out : No

Used output format : Internal WAV Routines
44.100 Hz; 16 Bit; Stereo

Other options :
Fill up missing offset samples with silence : Yes
Delete leading and trailing silent blocks : No
Installed external ASPI interface

Range status and errors
Selected range
Filename C:\Documents and Settings\Pasha\Мои документы\KISS\Paul Stanley\CDImage.wav

Peak level 100.0 %
Range quality 99.9 %
CRC 2369FB11
Copy OK

No errors occured

End of status report
#777Год: 1978
Жанр: Hard Rock, Glam Rock
Продолжительность: 00:35:12
Кодек: FLAC
Тип битрейта: CBR
Битрейт: 917

Трек лист:
01 - I'm Gonna Love You
02 - You Matter To Me
03 - Tossin' And Turnin'
04 - Don't You Let Me Down
05 - That's The Kind Of Sugar Papa Likes
06 - Easy Thing
07 - Rock Me, Baby
08 - KISS The Girl Goodbye
09 - Hooked On Rock 'N' Roll
10 - I Can't Stop The Rain
-===- E:\1\Kiss\1978 - Peter Criss [The Remasters]\Kiss - 1978 - Peter Criss [The Remasters].flac
Извлечение успешно выполнено
Заключение: этот трек - CDDA с вероятностью 100%
Временный файл удалён.
EAC extraction logfile from 19. March 2007, 19:50 for CD
KISS / Peter Criss [The Remasters]

Used drive : _NEC DVD_RW ND-3540A Adapter: 0 ID: 1
Read mode : Burst
Read offset correction : 0
Overread into Lead-In and Lead-Out : No

Used output format : Internal WAV Routines
44.100 Hz; 16 Bit; Stereo

Other options :
Fill up missing offset samples with silence : Yes
Delete leading and trailing silent blocks : No
Native Win32 interface for Win NT & 2000

Range status and errors
Selected range
Filename D:\Shared Files\Kiss [1978, 1997] Peter Criss (The Remasters) [CD Image] + scans [EAC-APE] by twin 2\KISS - Peter Criss [The Remasters].wav

Peak level 100.0 %
CRC A9416935
Copy OK

No errors occured

End of status report
#777Год: 1979
Жанр: Hard Rock, Glam Rock
Продолжительность: 00:39:06
Кодек: FLAC
Тип битрейта: CBR
Битрейт: 956

Трек лист:
01 - I Was Made For Lovin' You
02 - 2,000 Man
03 - Sure Know Something
04 - Dirty Livin'
05 - Charisma
06 - Magic Touch
07 - Hard Times
08 - X-ray Eyes
09 - Save Your Love
-===- E:\1\Kiss\1979 - Dynasty [Japanese]\Kiss - 1979 - Dynasty [Japanese].flac
Извлечение успешно выполнено
Заключение: этот трек - CDDA с вероятностью 100%
Временный файл удалён.
Exact Audio Copy V0.99 prebeta 3 from 28. July 2007

EAC extraction logfile from 13. January 2008, 20:11

Kiss / Dynasty

Used drive : PLEXTOR CD-R PX-W4012A Adapter: 3 ID: 0

Read mode : Secure
Utilize accurate stream : Yes
Defeat audio cache : Yes
Make use of C2 pointers : No

Read offset correction : 98
Overread into Lead-In and Lead-Out : Yes
Fill up missing offset samples with silence : Yes
Delete leading and trailing silent blocks : No
Null samples used in CRC calculations : Yes
Used interface : Installed external ASPI interface

Used output format : User Defined Encoder
Selected bitrate : 32 kBit/s
Quality : High
Add ID3 tag : No
Command line compressor : C:\Archivos de programa\Exact Audio Copy\wapet.exe
Additional command line options : %d -t "Artist=%a" -t "Title=%t" -t "Album=%g" -t "Year=%y" -t "Track=%n" -t "Genre=%m" mac.exe %s %d -c3000

TOC of the extracted CD

Track | Start | Length | Start sector | End sector
---------------------------------------------------------
1 | 0:00.00 | 4:33.50 | 0 | 20524
2 | 4:33.50 | 4:56.67 | 20525 | 42791
3 | 9:30.42 | 4:01.38 | 42792 | 60904
4 | 13:32.05 | 4:27.70 | 60905 | 80999
5 | 18:00.00 | 4:25.67 | 81000 | 100941
6 | 22:25.67 | 4:41.65 | 100942 | 122081
7 | 27:07.57 | 3:31.48 | 122082 | 137954
8 | 30:39.30 | 3:46.07 | 137955 | 154911
9 | 34:25.37 | 4:40.43 | 154912 | 175954

Range status and errors

Selected range

Filename C:\RIPEOS EAC\Kiss - Dynasty.wav

Peak level 100.0 %
Range quality 100.0 %
Copy CRC 6CAB6267
Copy OK

No errors occurred

End of status report
#777Год: 1980
Жанр: Hard Rock, Glam Rock
Продолжительность: 00:40:09
Кодек: FLAC
Тип битрейта: CBR
Битрейт: 981

Трек лист:
01 - Is That You?
02 - Shandi
03 - Talk To Me
04 - Naked City
05 - What Makes The World Go 'round
06 - Tomorrow
07 - Two Sides Of The Coin
08 - She's So European
09 - Easy As It Seems
10 - Torpedo Girl
11 - You're All That I Want
-===- E:\1\Kiss\1980 - Unmasked [The Remasters]\Kiss - 1980 - Unmasked [The Remasters].flac
Извлечение успешно выполнено
Заключение: этот трек - CDDA с вероятностью 100%
Временный файл удалён.
EAC extraction logfile from 19. November 2005, 22:23 for CD
KISS / Unmasked (Remastered)

Used drive : PLEXTOR CD-R PREMIUM Adapter: 1 ID: 0
Read mode : Secure with NO C2, accurate stream, disable cache
Combined read/write offset correction : 30
Overread into Lead-In and Lead-Out : No

Used output format : C:\Archivos de programa\Monkey's Audio\MAC.exe (Monkey's Audio Lossless Encoder)
High Lossless Compression

Other options :
Fill up missing offset samples with silence : Yes
Delete leading and trailing silent blocks : No
Installed external ASPI interface

Range status and errors
Selected range
Filename C:\KISS - Unmasked (Remastered).wav

Peak level 100.0 %
Range quality 100.0 %
CRC 77ABC7E5
Copy OK

No errors occured

End of status report
#777Год: 1981
Жанр: Hard Rock, Glam Rock
Продолжительность: 00:42:52
Кодек: FLAC
Тип битрейта: CBR
Битрейт: 893

Трек лист:
01 - Fanfare
02 - Just A Boy
03 - Odyssey
04 - Only You
05 - Under The Rose
06 - Dark Light
07 - A World Without Heroes
08 - The Oath
09 - Mr.Blackwell
10 - Escape From The Island
11 - I
-===- E:\1\Kiss\1981 - Music From The Elder [The Remasters]\Kiss - 1981 - Music From The Elder [The Remasters].flac
Извлечение успешно выполнено
Заключение: этот трек - CDDA с вероятностью 100%
Временный файл удалён.
EAC extraction logfile from 12. November 2005, 11:35 for CD
Kiss / Music From The Elder

Used drive : PLEXTOR CD-R PREMIUM Adapter: 1 ID: 0
Read mode : Secure with NO C2, accurate stream, disable cache
Combined read/write offset correction : 30
Overread into Lead-In and Lead-Out : No

Used output format : C:\Archivos de programa\Monkey's Audio\MAC.exe (Monkey's Audio Lossless Encoder)
High Lossless Compression

Other options :
Fill up missing offset samples with silence : Yes
Delete leading and trailing silent blocks : No
Installed external ASPI interface

Range status and errors
Selected range
Filename C:\Kiss - Music From The Elder.wav

Peak level 100.0 %
Range quality 100.0 %
CRC 72169767
Copy OK

No errors occured

End of status report
#777Год: 1982
Жанр: Hard Rock, Glam Rock
Продолжительность: 00:38:54
Кодек: FLAC
Тип битрейта: CBR
Битрейт: 1029

Трек лист:
01 - Creatures Of The Night
02 - Saint And Sinner
03 - Keep Me Comin'
04 - Rock And Roll Hell
05 - Danger
06 - I Love It Loud
07 - I Still Love You
08 - Killer
09 - War Machine
-===- E:\1\Kiss\1982 - Creatures Of The Night [The Remasters]\Kiss - 1982 - Creatures Of The Night [The Remasters].flac
Извлечение успешно выполнено
Заключение: этот трек - CDDA с вероятностью 100%
Временный файл удалён.
EAC extraction logfile from 5. October 2006, 21:45 for CD
Kiss / Creatures Of The Night

Used drive : HL-DT-STDVDRAM GSA-4167B Adapter: 1 ID: 0
Read mode : Secure with NO C2, accurate stream, disable cache
Read offset correction : 667
Overread into Lead-In and Lead-Out : No

Used output format : C:\Archivos de programa\Exact Audio Copy\FLAC.EXE (User Defined Encoder)
192 kBit/s
Additional command line options : -6 -V -T "artist=%a" -T "title=%t" -T "album=%g" -T "date=%y" -T "tracknumber=%n" -T "genre=%m" -T "comment=EAC 0.9beta4 / FLAC 1.1.0 q6" %s

Other options :
Fill up missing offset samples with silence : Yes
Delete leading and trailing silent blocks : No
Installed external ASPI interface

Range status and errors
Selected range
Filename C:\Documents and Settings\usuario\Mis documentos\My Music\KISS.[1982].[CD].CREATURES OF THE NIGHT 1997 REMASTER.[EAC-FLAC]. BY aTaNBeS.[MeTaLMaDNeSS]\CREATURES OF THE NIGHT\CDImage.Flac.wav

Peak level 100.0 %
Range quality 100.0 %
CRC 8CABFBC1
Copy OK

No errors occured

End of status report
#777Год: 1983
Жанр: Hard Rock, Glam Rock
Продолжительность: 00:41:33
Кодек: FLAC
Тип битрейта: CBR
Битрейт: 1009

Трек лист:
01 - Exciter
02 - Not For The Innocent
03 - Lick It Up
04 - Young And Wasted
05 - Gimme More
06 - All Hell's Breakin' Loose
07 - A Million To One
08 - Fits Like A Glove
09 - Dance All Over Your Face
10 - And On The 8Th Day
-===- E:\1\Kiss\1983 - Lick It Up [The Remasters]\Kiss - 1983 - Lick It Up [The Remasters].flac
Извлечение успешно выполнено
Заключение: этот трек - CDDA с вероятностью 100%
Временный файл удалён.
EAC extraction logfile from 19. March 2007, 19:29 for CD
KISS / Lick It Up [The Remasters]

Used drive : _NEC DVD_RW ND-3540A Adapter: 0 ID: 1
Read mode : Burst
Read offset correction : 0
Overread into Lead-In and Lead-Out : No

Used output format : Internal WAV Routines
44.100 Hz; 16 Bit; Stereo

Other options :
Fill up missing offset samples with silence : Yes
Delete leading and trailing silent blocks : No
Native Win32 interface for Win NT & 2000

Range status and errors
Selected range
Filename D:\Shared Files\Kiss [1983, 1998] Lick It Up (The Remasters) [CD Image] + scans [EAC-APE] by twin 2\Kiss - Lick It Up.wav

Peak level 99.8 %
CRC DE053F09
Copy OK

No errors occured

End of status report
#777Год: 1984
Жанр: Hard Rock, Glam Rock
Продолжительность: 00:36:06
Кодек: FLAC
Тип битрейта: CBR
Битрейт: 1030

Трек лист:
01 - I've Had Enough (Into The Fire)
02 - Heaven's On Fire
03 - Burn Bitch Burn
04 - Get All You Can Take
05 - Lonely Is The Hunter
06 - Under The Gun
07 - Thrills In The Night
08 - While The City Sleeps
09 - Murder In High Heels
-===- E:\1\Kiss\1984 - Animalize [The Remasters]\Kiss - 1984 - Animalize [The Remasters].flac
Извлечение успешно выполнено
Заключение: этот трек - CDDA с вероятностью 100%
Временный файл удалён.
Exact Audio Copy V0.99 prebeta 3 from 28. July 2007

Отчёт EAC об извлечении, выполненном 14. ноября 2007, 14:33

Kiss / Animalize

Дисковод: _NEC DVD_RW ND-3550A Adapter: 1 ID: 0

Режим чтения : Достоверность
Использование точного потока : Да
Отключение кэша аудио : Да
Использование указателей C2 : Нет

Коррекция смещения при чтении : 48
Способность читать области Lead-in и Lead-out : Нет
Заполнение пропущенных сэмплов тишиной : Да
Удаление блоков с тишиной в начале и конце : Нет
При вычислениях CRC использовались нулевые сэмплы : Да
Интерфейс : Установленный внешний ASPI-интерфейс

Выходной формат : Внутренние WAV-операции
Формат сэмплов : 44.100 Гц; 16 бит; стерео

TOC извлечённого CD

Трек | Старт | Длительность | Начальный сектор | Конечный сектор
---------------------------------------------------------------------
1 | 0:00.00 | 3:52.02 | 0 | 17401
2 | 3:52.02 | 3:21.30 | 17402 | 32506
3 | 7:13.32 | 4:42.55 | 32507 | 53711
4 | 11:56.12 | 3:44.05 | 53712 | 70516
5 | 15:40.17 | 4:28.35 | 70517 | 90651
6 | 20:08.52 | 4:01.45 | 90652 | 108771
7 | 24:10.22 | 4:21.33 | 108772 | 128379
8 | 28:31.55 | 3:41.32 | 128380 | 144986
9 | 32:13.12 | 3:52.70 | 144987 | 162456

Характеристики диапазона извлечения и сообщения об ошибках

Выбранный диапазон

Имя файла F:\animalize\Kiss - Animalize.wav

Пиковый уровень 99.8 %
Качество диапазона 99.9 %
CRC копии 718DA2F7
Копирование... OK

Ошибок не произошло
#777Год: 1985
Жанр: Hard Rock, Glam Rock
Продолжительность: 00:38:54
Кодек: FLAC
Тип битрейта: CBR
Битрейт: 918

Трек лист:
01 - King Of The Mountain
02 - Any Way You Slice It
03 - Who Wants To Be Lonely
04 - Trial By Fire
05 - I'm Alive
06 - Love's A Deadly Weapon
07 - Tears Are Falling
08 - Secretly Cruel
09 - Radar For Love
10 - Uh! All Night
-===- E:\1\Kiss\1985 - Asylum\Kiss - 1985 - Asylum.flac
Извлечение успешно выполнено
Заключение: этот трек - CDDA с вероятностью 99%
Временный файл удалён.
EAC extraction logfile from 5. May 2007, 11:07 for CD
Kiss / Asylum

Used drive : _NEC DVD_RW ND-4571A Adapter: 3 ID: 0
Read mode : Secure with NO C2, accurate stream, disable cache
Read offset correction : 48
Overread into Lead-In and Lead-Out : No

Used output format : C:\Program Files\Exact Audio Copy\MAC.exe (Monkey's Audio Lossless Encoder)
High Lossless Compression

Other options :
Fill up missing offset samples with silence : Yes
Delete leading and trailing silent blocks : No
Native Win32 interface for Win NT & 2000

Range status and errors
Selected range
Filename F:\eac-0.95b3\[APE]\Kiss - Asylum.wav

Peak level 90.5 %
Range quality 100.0 %
CRC FC661DF1
Copy OK

No errors occured

End of status report
#777Год: 1987
Жанр: Hard Rock, Glam Rock
Продолжительность: 00:41:33
Кодек: FLAC
Тип битрейта: CBR
Битрейт: 951

Трек лист:
01 - Rock Soldiers
02 - Breakout
03 - Into The Night
04 - Something Moved
05 - We Got Your Rock
06 - Love Me Right
07 - Calling To You
08 - Dolls
09 - Stranger In A Strange Land
10 - Fractured Too (Instrumental)
-===- E:\1\Kiss\1987 - Ace Frehley - Frehley's Comet\Ace Frehley - 1987 - Frehley's Comet.flac
Извлечение успешно выполнено
Заключение: этот трек - CDDA с вероятностью 100%
Временный файл удалён.
EAC extraction logfile from 1. January 2007, 1:06 for CD
Ace Frehley / Frehley's Comet

Used drive : SONY CD-RW CRX210E1 Adapter: 1 ID: 0
Read mode : Secure with NO C2, accurate stream, disable cache
Read offset correction : 6
Overread into Lead-In and Lead-Out : No

Used output format : Internal WAV Routines
44.100 Hz; 16 Bit; Stereo

Other options :
Fill up missing offset samples with silence : Yes
Delete leading and trailing silent blocks : No
Installed external ASPI interface

Range status and errors
Selected range
Filename E:\German\12 Mis Documentos\Ace Frehley - Frehley's Comet.wav

Peak level 100.0 %
Range quality 100.0 %
CRC 48B91BB9
Copy OK

No errors occured

End of status report
#777Год: 1987
Жанр: Hard Rock, Glam Rock
Продолжительность: 00:42:58
Кодек: FLAC
Тип битрейта: CBR
Битрейт: 1016

Трек лист:
01 - Crazy Crazy Nights
02 - I'll Fight Hell To Hold You
03 - Bang Bang You
04 - No, No, No
05 - Hell Or High Water
06 - My Way
07 - When Your Walls Come Down
08 - Reason To Live
09 - Good Girl Gone Bad
10 - Turn On The Night
11 - Thief In The Night
-===- E:\1\Kiss\1987 - Crazy Nights [The Remasters]\Kiss - 1987 - Crazy Nights [The Remasters].flac
Извлечение успешно выполнено
Заключение: этот трек - MPEG с вероятностью 95%
Временный файл удалён.
EAC extraction logfile from 19. March 2007, 20:23 for CD
KISS / Crazy Nights [The Remasters]

Used drive : _NEC DVD_RW ND-3540A Adapter: 0 ID: 1
Read mode : Burst
Read offset correction : 0
Overread into Lead-In and Lead-Out : No

Used output format : Internal WAV Routines
44.100 Hz; 16 Bit; Stereo

Other options :
Fill up missing offset samples with silence : Yes
Delete leading and trailing silent blocks : No
Native Win32 interface for Win NT & 2000

Range status and errors
Selected range
Filename D:\Shared Files\Kiss [1987, 1998] Crazy Nights (The Remasters) [CD Image] + scans [EAC-APE] by twin 2\Kiss - Crazy Nights [The Remasters].wav

Timing problem 0:09:33

Peak level 99.8 %
CRC 85F91240
Copy finished

No errors occured

End of status report
#777Год: 1989
Жанр: Hard Rock, Glam Rock
Продолжительность: 00:58:50
Кодек: FLAC
Тип битрейта: CBR
Битрейт: 915

Трек лист:
01 - Rise To It
02 - Betrayed
03 - Hide Your Heart
04 - Prisoner Of Love
05 - Read My Body
06 - Love's A Slap In The Face
07 - Forever
08 - Silver Spoon
09 - Cadillac Dreams
10 - King Of Hearts
11 - The Street Giveth And The Street Taketh Away
12 - You Love Me To Hate You
13 - Somewhere Between Heaven And Hell
14 - Little Caesar
15 - Boomerang
-===- E:\1\Kiss\1989 - Hot In The Shade\Kiss - 1989 - Hot In The Shade.flac
Извлечение успешно выполнено
Заключение: этот трек - CDDA с вероятностью 100%
Временный файл удалён.
EAC extraction logfile from 27. December 2005, 22:47 for CD
Kiss / Hot In The Shade

Used drive : HL-DT-STRW/DVD GCC-4521B Adapter: 0 ID: 1
Read mode : Secure with NO C2, accurate stream, disable cache
Read offset correction : 6
Overread into Lead-In and Lead-Out : No

Used output format : C:\Archivos de programa\Exact Audio Copy\MAC.EXE (Monkey's Audio Lossless Encoder)
High Lossless Compression

Other options :
Fill up missing offset samples with silence : Yes
Delete leading and trailing silent blocks : No
Native Win32 interface for Win NT & 2000

Range status and errors
Selected range
Filename C:\Documents and Settings\a1\Mis documentos\Mi mъsica\esteban\Hot in the Shade.wav

Peak level 100.0 %
Range quality 99.9 %
CRC 5B9E41B6
Copy OK

No errors occured

End of status report
#777Год: 1992
Жанр: Hard Rock, Glam Rock
Продолжительность: 00:49:04
Кодек: FLAC
Тип битрейта: CBR
Битрейт: 971

Трек лист:
01 - Unholy
02 - Take It Off
03 - Tough Love
04 - Spit
05 - God Gave Rock 'N' Roll To You II
06 - Domino
07 - Heart Of Chrome
08 - Thou Shalt Not
09 - Every Time I Look At You
10 - Paralyzed
11 - I Just Wanna
12 - Carr Jam 1981
-===- E:\1\Kiss\1992 - Revenge\Kiss - 1992 - Revenge.flac
Извлечение успешно выполнено
Заключение: этот трек - CDDA с вероятностью 100%
Временный файл удалён.
EAC extraction logfile from 18. November 2006, 10:00 for CD
KISS / Revenge

Used drive : TEAC CD-540E Adapter: 1 ID: 0
Read mode : Secure with NO C2, accurate stream, disable cache
Combined read/write offset correction : -496
Overread into Lead-In and Lead-Out : No

Used output format : Internal WAV Routines
44.100 Hz; 16 Bit; Stereo

Other options :
Fill up missing offset samples with silence : Yes
Delete leading and trailing silent blocks : No
Installed external ASPI interface

Range status and errors
Selected range
Filename D:\EAC ruosiami\Kiss.-.1992.-.Revenge.-.[APE-CUE-LOG-COVER].-.[SM]\KISS - Revenge.wav

Peak level 100.0 %
Range quality 100.0 %
CRC 9F56781D
Copy OK

No errors occured

End of status report
#777Год: 1996
Жанр: Hard Rock, Glam Rock
Продолжительность: 00:56:44
Кодек: FLAC
Тип битрейта: CBR
Битрейт: 1007

Трек лист:
01 - Comin' Home
02 - Plaster Caster
03 - Goin' Blind
04 - Do You Love Me
05 - Domino
06 - Sure Know Something
07 - A World Without Heroes
08 - Rock Bottom
09 - See You Tonight
10 - I Still Love You
11 - Every Time I Look At You
12 - 2,000 Man
13 - Beth
14 - Nothin' To Lose
15 - Rock And Roll All Nite
-===- E:\1\Kiss\1996 - MTV Unplugged\Kiss - 1996 - MTV Unplugged.flac
Извлечение успешно выполнено
Заключение: этот трек - CDDA с вероятностью 100%
Временный файл удалён.
EAC extraction logfile from 8. October 2006, 13:15 for CD
Kiss / MTV Unplugged

Used drive : _NEC DVD_RW ND-2510A Adapter: 1 ID: 0
Read mode : Secure with NO C2, accurate stream, disable cache
Read offset correction : 48
Overread into Lead-In and Lead-Out : No

Used output format : Internal WAV Routines
44.100 Hz; 16 Bit; Stereo

Other options :
Fill up missing offset samples with silence : Yes
Delete leading and trailing silent blocks : No
Installed external ASPI interface

Range status and errors
Selected range
Filename C:\Documents and Settings\Pasha\Мои документы\KISS\CDImage.wav

Peak level 99.5 %
Range quality 99.9 %
CRC 73939E5F
Copy OK

No errors occured

End of status report
#777Год: 1997
Жанр: Hard Rock, Glam Rock
Продолжительность: 01:00:18
Кодек: FLAC
Тип битрейта: CBR
Битрейт: 932

Трек лист:
01 - Hate
02 - Rain
03 - Master & Slave
04 - Childhood's End
05 - I Will Be There
06 - Jungle
07 - In My Head
08 - It Never Goes Away
09 - Seduction Of The Innocent
10 - I Confess
11 - In The Mirror
12 - I Walk Alone
-===- E:\1\Kiss\1997 - Carnival Of Souls\Kiss - 1997 - Carnival Of Souls.flac
Извлечение успешно выполнено
Заключение: этот трек - CDDA с вероятностью 100%
Временный файл удалён.
EAC extraction logfile from 5. February 2006, 22:06 for CD
KISS / Carnival of Souls

Used drive : LITE-ON LTR-48125W Adapter: 2 ID: 1
Read mode : Secure with NO C2, accurate stream, disable cache
Read offset correction : 12
Overread into Lead-In and Lead-Out : No

Used output format : D:\Archivos de programa\Exact Audio Copy\FLAC.EXE (User Defined Encoder)
32 kBit/s
Additional command line options : -6 -V -T "artist=%a" -T "title=%t" -T "album=%g" -T "date=%y" -T "tracknumber=%n" -T "genre=%m" -T "comment=EAC 0.9beta5 / FLAC 1.1.0 q6" %s

Other options :
Fill up missing offset samples with silence : Yes
Delete leading and trailing silent blocks : No
Native Win32 interface for Win NT & 2000

Range status and errors
Selected range
Filename D:\KISS - Carnival Of Souls\CDImage.flac.wav

Peak level 99.2 %
Range quality 100.0 %
CRC 09BD9A1E
Copy OK

No errors occured

End of status report
#777Год: 1997
Жанр: Hard Rock, Glam Rock
Продолжительность: 00:56:05
Кодек: FLAC
Тип битрейта: CBR
Битрейт: 970

Трек лист:
01 - Detroit Rock City
02 - Hard Luck Woman
03 - Sure Know Something
04 - Deuce
05 - Do You Love Me
06 - I Was Made For Lovin' You
07 - Calling Dr. Love
08 - Christine Sixteen
09 - Beth
10 - Strutter
11 - Cold Gin
12 - Plaster Caster
13 - Rock And Roll All Nite
14 - Flaming Youth
15 - Two Sides Of The Coin
16 - Shout It Out Loud (New Video Version)
-===- E:\1\Kiss\1997 - Greatest KISS\Kiss - 1997 - Greatest KISS.flac
Извлечение успешно выполнено
Заключение: этот трек - CDDA с вероятностью 100%
Временный файл удалён.
EAC extraction logfile from 19. November 2006, 20:02 for CD
KISS / Greatest KISS

Used drive : TSSTcorpCD/DVDW SH-W162L Adapter: 0 ID: 1
Read mode : Secure with NO C2, accurate stream, disable cache
Read offset correction : 12
Overread into Lead-In and Lead-Out : No

Used output format : Internal WAV Routines
44.100 Hz; 16 Bit; Stereo

Other options :
Fill up missing offset samples with silence : Yes
Delete leading and trailing silent blocks : No
Installed external ASPI interface

Range status and errors
Selected range
Filename E:\KISS - Greatest KISS.by.rat.eac-ape\KISS - Greatest KISS.by.rat.eac-ape.wav

Peak level 100.0 %
Range quality 100.0 %
CRC 80184E09
Copy OK

No errors occured

End of status report
#777Год: 1998
Жанр: Hard Rock, Glam Rock
Продолжительность: 00:48:04
Кодек: FLAC
Тип битрейта: CBR
Битрейт: 1063

Трек лист:
01 - Psycho Circus
02 - Within
03 - I Pledge Allegiance to the State of Rock & Roll
04 - Into the Void
05 - We Are One
06 - You Wanted the Best
07 - Raise Your Glasses
08 - I Finally Found My Way
09 - Dreamin'
10 - Journey of 1,000 Years
11 - In Your Face
-===- E:\1\Kiss\1998 - Psycho Circus [Japanese]\Kiss - 1998 - Psycho Circus [Japanese].flac
Извлечение успешно выполнено
Заключение: этот трек - CDDA с вероятностью 100%
Временный файл удалён.
Отчёт EAC об извлечении, выполненном 9. августа 2007, 19:09 для диска:
Kiss / Psycho Circus [Japan Bonus Track]

Дисковод: HL-DT-STDVDRAM GSA-4163B Adapter: 3 ID: 1
Режим чтения: Достоверный (C2: нет, Точный поток: да, Отключение кэша: да)
Коррекция смещения при чтении: 667
Способность читать области Lead-in и Lead-out : Нет

Выходной формат: Внутренние WAV-операции
44.100 Гц; 16 бит; стерео

Другие параметры:
Заполнение пропущенных сэмплов тишиной : Да
Удаление блоков с тишиной в начале и конце : Нет
Встроенный Win32-интерфейс для Win NT/2000

Характеристики диапазона извлечения и сообщения об ошибках
Выбранный диапазон
Имя файла E:\Lossless\Kiss-Psycho Circus-1999\Kiss - Psycho Circus [Japan Bonus Track].wav

Пиковый уровень 100.0 %
Качество диапазона 99.9 %
CRC 66238580
Копирование... OK

Ошибок не произошло

Конец отчёта
#777Год: 2000
Жанр: Hard Rock, Glam Rock
Продолжительность: 00:47:17
Кодек: FLAC
Тип битрейта: CBR
Битрейт: 940

Трек лист:
01 - Eyes Of Love
02 - Somebody's Waiting
03 - Heavy Metal Baby
04 - Just Can't Wait
05 - Mad Dog
06 - You Make Me Crazy
07 - Nightmare
08 - Nightmare (live demo)
09 - Too Cool For School
10 - Tiara
11 - Can You Feel It?
12 - Nasty Boys
-===- E:\1\Kiss\2000 - Eric Carr - Rockology\Eric Carr - 2000 - Rockology.flac
Извлечение успешно выполнено
Заключение: этот трек - CDDA с вероятностью 100%
Временный файл удалён.
EAC extraction logfile from 12. September 2006, 9:50 for CD
Eric Carr / Rockology

Used drive : TSSTcorpCD/DVDW TS-H552B Adapter: 0 ID: 1
Read mode : Secure with NO C2, accurate stream, disable cache
Read offset correction : 12
Overread into Lead-In and Lead-Out : No

Used output format : Internal WAV Routines
44.100 Hz; 16 Bit; Stereo

Other options :
Fill up missing offset samples with silence : Yes
Delete leading and trailing silent blocks : No
Installed external ASPI interface

Range status and errors
Selected range
Filename E:\Documents and Settings\rat.TR-G50KCK082Q78\My Documents\Eric Carr - Rockology.by.rat.eac-ape\Eric Carr - Rockology.by.rat.eac-ape.wav

Peak level 98.8 %
Range quality 99.4 %
CRC EBF970CD
Copy OK

No errors occured

End of status report
#777Год: 2001
Жанр: Hard Rock, Glam Rock
Продолжительность: 01:18:50
Кодек: FLAC
Тип битрейта: CBR
Битрейт: 938

Трек лист:
01 - Strutter (Demo Version)
02 - Deuce (Demo Version)
03 - Keep Me Waiting (Wicked Lester)
04 - She (Wicked Lester)
05 - Love Her All I Can (Wicked Lester)
06 - Let Me Know (Demo Version)
07 - 100,000 Years (Demo Version)
08 - Stop, Look To Listen (Demo)
09 - Leeta (Demo)
10 - Let Me Go, Rock 'N' Roll (Demo Version)
11 - Acrobat (Live)
12 - Firehouse (Demo Version)
13 - Nothin' To Lose
14 - Black Diamond
15 - Hotter Than Hell
16 - Strange Ways
17 - Parasite
18 - Goin' Blind
19 - Anything For My Baby
20 - Ladies In Waiting
21 - Rock And Roll All Nite
-===- E:\1\Kiss\2001 - Kiss Box Set CD5\CD1\Kiss - 2001 - Kiss Box Set CD1.flac
Извлечение успешно выполнено
Заключение: этот трек - CDDA с вероятностью 100%
Временный файл удалён.
EAC extraction logfile from 4. September 2006, 19:32 for CD
Kiss / Box Set - Disc 1 of 5

Used drive : PLEXTOR CD-R PREMIUM Adapter: 2 ID: 0
Read mode : Secure with NO C2, accurate stream, disable cache
Read offset correction : 30
Overread into Lead-In and Lead-Out : No

Used output format : Internal WAV Routines
44.100 Hz; 16 Bit; Stereo

Other options :
Fill up missing offset samples with silence : Yes
Delete leading and trailing silent blocks : No
Native Win32 interface for Win NT & 2000

Track 1
Filename F:\Converted Music\01 - Strutter (Demo Version).wav

Pre-gap length 0:00:02.00

Peak level 100.0 %
Track quality 100.0 %
Test CRC 17833A10
Copy CRC 17833A10
Copy OK

Track 2
Filename F:\Converted Music\02 - Deuce (Demo Version).wav

Peak level 100.0 %
Track quality 99.9 %
Test CRC D84441CD
Copy CRC D84441CD
Copy OK

Track 3
Filename F:\Converted Music\03 - Keep Me Waiting (Wicked Lester).wav

Peak level 100.0 %
Track quality 100.0 %
Test CRC A6B06326
Copy CRC A6B06326
Copy OK

Track 4
Filename F:\Converted Music\04 - She (Wicked Lester).wav

Pre-gap length 0:00:01.61

Peak level 100.0 %
Track quality 100.0 %
Test CRC 01AD678B
Copy CRC 01AD678B
Copy OK

Track 5
Filename F:\Converted Music\05 - Love Her All I Can (Wicked Lester).wav

Peak level 100.0 %
Track quality 99.9 %
Test CRC 50AA2A6B
Copy CRC 50AA2A6B
Copy OK

Track 6
Filename F:\Converted Music\06 - Let Me Know (Demo Version).wav

Peak level 100.0 %
Track quality 100.0 %
Test CRC 9B3F4098
Copy CRC 9B3F4098
Copy OK

Track 7
Filename F:\Converted Music\07 - 100,000 Years (Demo Version).wav

Peak level 100.0 %
Track quality 100.0 %
Test CRC CB8EFC3C
Copy CRC CB8EFC3C
Copy OK

Track 8
Filename F:\Converted Music\08 - Stop, Look To Listen (Demo).wav

Peak level 100.0 %
Track quality 99.9 %
Test CRC B4B22EEF
Copy CRC B4B22EEF
Copy OK

Track 9
Filename F:\Converted Music\09 - Leeta (Demo).wav

Pre-gap length 0:00:01.33

Peak level 100.0 %
Track quality 100.0 %
Test CRC 115EE6E0
Copy CRC 115EE6E0
Copy OK

Track 10
Filename F:\Converted Music\10 - Let Me Go, Rock 'N' Roll (Demo Version).wav

Pre-gap length 0:00:01.44

Peak level 100.0 %
Track quality 100.0 %
Test CRC 70C13733
Copy CRC 70C13733
Copy OK

Track 11
Filename F:\Converted Music\11 - Acrobat (Live).wav

Pre-gap length 0:00:01.40

Peak level 100.0 %
Track quality 100.0 %
Test CRC 8091C65D
Copy CRC 8091C65D
Copy OK

Track 12
Filename F:\Converted Music\12 - Firehouse (Demo Version).wav

Pre-gap length 0:00:01.18

Peak level 100.0 %
Track quality 100.0 %
Test CRC 5BD5F4B0
Copy CRC 5BD5F4B0
Copy OK

Track 13
Filename F:\Converted Music\13 - Nothin' To Lose.wav

Pre-gap length 0:00:01.65

Peak level 100.0 %
Track quality 100.0 %
Test CRC 5F1626C0
Copy CRC 5F1626C0
Copy OK

Track 14
Filename F:\Converted Music\14 - Black Diamond.wav

Pre-gap length 0:00:01.32

Peak level 100.0 %
Track quality 100.0 %
Test CRC F86B0DA6
Copy CRC F86B0DA6
Copy OK

Track 15
Filename F:\Converted Music\15 - Hotter Than Hell.wav

Peak level 100.0 %
Track quality 100.0 %
Test CRC 4CD1498E
Copy CRC 4CD1498E
Copy OK

Track 16
Filename F:\Converted Music\16 - Strange Ways.wav

Peak level 100.0 %
Track quality 100.0 %
Test CRC 40DD607D
Copy CRC 40DD607D
Copy OK

Track 17
Filename F:\Converted Music\17 - Parasite.wav

Peak level 100.0 %
Track quality 100.0 %
Test CRC 3FE987D9
Copy CRC 3FE987D9
Copy OK

Track 18
Filename F:\Converted Music\18 - Goin' Blind.wav

Peak level 100.0 %
Track quality 100.0 %
Test CRC CAFEC0CF
Copy CRC CAFEC0CF
Copy OK

Track 19
Filename F:\Converted Music\19 - Anything For My Baby.wav

Peak level 100.0 %
Track quality 100.0 %
Test CRC 34FCD5BA
Copy CRC 34FCD5BA
Copy OK

Track 20
Filename F:\Converted Music\20 - Ladies In Waiting.wav

Pre-gap length 0:00:01.41

Peak level 100.0 %
Track quality 100.0 %
Test CRC 7260423C
Copy CRC 7260423C
Copy OK

Track 21
Filename F:\Converted Music\21 - Rock And Roll All Nite.wav

Pre-gap length 0:00:01.52

Peak level 100.0 %
Track quality 100.0 %
Test CRC 2D349CB1
Copy CRC 2D349CB1
Copy OK

No errors occured

End of status report
#777Год: 2001
Жанр: Hard Rock, Glam Rock
Продолжительность: 01:10:08
Кодек: FLAC
Тип битрейта: CBR
Битрейт: 994

Трек лист:
01 - C'mon And Love Me (Live)
02 - Rock Bottom (Live)
03 - Cold Gin (Live)
04 - Watchin' You (Live)
05 - Doncha Hesitate (Demo)
06 - Mad Dog (Demo)
07 - God Of Thunder (Demo Version)
08 - Great Expectations
09 - Beth
10 - Do You Love Me
11 - Bad, Bad Lovin' (Demo)
12 - Calling Dr. Love
13 - Mr. Speed (Demo Version)
14 - Christine Sixteen
15 - Hard Luck Woman
16 - Shock Me
17 - I Stole Your Love
18 - I Want You (Soundcheck Recording)
19 - Love Gun (Demo Version)
20 - Love Is Blind (Demo)
-===- E:\1\Kiss\2001 - Kiss Box Set CD5\CD2\Kiss - 2001 - Kiss Box Set CD2.flac
Извлечение успешно выполнено
Заключение: этот трек - CDDA с вероятностью 100%
Временный файл удалён.
EAC extraction logfile from 4. September 2006, 20:27 for CD
Kiss / Box Set - Disc 2 of 5

Used drive : PLEXTOR CD-R PREMIUM Adapter: 2 ID: 0
Read mode : Secure with NO C2, accurate stream, disable cache
Read offset correction : 30
Overread into Lead-In and Lead-Out : No

Used output format : Internal WAV Routines
44.100 Hz; 16 Bit; Stereo

Other options :
Fill up missing offset samples with silence : Yes
Delete leading and trailing silent blocks : No
Native Win32 interface for Win NT & 2000

Track 1
Filename F:\Converted Music\01 - C'mon And Love Me (Live).wav

Pre-gap length 0:00:02.00

Peak level 100.0 %
Track quality 100.0 %
Test CRC CC2C9190
Copy CRC CC2C9190
Copy OK

Track 2
Filename F:\Converted Music\02 - Rock Bottom (Live).wav

Peak level 100.0 %
Track quality 99.9 %
Test CRC 3DF8CE99
Copy CRC 3DF8CE99
Copy OK

Track 3
Filename F:\Converted Music\03 - Cold Gin (Live).wav

Peak level 100.0 %
Track quality 100.0 %
Test CRC 4386EFCA
Copy CRC 4386EFCA
Copy OK

Track 4
Filename F:\Converted Music\04 - Watchin' You (Live).wav

Peak level 100.0 %
Track quality 100.0 %
Test CRC 8060932C
Copy CRC 8060932C
Copy OK

Track 5
Filename F:\Converted Music\05 - Doncha Hesitate (Demo).wav

Pre-gap length 0:00:01.78

Peak level 100.0 %
Track quality 100.0 %
Test CRC 2879D538
Copy CRC 2879D538
Copy OK

Track 6
Filename F:\Converted Music\06 - Mad Dog (Demo).wav

Peak level 100.0 %
Track quality 100.0 %
Test CRC DF906FDB
Copy CRC DF906FDB
Copy OK

Track 7
Filename F:\Converted Music\07 - God Of Thunder (Demo Version).wav

Peak level 100.0 %
Track quality 100.0 %
Test CRC 799EB5DD
Copy CRC 799EB5DD
Copy OK

Track 8
Filename F:\Converted Music\08 - Great Expectations.wav

Pre-gap length 0:00:01.33

Peak level 100.0 %
Track quality 100.0 %
Test CRC 2829A02E
Copy CRC 2829A02E
Copy OK

Track 9
Filename F:\Converted Music\09 - Beth.wav

Peak level 100.0 %
Track quality 100.0 %
Test CRC D3479D71
Copy CRC D3479D71
Copy OK

Track 10
Filename F:\Converted Music\10 - Do You Love Me.wav

Peak level 100.0 %
Track quality 99.9 %
Test CRC 53AA90B2
Copy CRC 53AA90B2
Copy OK

Track 11
Filename F:\Converted Music\11 - Bad, Bad Lovin' (Demo).wav

Pre-gap length 0:00:01.32

Peak level 100.0 %
Track quality 99.9 %
Test CRC D772FB8B
Copy CRC D772FB8B
Copy OK

Track 12
Filename F:\Converted Music\12 - Calling Dr. Love.wav

Peak level 100.0 %
Track quality 100.0 %
Test CRC 71811CF7
Copy CRC 71811CF7
Copy OK

Track 13
Filename F:\Converted Music\13 - Mr. Speed (Demo Version).wav

Pre-gap length 0:00:01.05

Peak level 93.8 %
Track quality 100.0 %
Test CRC 785546DD
Copy CRC 785546DD
Copy OK

Track 14
Filename F:\Converted Music\14 - Christine Sixteen.wav

Pre-gap length 0:00:01.12

Peak level 100.0 %
Track quality 100.0 %
Test CRC 2778BFF2
Copy CRC 2778BFF2
Copy OK

Track 15
Filename F:\Converted Music\15 - Hard Luck Woman.wav

Pre-gap length 0:00:01.09

Peak level 100.0 %
Track quality 99.9 %
Test CRC BCFDC305
Copy CRC BCFDC305
Copy OK

Track 16
Filename F:\Converted Music\16 - Shock Me.wav

Peak level 100.0 %
Track quality 100.0 %
Test CRC DBF27C79
Copy CRC DBF27C79
Copy OK

Track 17
Filename F:\Converted Music\17 - I Stole Your Love.wav

Pre-gap length 0:00:01.54

Peak level 100.0 %
Track quality 100.0 %
Test CRC 6357958C
Copy CRC 6357958C
Copy OK

Track 18
Filename F:\Converted Music\18 - I Want You (Soundcheck Recording).wav

Pre-gap length 0:00:02.96

Peak level 100.0 %
Track quality 100.0 %
Test CRC 47EF2A4F
Copy CRC 47EF2A4F
Copy OK

Track 19
Filename F:\Converted Music\19 - Love Gun (Demo Version).wav

Pre-gap length 0:00:01.29

Peak level 93.1 %
Track quality 100.0 %
Test CRC 5B24AED7
Copy CRC 5B24AED7
Copy OK

Track 20
Filename F:\Converted Music\20 - Love Is Blind (Demo).wav

Peak level 100.0 %
Track quality 100.0 %
Test CRC CBDF2AF2
Copy CRC CBDF2AF2
Copy OK

No errors occured

End of status report
#777Год: 2001
Жанр: Hard Rock, Glam Rock
Продолжительность: 01:13:55
Кодек: FLAC
Тип битрейта: CBR
Битрейт: 1006

Трек лист:
01 - Detroit Rock City
02 - King Of The Night Time World (Live)
03 - Larger Than Life
04 - Rocket Ride
05 - Tonight You Belong To Me
06 - New York Groove
07 - Radioactive (Demo Version)
08 - Don't You Let Me Down
09 - I Was Made For Lovin' You
10 - Sure Know Something
11 - Shandi
12 - You're All That I Want, You're All That I Need (Demo)
13 - Talk To Me (Live)
14 - A World Without Heroes
15 - The Oath
16 - Nowhere To Run
17 - Creatures Of The Night
18 - War Machine
19 - I Love It Loud
-===- E:\1\Kiss\2001 - Kiss Box Set CD5\CD3\Kiss - 2001 - Kiss Box Set CD3.flac
Извлечение успешно выполнено
Заключение: этот трек - CDDA с вероятностью 100%
Временный файл удалён.
EAC extraction logfile from 4. September 2006, 20:02 for CD
Kiss / Box Set - Disc 3 of 5

Used drive : PLEXTOR CD-R PREMIUM Adapter: 2 ID: 0
Read mode : Secure with NO C2, accurate stream, disable cache
Read offset correction : 30
Overread into Lead-In and Lead-Out : No

Used output format : Internal WAV Routines
44.100 Hz; 16 Bit; Stereo

Other options :
Fill up missing offset samples with silence : Yes
Delete leading and trailing silent blocks : No
Native Win32 interface for Win NT & 2000

Track 1
Filename F:\Converted Music\01 - Detroit Rock City.wav

Pre-gap length 0:00:02.00

Peak level 100.0 %
Track quality 100.0 %
Test CRC 1F944255
Copy CRC 1F944255
Copy OK

Track 2
Filename F:\Converted Music\02 - King Of The Night Time World (Live).wav

Peak level 100.0 %
Track quality 99.9 %
Test CRC 4FBC62D2
Copy CRC 4FBC62D2
Copy OK

Track 3
Filename F:\Converted Music\03 - Larger Than Life.wav

Peak level 100.0 %
Track quality 100.0 %
Test CRC ED098C08
Copy CRC ED098C08
Copy OK

Track 4
Filename F:\Converted Music\04 - Rocket Ride.wav

Peak level 100.0 %
Track quality 100.0 %
Test CRC EC0B99C3
Copy CRC EC0B99C3
Copy OK

Track 5
Filename F:\Converted Music\05 - Tonight You Belong To Me.wav

Peak level 100.0 %
Track quality 100.0 %
Test CRC AAD6E07A
Copy CRC AAD6E07A
Copy OK

Track 6
Filename F:\Converted Music\06 - New York Groove.wav

Peak level 100.0 %
Track quality 100.0 %
Test CRC 1465CB90
Copy CRC 1465CB90
Copy OK

Track 7
Filename F:\Converted Music\07 - Radioactive (Demo Version).wav

Peak level 100.0 %
Track quality 100.0 %
Test CRC DE032459
Copy CRC DE032459
Copy OK

Track 8
Filename F:\Converted Music\08 - Don't You Let Me Down.wav

Peak level 100.0 %
Track quality 100.0 %
Test CRC 0C78A77A
Copy CRC 0C78A77A
Copy OK

Track 9
Filename F:\Converted Music\09 - I Was Made For Lovin' You.wav

Peak level 100.0 %
Track quality 99.9 %
Test CRC ADED9F92
Copy CRC ADED9F92
Copy OK

Track 10
Filename F:\Converted Music\10 - Sure Know Something.wav

Peak level 100.0 %
Track quality 99.9 %
Test CRC 0D453B17
Copy CRC 0D453B17
Copy OK

Track 11
Filename F:\Converted Music\11 - Shandi.wav

Peak level 100.0 %
Track quality 100.0 %
Test CRC 451A31AE
Copy CRC 451A31AE
Copy OK

Track 12
Filename F:\Converted Music\12 - You're All That I Want, You're All That I Need (Demo).wav

Peak level 100.0 %
Track quality 99.9 %
Test CRC 5CDD86F1
Copy CRC 5CDD86F1
Copy OK

Track 13
Filename F:\Converted Music\13 - Talk To Me (Live).wav

Peak level 100.0 %
Track quality 100.0 %
Test CRC A32791AD
Copy CRC A32791AD
Copy OK

Track 14
Filename F:\Converted Music\14 - A World Without Heroes.wav

Peak level 100.0 %
Track quality 100.0 %
Test CRC 2A97A29A
Copy CRC 2A97A29A
Copy OK

Track 15
Filename F:\Converted Music\15 - The Oath.wav

Peak level 100.0 %
Track quality 100.0 %
Test CRC 5C605341
Copy CRC 5C605341
Copy OK

Track 16
Filename F:\Converted Music\16 - Nowhere To Run.wav

Peak level 100.0 %
Track quality 100.0 %
Test CRC FF92AA01
Copy CRC FF92AA01
Copy OK

Track 17
Filename F:\Converted Music\17 - Creatures Of The Night.wav

Peak level 97.1 %
Track quality 100.0 %
Test CRC 4DE2E7F0
Copy CRC 4DE2E7F0
Copy OK

Track 18
Filename F:\Converted Music\18 - War Machine.wav

Peak level 100.0 %
Track quality 100.0 %
Test CRC 71ABF8D8
Copy CRC 71ABF8D8
Copy OK

Track 19
Filename F:\Converted Music\19 - I Love It Loud.wav

Peak level 100.0 %
Track quality 100.0 %
Test CRC A86C941F
Copy CRC A86C941F
Copy OK

No errors occured

End of status report
#777Год: 2001
Жанр: Hard Rock, Glam Rock
Продолжительность: 01:04:05
Кодек: FLAC
Тип битрейта: CBR
Битрейт: 1035

Трек лист:
01 - Lick It Up
02 - All Hell's Breaking Loose
03 - Heaven's On Fire
04 - Get All You Can Take
05 - Thrills In The Night
06 - Tears Are Falling
07 - Uh! All Night
08 - Time Traveler (Demo)
09 - Hell Or High Water
10 - Crazy, Crazy Nights
11 - Reason To Live
12 - Let's Put The X In Sex
13 - Hide Your Heart
14 - Ain't That Peculiar (Demo)
15 - Silver Spoon
16 - Forever (Single Version)
-===- E:\1\Kiss\2001 - Kiss Box Set CD5\CD4\Kiss - 2001 - Kiss Box Set CD4.flac
Извлечение успешно выполнено
Заключение: этот трек - CDDA с вероятностью 100%
Временный файл удалён.
EAC extraction logfile from 4. September 2006, 21:03 for CD
Kiss / Box Set - Disc 4 of 5

Used drive : PLEXTOR CD-R PREMIUM Adapter: 2 ID: 0
Read mode : Secure with NO C2, accurate stream, disable cache
Read offset correction : 30
Overread into Lead-In and Lead-Out : No

Used output format : Internal WAV Routines
44.100 Hz; 16 Bit; Stereo

Other options :
Fill up missing offset samples with silence : Yes
Delete leading and trailing silent blocks : No
Native Win32 interface for Win NT & 2000

Track 1
Filename F:\Converted Music\01 - Lick It Up.wav

Pre-gap length 0:00:02.00

Peak level 100.0 %
Track quality 100.0 %
Test CRC B252FD60
Copy CRC B252FD60
Copy OK

Track 2
Filename F:\Converted Music\02 - All Hell's Breaking Loose.wav

Peak level 100.0 %
Track quality 100.0 %
Test CRC BA5C02E8
Copy CRC BA5C02E8
Copy OK

Track 3
Filename F:\Converted Music\03 - Heaven's On Fire.wav

Peak level 100.0 %
Track quality 100.0 %
Test CRC 61C45A78
Copy CRC 61C45A78
Copy OK

Track 4
Filename F:\Converted Music\04 - Get All You Can Take.wav

Peak level 100.0 %
Track quality 100.0 %
Test CRC 3E1A233B
Copy CRC 3E1A233B
Copy OK

Track 5
Filename F:\Converted Music\05 - Thrills In The Night.wav

Peak level 100.0 %
Track quality 100.0 %
Test CRC 95A18565
Copy CRC 95A18565
Copy OK

Track 6
Filename F:\Converted Music\06 - Tears Are Falling.wav

Peak level 100.0 %
Track quality 99.9 %
Test CRC 97FF20AA
Copy CRC 97FF20AA
Copy OK

Track 7
Filename F:\Converted Music\07 - Uh! All Night.wav

Peak level 100.0 %
Track quality 100.0 %
Test CRC 91F9A9D2
Copy CRC 91F9A9D2
Copy OK

Track 8
Filename F:\Converted Music\08 - Time Traveler (Demo).wav

Peak level 100.0 %
Track quality 100.0 %
Test CRC 35E53DF1
Copy CRC 35E53DF1
Copy OK

Track 9
Filename F:\Converted Music\09 - Hell Or High Water.wav

Peak level 100.0 %
Track quality 100.0 %
Test CRC 17EBFAEA
Copy CRC 17EBFAEA
Copy OK

Track 10
Filename F:\Converted Music\10 - Crazy, Crazy Nights.wav

Peak level 100.0 %
Track quality 100.0 %
Test CRC 264A180F
Copy CRC 264A180F
Copy OK

Track 11
Filename F:\Converted Music\11 - Reason To Live.wav

Peak level 100.0 %
Track quality 100.0 %
Test CRC D7DA3E7A
Copy CRC D7DA3E7A
Copy OK

Track 12
Filename F:\Converted Music\12 - Let's Put The X In Sex.wav

Peak level 100.0 %
Track quality 100.0 %
Test CRC 9F6CEBCB
Copy CRC 9F6CEBCB
Copy OK

Track 13
Filename F:\Converted Music\13 - Hide Your Heart.wav

Peak level 100.0 %
Track quality 100.0 %
Test CRC F00AB04A
Copy CRC F00AB04A
Copy OK

Track 14
Filename F:\Converted Music\14 - Ain't That Peculiar (Demo).wav

Peak level 100.0 %
Track quality 100.0 %
Test CRC C63E769A
Copy CRC C63E769A
Copy OK

Track 15
Filename F:\Converted Music\15 - Silver Spoon.wav

Pre-gap length 0:00:01.00

Peak level 100.0 %
Track quality 100.0 %
Test CRC 7FB1D6F5
Copy CRC 7FB1D6F5
Copy OK

Track 16
Filename F:\Converted Music\16 - Forever (Single Version).wav

Peak level 100.0 %
Track quality 99.9 %
Test CRC DA04CCCB
Copy CRC DA04CCCB
Copy OK

No errors occured

End of status report
#777Год: 2001
Жанр: Hard Rock, Glam Rock
Продолжительность: 01:17:51
Кодек: FLAC
Тип битрейта: CBR
Битрейт: 1024

Трек лист:
01 - God Gave Rock 'N' Roll To You II
02 - Unholy
03 - Domino (Demo Version)
04 - Every Time I Look At You
05 - Comin' Home (Live Unplugged)
06 - Got To Choose (Live Unplugged)
07 - I Still Love You (Live Unplugged)
08 - Nothin' To Lose (Live Unplugged)
09 - Childhood's End
10 - I Will Be There
11 - Psycho Circus
12 - Into The Void
13 - Within
14 - I Pledge Allegiance To The State Of Rock & Roll
15 - Nothing Can Keep Me From You
16 - It's My Life
17 - Shout It Out Loud (Live)
18 - Rock And Roll All Night (Live)
-===- E:\1\Kiss\2001 - Kiss Box Set CD5\CD5\Kiss - 2001 - Kiss Box Set CD5.flac
Извлечение успешно выполнено
Заключение: этот трек - CDDA с вероятностью 100%
Временный файл удалён.
EAC extraction logfile from 4. September 2006, 21:29 for CD
Kiss / Box Set - Disc 5 of 5

Used drive : PLEXTOR CD-R PREMIUM Adapter: 2 ID: 0
Read mode : Secure with NO C2, accurate stream, disable cache
Read offset correction : 30
Overread into Lead-In and Lead-Out : No

Used output format : Internal WAV Routines
44.100 Hz; 16 Bit; Stereo

Other options :
Fill up missing offset samples with silence : Yes
Delete leading and trailing silent blocks : No
Native Win32 interface for Win NT & 2000

Track 1
Filename F:\Converted Music\01 - God Gave Rock 'N' Roll To You II.wav

Pre-gap length 0:00:02.00

Peak level 100.0 %
Track quality 100.0 %
Test CRC 66582611
Copy CRC 66582611
Copy OK

Track 2
Filename F:\Converted Music\02 - Unholy.wav

Peak level 100.0 %
Track quality 100.0 %
Test CRC 731895BF
Copy CRC 731895BF
Copy OK

Track 3
Filename F:\Converted Music\03 - Domino (Demo Version).wav

Peak level 100.0 %
Track quality 99.9 %
Test CRC 511D92AD
Copy CRC 511D92AD
Copy OK

Track 4
Filename F:\Converted Music\04 - Every Time I Look At You.wav

Peak level 100.0 %
Track quality 100.0 %
Test CRC 90288D01
Copy CRC 90288D01
Copy OK

Track 5
Filename F:\Converted Music\05 - Comin' Home (Live Unplugged).wav

Pre-gap length 0:00:01.56

Peak level 100.0 %
Track quality 100.0 %
Test CRC 247A3C29
Copy CRC 247A3C29
Copy OK

Track 6
Filename F:\Converted Music\06 - Got To Choose (Live Unplugged).wav

Peak level 100.0 %
Track quality 100.0 %
Test CRC 58C75E8C
Copy CRC 58C75E8C
Copy OK

Track 7
Filename F:\Converted Music\07 - I Still Love You (Live Unplugged).wav

Peak level 100.0 %
Track quality 100.0 %
Test CRC 780BE37F
Copy CRC 780BE37F
Copy OK

Track 8
Filename F:\Converted Music\08 - Nothin' To Lose (Live Unplugged).wav

Peak level 100.0 %
Track quality 100.0 %
Test CRC 22A5E92D
Copy CRC 22A5E92D
Copy OK

Track 9
Filename F:\Converted Music\09 - Childhood's End.wav

Pre-gap length 0:00:02.00

Peak level 100.0 %
Track quality 100.0 %
Test CRC 96B3F40D
Copy CRC 96B3F40D
Copy OK

Track 10
Filename F:\Converted Music\10 - I Will Be There.wav

Pre-gap length 0:00:01.17

Peak level 100.0 %
Track quality 100.0 %
Test CRC 017BBB1C
Copy CRC 017BBB1C
Copy OK

Track 11
Filename F:\Converted Music\11 - Psycho Circus.wav

Peak level 100.0 %
Track quality 100.0 %
Test CRC 68DC29B5
Copy CRC 68DC29B5
Copy OK

Track 12
Filename F:\Converted Music\12 - Into The Void.wav

Peak level 100.0 %
Track quality 100.0 %
Test CRC C23D0579
Copy CRC C23D0579
Copy OK

Track 13
Filename F:\Converted Music\13 - Within.wav

Pre-gap length 0:00:01.09

Peak level 100.0 %
Track quality 100.0 %
Test CRC E61B84C1
Copy CRC E61B84C1
Copy OK

Track 14
Filename F:\Converted Music\14 - I Pledge Allegiance To The State Of Rock & Roll.wav

Peak level 100.0 %
Track quality 100.0 %
Test CRC CA162D3B
Copy CRC CA162D3B
Copy OK

Track 15
Filename F:\Converted Music\15 - Nothing Can Keep Me From You.wav

Pre-gap length 0:00:01.42

Peak level 100.0 %
Track quality 100.0 %
Test CRC 5054D77B
Copy CRC 5054D77B
Copy OK

Track 16
Filename F:\Converted Music\16 - It's My Life.wav

Peak level 100.0 %
Track quality 100.0 %
Test CRC C7E7FCD5
Copy CRC C7E7FCD5
Copy OK

Track 17
Filename F:\Converted Music\17 - Shout It Out Loud (Live).wav

Pre-gap length 0:00:01.40

Peak level 100.0 %
Track quality 100.0 %
Test CRC 1440A33D
Copy CRC 1440A33D
Copy OK

Track 18
Filename F:\Converted Music\18 - Rock And Roll All Night (Live).wav

Peak level 100.0 %
Track quality 100.0 %
Test CRC A6C99652
Copy CRC A6C99652
Copy OK

No errors occured

End of status report
#777Год: 2003
Жанр: Hard Rock, Glam Rock
Продолжительность: 00:46:50
Кодек: FLAC
Тип битрейта: CBR
Битрейт: 980

Трек лист:
01 - Deuce
02 - Strutter
03 - Let Me Go Rock & Roll
04 - Lick It Up
05 - Calling Dr. Love
06 - Psycho Circus
07 - Beth
08 - Forever
09 - Goin' Blind
10 - Sure Know Something
11 - Shandi
-===- E:\1\Kiss\2003 - Symphony Alive IV 2 CD\CD1\Kiss - 2003 - Symphony Alive IV CD1.flac
Извлечение успешно выполнено
Заключение: этот трек - CDDA с вероятностью 100%
Временный файл удалён.
EAC extraction logfile from 17. August 2003, 0:18 for CD
KISS / Symphony CD1

Used drive : LITE-ON LTR-48125W Adapter: 2 ID: 0
Read mode : Secure with C2, accurate stream, disable cache
Combined read/write offset correction : 0
Overread into Lead-In and Lead-Out : No

Used output format : Internal WAV Routines
44.100 Hz; 16 Bit; Stereo

Other options :
Fill up missing offset samples with silence : Yes
Delete leading and trailing silent blocks : No
Native Win32 interface for Win NT & 2000

Track 1
Filename D:\KISS - Symphony CD1 - 2003\01 - Track01.wav

Peak level 98.8 %
Track quality 99.9 %
Copy CRC 6118B887
Copy OK

Track 2
Filename D:\KISS - Symphony CD1 - 2003\02 - Track02.wav

Peak level 98.8 %
Track quality 100.0 %
Copy CRC 914F10E3
Copy OK

Track 3
Filename D:\KISS - Symphony CD1 - 2003\03 - Track03.wav

Peak level 98.8 %
Track quality 99.9 %
Copy CRC 1A65F1C9
Copy OK

Track 4
Filename D:\KISS - Symphony CD1 - 2003\04 - Track04.wav

Peak level 98.8 %
Track quality 100.0 %
Copy CRC 1E54B203
Copy OK

Track 5
Filename D:\KISS - Symphony CD1 - 2003\05 - Track05.wav

Peak level 98.8 %
Track quality 100.0 %
Copy CRC A996E752
Copy OK

Track 6
Filename D:\KISS - Symphony CD1 - 2003\06 - Track06.wav

Peak level 98.8 %
Track quality 100.0 %
Copy CRC A47ABB04
Copy OK

Track 7
Filename D:\KISS - Symphony CD1 - 2003\07 - Track07.wav

Peak level 98.4 %
Track quality 100.0 %
Copy CRC 3D8F6FC2
Copy OK

Track 8
Filename D:\KISS - Symphony CD1 - 2003\08 - Track08.wav

Peak level 98.8 %
Track quality 100.0 %
Copy CRC D00CF09E
Copy OK

Track 9
Filename D:\KISS - Symphony CD1 - 2003\09 - Track09.wav

Peak level 98.8 %
Track quality 100.0 %
Copy CRC AE93846A
Copy OK

Track 10
Filename D:\KISS - Symphony CD1 - 2003\10 - Track10.wav

Peak level 98.8 %
Track quality 100.0 %
Copy CRC 7D0CC6AE
Copy OK

Track 11
Filename D:\KISS - Symphony CD1 - 2003\11 - Track11.wav

Peak level 98.8 %
Track quality 100.0 %
Copy CRC B1CCA01D
Copy OK

No errors occured

End of status report
#777Год: 2003
Жанр: Hard Rock, Glam Rock
Продолжительность: 00:49:24
Кодек: FLAC
Тип битрейта: CBR
Битрейт: 983

Трек лист:
01 - Detroit Rock City
02 - King Of The Night Time World
03 - Do You Love Me
04 - Shout It Out Loud
05 - God Of Thunder
06 - Love Gun
07 - Black Diamond
08 - Great Expectations
09 - I Was Made For Lovin' You
10 - Rock And Roll All Nite
-===- E:\1\Kiss\2003 - Symphony Alive IV 2 CD\CD2\Kiss - 2003 - Symphony Alive IV CD2.flac
Извлечение успешно выполнено
Заключение: этот трек - CDDA с вероятностью 100%
Временный файл удалён.
EAC extraction logfile from 17. August 2003, 0:44 for CD
KISS / Symphony CD2

Used drive : LITE-ON LTR-48125W Adapter: 2 ID: 0
Read mode : Secure with C2, accurate stream, disable cache
Combined read/write offset correction : 0
Overread into Lead-In and Lead-Out : No

Used output format : Internal WAV Routines
44.100 Hz; 16 Bit; Stereo

Other options :
Fill up missing offset samples with silence : Yes
Delete leading and trailing silent blocks : No
Native Win32 interface for Win NT & 2000

Track 1
Filename D:\KISS - Symphony CD2 - 2003\01 - Track01.wav

Peak level 98.8 %
Track quality 100.0 %
Copy CRC 73C4AE98
Copy OK

Track 2
Filename D:\KISS - Symphony CD2 - 2003\02 - Track02.wav

Peak level 98.8 %
Track quality 100.0 %
Copy CRC 02F8DC9C
Copy OK

Track 3
Filename D:\KISS - Symphony CD2 - 2003\03 - Track03.wav

Peak level 98.8 %
Track quality 100.0 %
Copy CRC 856D4605
Copy OK

Track 4
Filename D:\KISS - Symphony CD2 - 2003\04 - Track04.wav

Peak level 98.8 %
Track quality 100.0 %
Copy CRC E047F8E1
Copy OK

Track 5
Filename D:\KISS - Symphony CD2 - 2003\05 - Track05.wav

Peak level 98.8 %
Track quality 100.0 %
Copy CRC 58D0D4A2
Copy OK

Track 6
Filename D:\KISS - Symphony CD2 - 2003\06 - Track06.wav

Peak level 98.8 %
Track quality 100.0 %
Copy CRC 9F8F33F5
Copy OK

Track 7
Filename D:\KISS - Symphony CD2 - 2003\07 - Track07.wav

Peak level 98.8 %
Track quality 100.0 %
Copy CRC D3135974
Copy OK

Track 8
Filename D:\KISS - Symphony CD2 - 2003\08 - Track08.wav

Peak level 98.8 %
Track quality 100.0 %
Copy CRC C2BBE97E
Copy OK

Track 9
Filename D:\KISS - Symphony CD2 - 2003\09 - Track09.wav

Peak level 98.8 %
Track quality 100.0 %
Copy CRC 67C8514F
Copy OK

Track 10
Filename D:\KISS - Symphony CD2 - 2003\10 - Track10.wav

Peak level 98.8 %
Track quality 100.0 %
Copy CRC 7EC538A4
Copy OK

No errors occured

End of status report
#777Год: 2006
Жанр: Hard Rock, Glam Rock
Продолжительность: 01:17:44
Кодек: FLAC
Тип битрейта: CBR
Битрейт: 1007

Трек лист:
01 - Deuce
02 - Strutter
03 - Got To Choose
04 - Hotter Than Hell
05 - Firehouse
06 - Nothin' To Lose
07 - C'mon And Love Me
08 - Parasite
09 - She
10 - Watchin' You
11 - 100,000 Years
12 - Black Diamond
13 - Rock Bottom
14 - Cold Gin
15 - Rock And Roll All Nite
16 - Let Me Go Rock 'N' Roll
-===- E:\1\Kiss\2006 - Alive! 4 CD\CD1\Kiss - 2006 - Alive! CD1.flac
Извлечение успешно выполнено
Заключение: этот трек - CDDA с вероятностью 100%
Временный файл удалён.
EAC extraction logfile from 29. January 2007, 21:42 for CD
Kiss / Alive! 1975-2000 - Disc 1 of 4 (Alive!)

Used drive : PLEXTOR CD-R PREMIUM Adapter: 1 ID: 0
Read mode : Secure with NO C2, accurate stream, disable cache
Read offset correction : 30
Overread into Lead-In and Lead-Out : Yes

Used output format : C:\Archivos de programa\Exact Audio Copy\wavpack.exe (User Defined Encoder)
128 kBit/s
Additional command line options : -hm -w "Cuesheet=@*.cue" -w "Artist=%a" -w "Album=%g" -w "Year=%y" -w "Genre=%m" %s %d

Other options :
Fill up missing offset samples with silence : Yes
Delete leading and trailing silent blocks : No
Installed external ASPI interface

Range status and errors
Selected range
Filename C:\RIPEOS EAC\Kiss - Alive! 1975-2000 - Disc 1 of 4 (Alive!).wav.wav.wav

Peak level 100.0 %
Range quality 100.0 %
CRC 3ADF2F49
Copy OK

No errors occured

End of status report
#777Год: 2006
Жанр: Hard Rock, Glam Rock
Продолжительность: 01:14:30
Кодек: FLAC
Тип битрейта: CBR
Битрейт: 987

Трек лист:
01 - Detroit Rock City
02 - King Of The Night Time World
03 - Ladies Room
04 - Makin' Love
05 - Love Gun
06 - Calling Dr. Love
07 - Christine Sixteen
08 - Shock Me
09 - Hard Luck Woman
10 - Tomorrow And Tonight
11 - I Stole Your Love
12 - Beth
13 - God Of Thunder
14 - I Want You
15 - Shout It Out Loud
16 - All-American Man
17 - Rockin' In The USA
18 - Larger Than Life
19 - Rocket Ride
20 - Any Way You Want It
21 - Rock And Roll All Nite (Single Version)
-===- E:\1\Kiss\2006 - Alive! 4 CD\CD2\Kiss - 2006 - Alive! CD2.flac
Извлечение успешно выполнено
Заключение: этот трек - CDDA с вероятностью 99%
Временный файл удалён.
EAC extraction logfile from 30. January 2007, 8:06 for CD
Kiss / Alive! 1975-2000 - Disc 2 of 4 (Alive II)

Used drive : PLEXTOR CD-R PREMIUM Adapter: 1 ID: 0
Read mode : Secure with NO C2, accurate stream, disable cache
Read offset correction : 30
Overread into Lead-In and Lead-Out : Yes

Used output format : C:\Archivos de programa\Exact Audio Copy\wavpack.exe (User Defined Encoder)
128 kBit/s
Additional command line options : -hm -w "Cuesheet=@*.cue" -w "Artist=%a" -w "Album=%g" -w "Year=%y" -w "Genre=%m" %s %d

Other options :
Fill up missing offset samples with silence : Yes
Delete leading and trailing silent blocks : No
Installed external ASPI interface

Range status and errors
Selected range
Filename C:\RIPEOS EAC\Kiss - Alive! 1975-2000 - Disc 2 of 4 (Alive II).wav.wav.wav

Peak level 100.0 %
Range quality 100.0 %
CRC 9704B4A7
Copy OK

No errors occured

End of status report
#777Год: 2006
Жанр: Hard Rock, Glam Rock
Продолжительность: 01:13:04
Кодек: FLAC
Тип битрейта: CBR
Битрейт: 1047

Трек лист:
01 - Creatures of the Night [Live]
02 - Deuce [Live]
03 - I Just Wanna [Live]
04 - Unholy [Live]
05 - Heaven's on Fire [Live]
06 - Watchin' You [Live]
07 - Domino [Live]
08 - I Was Made for Lovin' You [Live]
09 - I Still Love You [Live]
10 - Rock and Roll All Nite [Live]
11 - Lick It Up [Live]
12 - Forever [Live]
13 - Take It Off [Live][Bonus Track]
14 - I Love It Loud [Live]
15 - Detroit Rock City [Live]
16 - God Gave Rock 'N' Roll to You II [Live]
17 - Star Spangled Banner [Live]
-===- E:\1\Kiss\2006 - Alive! 4 CD\CD3\Kiss - 2006 - Alive! CD3.flac
Извлечение успешно выполнено
Заключение: этот трек - CDDA с вероятностью 100%
Временный файл удалён.
EAC extraction logfile from 1. February 2007, 15:40 for CD
Kiss / Alive! 1975-2000 - Disc 3 of 4 (Alive III)

Used drive : PLEXTOR CD-R PREMIUM Adapter: 1 ID: 0
Read mode : Secure with NO C2, accurate stream, disable cache
Read offset correction : 30
Overread into Lead-In and Lead-Out : Yes

Used output format : C:\Archivos de programa\Exact Audio Copy\wavpack.exe (User Defined Encoder)
128 kBit/s
Additional command line options : -hm -w "Cuesheet=@*.cue" -w "Artist=%a" -w "Album=%g" -w "Year=%y" -w "Genre=%m" %s %d

Other options :
Fill up missing offset samples with silence : Yes
Delete leading and trailing silent blocks : No
Installed external ASPI interface

Range status and errors
Selected range
Filename C:\RIPEOS EAC\Kiss - Alive! 1975-2000 - Disc 3 of 4 (Alive III).wav.wav

Peak level 99.9 %
Range quality 100.0 %
CRC 11C692A7
Copy OK

No errors occured

End of status report
#777Год: 2006
Жанр: Hard Rock, Glam Rock
Продолжительность: 01:16:53
Кодек: FLAC
Тип битрейта: CBR
Битрейт: 1052

Трек лист:
01 - Psycho Circus
02 - Shout It Out Loud
03 - Deuce
04 - Heaven's On Fire
05 - Into The Void
06 - Firehouse
07 - Do You Love Me
08 - Let Me Go Rock 'n' Roll
09 - I Love It Loud
10 - Lick It Up
11 - 100,000 Years
12 - Love Gun
13 - Black Diamond
14 - Beth
15 - Rock And Roll All Nite
16 - 2000 Man
17 - God Of Thunder
-===- E:\1\Kiss\2006 - Alive! 4 CD\CD4\Kiss - 2006 - Alive! CD4.flac
Извлечение успешно выполнено
Заключение: этот трек - CDDA с вероятностью 100%
Временный файл удалён.
EAC extraction logfile from 28. January 2007, 13:58 for CD
KISS / Alive - The Millenium Concert (BB special)

Used drive : _NEC DVD_RW ND-3500AG Adapter: 0 ID: 2
Read mode : Secure with NO C2, accurate stream, disable cache
Read offset correction : 48
Overread into Lead-In and Lead-Out : No

Used output format : Internal WAV Routines
44.100 Hz; 16 Bit; Stereo

Other options :
Fill up missing offset samples with silence : Yes
Delete leading and trailing silent blocks : No
Installed external ASPI interface

Range status and errors
Selected range
Filename I:\Kiss\KISS - Alive - The Millenium Concert.wav

Peak level 100.0 %
Range quality 100.0 %
CRC B763C29D
Copy OK

No errors occured

End of status report
#777Год: 2009
Жанр: Hard Rock, Glam Rock
Продолжительность: 00:43:17
Кодек: FLAC
Тип битрейта: VBR

Трек лист:
01 - Modern day delilah (Paul Stanley)
02 - Russian Roulette (Gene Simmons)
03 - Never Enough (Paul Stanley)
04 - Yes I Know (Nobody's Perfect) (Gene Simmons)
05 - Stand" (Paul Stanley)
06 - Hot and Cold (Gene Simmons)
07 - All for the Glory (Eric Singer)
08 - Danger Us (Paul Stanley)
09 - I am an Animal' (Gene Simmons)
10 - When Lightning Strikes (Tommy Thayer)
11 - Say Yeah (Paul Stanley)
AUDIOCHECKER v2.0 beta (build 457) - by Dester -
~~~~~~~~~~~~~~~~~~~~~~~~~~~~~~~~~~
-=== НЕ РЕДАКТИРУЙТЕ ЭТОТ ФАЙЛ! ===-

Путь: ...\Kiss - Sonic Boom (2009)

01 -=- 01 - Modern Day Delilah.flac -=- CDDA (100%)
02 -=- 02 - Russian Roulette.flac -=- CDDA (100%)
03 -=- 03 - Never Enough.flac -=- CDDA (100%)
04 -=- 04 - Yes I Know (Nobodys Perfect).flac -=- CDDA (100%)
05 -=- 05 - Stand.flac -=- CDDA (99%)
06 -=- 06 - Hot And Cold.flac -=- CDDA (99%)
07 -=- 07 - All For The Glory.flac -=- CDDA (99%)
08 -=- 08 - Danger Us.flac -=- CDDA (99%)
09 -=- 09 - Im An Animal.flac -=- CDDA (100%)
10 -=- 10 - When Lightning Strikes.flac -=- CDDA (100%)
11 -=- 11 - Say Yeah.flac -=- CDDA (100%)

Сводка 99,64% CDDA

199549620
Exact Audio Copy V0.99 prebeta 5 from 4. May 2009

EAC extraction logfile from 2. October 2009, 18:29

Unknown Artist / Unknown Title

Used drive : HL-DT-STDVDRAM GSA-H10A Adapter: 0 ID: 1

Read mode : Secure
Utilize accurate stream : Yes
Defeat audio cache : Yes
Make use of C2 pointers : No

Read offset correction : 667
Overread into Lead-In and Lead-Out : No
Fill up missing offset samples with silence : Yes
Delete leading and trailing silent blocks : No
Null samples used in CRC calculations : Yes
Used interface : Native Win32 interface for Win NT & 2000
Gap handling : Appended to previous track

Used output format : User Defined Encoder
Selected bitrate : 320 kBit/s
Quality : High
Add ID3 tag : No
Command line compressor : D:\Programme\EAC\Exact Audio Copy\Flac\flac.exe
Additional command line options : -V -8 -T "artist=%a" -T "title=%t" -T "album=%g" -T "date=%y" -T "tracknumber=%n" -T "genre=%m" %s

TOC of the extracted CD

Track | Start | Length | Start sector | End sector
---------------------------------------------------------
1 | 0:00.00 | 3:37.11 | 0 | 16285
2 | 3:37.11 | 4:32.58 | 16286 | 36743
3 | 8:09.69 | 3:26.61 | 36744 | 52254
4 | 11:36.55 | 3:02.29 | 52255 | 65933
5 | 14:39.09 | 4:50.59 | 65934 | 87742
6 | 19:29.68 | 3:36.24 | 87743 | 103966
7 | 23:06.17 | 3:49.55 | 103967 | 121196
8 | 26:55.72 | 4:22.10 | 121197 | 140856
9 | 31:18.07 | 3:47.38 | 140857 | 157919
10 | 35:05.45 | 3:45.06 | 157920 | 174800
11 | 38:50.51 | 4:27.01 | 174801 | 194826

Track 1

Filename D:\Programme\Bit Torrent\incoming\NEUE\Unknown Artist - - Unknown Title\01 - Modern Day Delilah.wav

Pre-gap length 0:00:02.00

Peak level 97.7 %
Track quality 99.9 %
Test CRC 514C4A88
Copy CRC 514C4A88
Track not present in AccurateRip database
Copy OK

Track 2

Filename D:\Programme\Bit Torrent\incoming\NEUE\Unknown Artist - - Unknown Title\02 - Russian Roulette.wav

Pre-gap length 0:00:01.98

Peak level 97.7 %
Track quality 100.0 %
Test CRC 0EEC8AC9
Copy CRC 0EEC8AC9
Track not present in AccurateRip database
Copy OK

Track 3

Filename D:\Programme\Bit Torrent\incoming\NEUE\Unknown Artist - - Unknown Title\03 - Never Enough.wav

Pre-gap length 0:00:00.76

Peak level 97.7 %
Track quality 100.0 %
Test CRC D8297DB7
Copy CRC D8297DB7
Track not present in AccurateRip database
Copy OK

Track 4

Filename D:\Programme\Bit Torrent\incoming\NEUE\Unknown Artist - - Unknown Title\04 - Yes I Know (Nobodys Perfect).wav

Pre-gap length 0:00:00.88

Peak level 97.7 %
Track quality 100.0 %
Test CRC 7387DB8C
Copy CRC 7387DB8C
Track not present in AccurateRip database
Copy OK

Track 5

Filename D:\Programme\Bit Torrent\incoming\NEUE\Unknown Artist - - Unknown Title\05 - Stand.wav

Pre-gap length 0:00:01.02

Peak level 97.7 %
Track quality 100.0 %
Test CRC 0859D213
Copy CRC 0859D213
Track not present in AccurateRip database
Copy OK

Track 6

Filename D:\Programme\Bit Torrent\incoming\NEUE\Unknown Artist - - Unknown Title\06 - Hot And Cold.wav

Pre-gap length 0:00:00.97

Peak level 97.2 %
Track quality 100.0 %
Test CRC 65044235
Copy CRC 65044235
Track not present in AccurateRip database
Copy OK

Track 7

Filename D:\Programme\Bit Torrent\incoming\NEUE\Unknown Artist - - Unknown Title\07 - All For The Glory.wav

Pre-gap length 0:00:01.29

Peak level 97.7 %
Track quality 100.0 %
Test CRC 2AE6370F
Copy CRC 2AE6370F
Track not present in AccurateRip database
Copy OK

Track 8

Filename D:\Programme\Bit Torrent\incoming\NEUE\Unknown Artist - - Unknown Title\08 - Danger Us.wav

Peak level 97.7 %
Track quality 100.0 %
Test CRC 2BEAAEBE
Copy CRC 2BEAAEBE
Track not present in AccurateRip database
Copy OK

Track 9

Filename D:\Programme\Bit Torrent\incoming\NEUE\Unknown Artist - - Unknown Title\09 - Im An Animal.wav

Peak level 97.7 %
Track quality 100.0 %
Test CRC 063B7A3B
Copy CRC 063B7A3B
Track not present in AccurateRip database
Copy OK

Track 10

Filename D:\Programme\Bit Torrent\incoming\NEUE\Unknown Artist - - Unknown Title\10 - When Lightning Strikes.wav

Pre-gap length 0:00:00.40

Peak level 97.7 %
Track quality 100.0 %
Test CRC CC5A2B19
Copy CRC CC5A2B19
Track not present in AccurateRip database
Copy OK

Track 11

Filename D:\Programme\Bit Torrent\incoming\NEUE\Unknown Artist - - Unknown Title\11 - Say Yeah.wav

Pre-gap length 0:00:01.56

Peak level 97.7 %
Track quality 99.9 %
Test CRC 0DC3FBE5
Copy CRC 0DC3FBE5
Track not present in AccurateRip database
Copy OK

None of the tracks are present in the AccurateRip database

No errors occurred

End of status report
Правила, инструкции, FAQ!!!
Торрент  Добавлен [29 окт 2016, 08:58] Скачать торрент Магнет ссылка
Скачать торрент
116.82 КБ

Статус
Проверен Admin (29 окт 2016, 08:59)
 
Размер  14.06 ГБ
Приватный: Нет (DHT включён)
.torrent скачан  5
Как залить торрент? | Как скачать Torrent? | Как смотреть и слушать онлайн?  
Гость
 



Вернуться в Дискографии (Зарубежные)

Кто сейчас на конференции

Сейчас этот форум просматривают: нет зарегистрированных пользователей и гости: 0