Киноэпопея: Освобождение (1968-1971) BDRip [H.264/1080p]


Статистика раздачи
Размер: 49.4 ГБ | Добавлен: 09 май 2019, 18:15 | Скачали: 0
Сидеров: 45  [0 байт/сек]    Личеров: 37  [0 байт/сек]

Сообщение Гость » 09 май 2019, 18:15

Киноэпопея: Освобождение (1968-1971) BDRip [H.264/1080p]

« Огненная дуга / Прорыв / Направление главного удара / Битва за Берлин / Последний штурм »
Производство: СССР, ГДР, Польша, Италия / Мосфильм, Авала-фильм, Киностудия Дефа, ТО «Старт», Dino de Laurentiis Cinematografica
Жанр: Военный, Драма, Мелодрама

Режиссер: Юрий Озеров
Актеры: Бухути Закариадзе, Михаил Ульянов, Николай Олялин, Лариса Голубкина, Фриц Диц, Ангелика Валлер, Петер Штурм, Юрий Каморный, Владлен Давыдов, Виктор Авдюшко, Георгий Бурков, Борис Зайденберг, Василий Шукшин, Николай Рыбников

Описание: «Освобождение» - киноэпопея из пяти фильмов о Великой Отечественной войне, режиссёра Юрия Озерова по сценарию Юрия Бондарева и Оскара Курганова.
Фильм первый - «Огненная дуга» повествует о грандиозной битве на Курской дуге летом 1943 года. Здесь произошло самое крупное в истории Второй мировой войны танковое сражение. Наряду с личными судьбами героев в фильме показаны батальные сцены, деятельность штабов и разведок, тех, кто трудился на фронте и в тылу.
Фильм второй - «Прорыв» посвящен битве за Днепр и наступательной операции советских войск в 1944 г. В центре этого фильма судьба батальона.
Фильм третий - «Направление главного удара» посвящен операции «Багратион», в результате которой была полностью освобождена от фашистских войск Белоруссия, и войска Советской армии вышли к государственной границе…
Фильм четвертый - «Битва за Берлин». 1945 г. Последние месяцы войны. Именно в эти дни решалась судьба порабощенной Европы. Началась Висло-Одерская операция. Три фронта под командованием Конева, Жукова и Рокоссовского устремились к Берлину.
Фильм пятый - «Последний штурм». Последние дни войны, штурм рейхстага, сражение за каждый метр, за каждый этаж - и, наконец, водружение Знамени Победы над рейхстагом. Раздались первые залпы Победы.

https://www.imdb.com/title/tt0151852/?ref_=plg_rt_1
Возраст: 12+ (зрителям, достигшим 12 лет)
Возраст: 16+ (зрителям, достигшим 16 лет)

Релиз от: Маrilуn Моnrое
Продолжительность: 01:31:35, 01:28:37, 02:10:39, 01:26:08, 01:13:38
Качество видео: BDRip
Перевод: Не требуется
Субтитры: Отсутствуют

Видео: AVC/H.264, 14.8 Mbps, 1920x816
Аудио: AC3 2.0, 224 Kbps, 48.0 KHz
Код: выделить все
Общее
Полное имя                               : 1. Огненная дуга.mkv
Формат                                   : Matroska
Версия формата                           : Version 1
Размер файла                             : 9,61 Гбайт
Продолжительность                        : 1 ч. 31 м.
Общий поток                              : 15,0 Мбит/сек
Дата кодирования                         : UTC 2016-11-29 16:08:34
Программа кодирования                    : mkvmerge v2.4.1 ('Use Me') built on Dec  5 2008 18:30:05
Библиотека кодирования                   : libebml v0.7.7 + libmatroska v0.8.1

Видео
Идентификатор                            : 1
Формат                                   : AVC
Формат/Информация                        : Advanced Video Codec
Профиль формата                          : High@L4.1
Параметр CABAC формата                   : Да
Параметр ReFrames формата                : 5 кадров
Идентификатор кодека                     : V_MPEG4/ISO/AVC
Продолжительность                        : 1 ч. 31 м.
Битрейт                                  : 14,8 Мбит/сек
Ширина                                   : 1920 пикселей
Высота                                   : 816 пикселей
Соотношение сторон                       : 2,35:1
Режим частоты кадров                     : Постоянный
Частота кадров                           : 24,000 кадра/сек
Цветовое пространство                    : YUV
Субдискретизация насыщенности            : 4:2:0
Битовая глубина                          : 8 бит
Тип развёртки                            : Прогрессивная
Бит/(Пиксели*Кадры)                      : 0.394
Размер потока                            : 9,28 Гбайт (97%)
Заголовок                                : Освобождение: Огненная дуга (1968)
Библиотека кодирования                   : x264 core 148 r2638 7599210
Настройки программы                      : cabac=1 / ref=5 / deblock=1:-3:-3 / analyse=0x3:0x133 / me=umh / subme=10 / psy=1 / psy_rd=1.00:0.10 / mixed_ref=1 / me_range=48 / chroma_me=1 / trellis=2 / 8x8dct=1 / cqm=0 / deadzone=21,11 / fast_pskip=0 / chroma_qp_offset=-3 / threads=6 / lookahead_threads=1 / sliced_threads=0 / nr=0 / decimate=1 / interlaced=0 / bluray_compat=0 / constrained_intra=0 / bframes=7 / b_pyramid=2 / b_adapt=2 / b_bias=0 / direct=3 / weightb=1 / open_gop=0 / weightp=2 / keyint=240 / keyint_min=22 / scenecut=40 / intra_refresh=0 / rc_lookahead=40 / rc=2pass / mbtree=1 / bitrate=14800 / ratetol=1.0 / qcomp=0.60 / qpmin=10 / qpmax=51 / qpstep=4 / cplxblur=20.0 / qblur=0.5 / ip_ratio=1.40 / aq=1:1.00
Язык                                     : Russian
Default                                  : Да
Forced                                   : Нет

Аудио
Идентификатор                            : 2
Формат                                   : AC-3
Формат/Информация                        : Audio Coding 3
Расширение режима                        : CM (complete main)
Параметр Endianness формата              : Big
Идентификатор кодека                     : A_AC3
Продолжительность                        : 1 ч. 31 м.
Вид битрейта                             : Постоянный
Битрейт                                  : 224 Кбит/сек
Каналы                                   : 2 канала
Расположение каналов                     : Front: L R
Частота                                  : 48,0 КГц
Частота кадров                           : 31,250 кадров/сек (1536 spf)
Битовая глубина                          : 16 бит
Метод сжатия                             : С потерями
Размер потока                            : 147 Мбайт (1%)
Заголовок                                : AC3 (Оригинал)
Язык                                     : Russian
Default                                  : Да
Forced                                   : Нет
» Съёмки проводились в окрестностях города Переславля-Залесского, т. к. разрешение на проведение съёмок на месте реальных событий так и не было получено, хотя съемочная группа выезжала в Курск.
» Съёмки всех пяти фильмов эпопеи проходили в период с 1967 по 1971 год.
» Лучший фильм по опросу журнала «Советский экран» в 1972 году.
» Занимает по посещаемости 23-е место среди отечественных фильмов за всю историю советского кинопроката.
» Курировал работу съёмочной группы непосредственно ЦК КПСС. С самого начала Юрия Озерова предупредили, что о первых двух годах Великой Отечественной войны не может быть и речи: картина должна сразу начинаться с Курской битвы.
» После того, как в 1968 году этот фильм показали маршалу Гречко и генералу Епишеву, картина легла на полку и пролежала там до лета 1969 года. В течение этого времени Юрий Озеров переделывал картину 4 раза и успел закончить следующий фильм эпопеи — «Прорыв».
» Занимает по посещаемости 24-е место среди отечественных фильмов за всю историю советского кинопроката.
» Участие в создании фильма приняли несколько европейских социалистических государств, но львиную часть бюджета предоставил СССР.
» Мундир Сталина изготовил именно тот портной, что шил мундиры настоящему Сталину. Немецкие мундиры, за неимением оригинальных, также пришлось шить. Каски (пластмассовые для меньшего веса) и немецкие ордена изготовили на подсобном производстве студии «Мосфильм».
» Военные съёмки велись там же, где и два предыдущих фильма — на специально выделенной территории около Переславля-Залесского.
» Для съемок на Львовском ремонтно-механическом заводе были изготовлены 10 «Тигров» и 8 «Пантер». Министр обороны маршал Малиновский распорядился выделить 100 отечественных танков, которые перекрасили под немецкие, а всего в съёмках участвовало 150 танков. Подобным образом «обзавелись» и самолётами. Например, Як-18 — «в роли» всех советских истребителей, а чешские «Злин-50» — в роли немецких «мессершмитов».
» В съёмках принимали участие более 3000 солдат. Сами съёмки проходили почти как настоящие сражения: оборудовались штабы, прокладывалась связь, над полем битвы кружили вертолёты, на одном из которых постоянно находился режиссер Юрий Озеров.
» В 2003 году все пять фильмов цикла «Освобождение» были полностью отреставрированы на киностудии «Мосфильм».
» Всего в эпопее действует 51 реальный исторический персонаж. Подбор актёров на роли этих персонажей оказался непростым делом. Главная проблема заключалась в том, что на момент съемок практически все прототипы героев были ещё живы. Большинство из них занимали высокие посты и интересовались тем, как будут выглядеть на экране. Нужно было не просто добиться портретного сходства, но и получить согласие самого прототипа (или кураторов съёмок) на изображение на экране этого прототипа, тем или иным актёром.
» Весь цикл консультировали сотни специалистов и участников тех событий, в том числе полковник фон Вицлебен, племянник фельдмаршала Эрвина фон Вицлебена — участника «заговора генералов» 20 июля 1944 года.
» Фильм снимался в Восточном Берлине (ГДР).
» Во время съемок, в городе, начиналась реконструкция одного из центральных районов. Все старые дома предполагалось снести, чтобы на их месте возвести современные здания, поэтому этот район легко отдали под съёмки.
» Штурм рейхстага снимался по частям. Нашли полуразрушенный собор, фасад и парадная лестница которого очень напоминали рейхстаг. Бои внутри здания сняли на «Мосфильме» и в берлинском Доме техники.
» Особое место в картине занимает эпизод с затоплением метро. Эти съёмки прошли под Москвой, где на одном из шлюзов Москвы-реки построили декорацию берлинской подземки, куда привезли вывезенные в 1945 году из Берлина вагоны. Затопление «метро» происходило в результате открытия этого шлюза.
» Всего в картине задействовали 107 советских, 45 немецких, 11 польских артистов, одного итальянца и одного румына.



Скриншоты:



Время раздачи:
С 9:00 до 21:00
Правила, инструкции, FAQ!!!
Торрент  Добавлен [09 май 2019, 18:15] Скачать торрент Магнет ссылка
Скачать торрент
124.64 КБ

Статус
Проверен 
 
Размер  49.4 ГБ
Приватный: Нет (DHT включён)
.torrent скачан  0
Как залить торрент? | Как скачать Torrent? | Как смотреть и слушать онлайн?  
Гость
 



Вернуться в 720p | 1080p

Кто сейчас на конференции

Сейчас этот форум просматривают: нет зарегистрированных пользователей и гости: 0