Kim Wilde - Discography (14 Albums) (1981 - 2006) [APE | FLAC|lossless]<Pop, New Wave, Rock, Dance>


Статистика раздачи
Размер: 4.8 ГБ | Добавлен: 12 янв 2015, 21:18 | Скачали: 15
Сидеров: 285  [0 байт/сек]    Личеров: 82  [0 байт/сек]

Сообщение Гость » 12 янв 2015, 21:18

Жанр:
Pop, New Wave, Rock, Dance
Год выпуска диска: 1981 - 2006
Производитель диска: Fame (UK), EMI Electrola (Germany), MCA Records Ltd. (UK),
MCA Records (US), EMI Music (Germany)
Кодек: APE | FLAC
Тип рипа: image + .cue
Битрейт: lossless
Продолжительность: 12:17:36
Ким Уайлд родилась 18 ноября 1960 года в западной части Лондона, в Чизвике. Ее настоящая фамилия - Смит, псевдоним же она позаимствовала у своего отца, популярного в пятидесятые годы поп-певца Марти Уайлда (настоящее имя - Реджинальд Смит), одного из пионеров британского рок-н-ролла.

Когда ей исполнилось девять лет, Ким вместе с семьей переехала в Хертфордшир. По окончании школы она поступила в арт-колледж Сент-Олбенс. В 1980 году ее младший брат Рики записал в арендованной отцом студии несколько песен, напетых Ким, и вскоре демозапись попала в руки шефа звукозаписывающей компании "RAK Records" известного продюсера Мики Моста, который тут же заключил с начинающей певицей контракт. Первый сингл Ким "Kids In America", вышедший в январе 1981 года, принес ей моментальный успех, заняв второе место в британских чартах и став двадцать пятым в рейтинге авторитетного американского издания "Биллборд".

Появившийся в том же году дебютный альбом, названный просто "Kim Wilde", попал на третье место в Великобритании, а сопровождавшие его синглы "Chequered Love" и "Water On Glass" закрепили первоначальный успех молодой певицы, также пробившись на высокие позиции в британских чартах. Все песни этого альбома были написаны ее отцом Марти и младшим братом Рики, которые продолжали работать с ней до 1988 года, став авторами подавляющего большинства композиций, записанных Ким в восьмидесятые. Ее имидж харизматичной, эффектной блондинки во многом напоминал певицу Дебби Харри из популярной группы "Blondie", что на первых порах дало повод сравнивать двух исполнительниц, однако это сходство было достаточно поверхностным.

Исполняемый Ким энергичный поп-рок вскоре претерпел некоторые изменения: уже на втором альбоме "Select" (1982) в музыке стало доминировать холодное синтезаторное звучание, подчеркнутое ритмом электронных ударных. Несмотря на то, что этот альбом считается одной из наиболее удачных работ певицы, ему не суждено было повторить стремительный прорыв своего предшественника, и в чартах он занял более скромное девятнадцатое место. Тем не менее, он принес ей еще два хита - "Cambodia" и "View From A Bridge". Последующие альбомы "Catch As Catch Can" (1983) и "Teases & Dares" (1984) не снискали ей сколько-нибудь заметного успеха, хотя отдельные композиции, такие как "Love Blond", "The Second Time" и "Rage To Love" пользовались определенной популярностью у британской аудитории. В целом же в творчестве певицы обозначился застой, а ее третий альбом так и не был издан в Соединенных Штатах. В 1984 году Ким покинула "RAK Records", подписав контракт с крупной американской корпорацией "MCA".

В 1986 году ей отчасти удалось восстановить пошатнувшуюся популярность, записав танцевальную версию старого хита американской группы "Supremes" "You Keep Me Hanging On", которая заняла второе место в Великобритании и первое в Соединенных Штатах. Тем временем вышел пятый альбом "Another Step", а ее очередным британским хитом стала песня "Another Step (Close To You)", записанная Ким в дуэте с соул-певцом Джуниором. На следующий год она вновь попала в чарты, спев вместе с комедийным актером Мелом Смитом рождественскую песню "Rockin'

Around Christmas Tree". Еще более для Ким удачным стал 1988 год, когда в декабре ее альбом "Close" достиг восьмого места в чартах, породив целую серию топ-хитов: "You Came", "Never Trust A Stranger" и "Four Letter Word". Стиль певицы теперь больше напоминал коммерческую танцевальную музыку, нежели резкий синтезаторный поп первой половины восьмидесятых, а молодежный облик певицы сменил более женственный и более сексуальный имидж утонченной блондинки.

Альбомы девяностых годов "Love Moves" (1990) и "Love Is" (1992) уже не вызывали прежнего интереса у публики, хотя отдельные композиции, такие как "Love Is Holy" время от времени попадали в чарты. После полного провала отмеченного влиянием музыки соул альбома "Now And Forever" (1995), Ким надолго оставила карьеру поп-певицы. В 1996 году она вышла замуж за Хэла Фаулера, с которым выступала в постановке мюзикла "Томми" и в дальнейшем родила двух детей: сына, которого назвали Харри Тристан и дочь Роуз Элизабет.

Впоследствии Ким вернулась к своему старому увлечению садово-ландшафтным дизайном и одно время в конце девяностых вела на телевидении специальную тематическую программу "Лучшие сады". В 2001 году она вместе с другими звездами восьмидесятых участвовала в ностальгическом турне "Then And Now" и выпустила в Германии сингл с кавер-версией песни "Born To Be Wild" группы "Steppenwolf". В сентябре того же года появидся хорошо принятый сборник "The Very Best Of Kim Wilde", в который вошла одна новая песня "Loved". В 2002-2003 годах Ким предприняла несколько гастрольных поездок по континентальной Европе, где она всегда пользовалась популярностью, а в 2006 году выпустила новый альбом "Never Say Never", содержащий как новые песни, так и современные версии некоторых ее старых хитов.


Albums:

01. Water On Glas (3:31)
02. Our Town (3:49)
03. Everything We Know (3:45)
04. Young Heroes (3:14)
05. Kids In America (3:27)
06. Chequered Love (3:21)
07. 2-6-5-8-0 (3:12)
08. You'll Never Be So Wrong (3:17)
09. Falling Out (4:04)
10. Tuning In Tuning On (4:27)



Код:
Код: Выделить всё
Отчёт EAC об извлечении, выполненном 8. ноября 2008, 9:35 для диска:
Kim Wilde / Kim Wilde

Дисковод: Optiarc DVD RW AD-7200S Adapter: 1 ID: 1
Режим чтения: Достоверный (C2: нет, Точный поток: да, Отключение кэша: да)
Коррекция смещения при чтении: 48
Способность читать области Lead-in и Lead-out : Нет

Выходной формат: Monkey's Audio Lossless Encoder v3.99 DLL
Fast Lossless Compression

Другие параметры:
Заполнение пропущенных сэмплов тишиной : Да
Удаление блоков с тишиной в начале и конце : Нет
Встроенный Win32-интерфейс для Win NT/2000

Характеристики диапазона извлечения и сообщения об ошибках
Выбранный диапазон
Имя файла F:\Музыка\торренты\Kim Wilde _дискография\1981\Kim Wilde - Kim Wilde.ape

Пиковый уровень 100.0 %
Качество диапазона 99.9 %
CRC 1E2EF172
Копирование... OK

Ошибок не произошло

Конец отчёта

Код:
Код: Выделить всё
AUDIOCHECKER v2.0 beta (build 457) - by Dester -
~~~~~~~~~~~~~~~~~~~~~~~~~~~~~~~~~~

Начато: пятница, 18. 12. 2009. - 15:38.00
Найдено файлов: 1

1 -===- F:\Music\[1981] [APE] Kim Wilde\Kim Wilde - Kim Wilde [1981] [APE].ape
  Извлечение успешно выполнено
  Заключение: этот трек - MPEG с вероятностью 95%
  Временный файл удалён.

Завершено: пятница, 18. 12. 2009. - 15:41.51 (Время операции: 0:03.50)
01. Ego (4:08)
02. Words Fell Down (3:29)
03. Action City (3:21)
04. View From A Bridge (3:30)
05. Just A Feeling (4:09)
06. Chaos At The Airport (3:15)
07. Take Me Tonight (3:52)
08. Can You Come Over (3:32)
09. Wendy Sadd (3:47)
10. Cambolia - Reprise (7:12)



Код:
Код: Выделить всё
Отчёт EAC об извлечении, выполненном 8. ноября 2008, 9:47 для диска:
Kim Wilde / Select

Дисковод: Optiarc DVD RW AD-7200S   Adapter: 1  ID: 1
Режим чтения: Достоверный (C2: нет, Точный поток: да, Отключение кэша: да)
Коррекция смещения при чтении: 48
Способность читать области Lead-in и Lead-out : Нет

Выходной формат: Monkey's Audio Lossless Encoder v3.99 DLL
                     Fast Lossless Compression

Другие параметры:
    Заполнение пропущенных сэмплов тишиной : Да
    Удаление блоков с тишиной в начале и конце : Нет
    Встроенный Win32-интерфейс для Win NT/2000

Характеристики диапазона извлечения и сообщения об ошибках
Выбранный диапазон
     Имя файла F:\Kim Wilde - Select.ape

     Пиковый уровень 98.2 %
     Качество диапазона 99.9 %
     CRC 98BFDBF8
     Копирование... OK

Ошибок не произошло

Конец отчёта

Код:
Код: Выделить всё
AUDIOCHECKER v2.0 beta (build 457) - by Dester -
~~~~~~~~~~~~~~~~~~~~~~~~~~~~~~~~~~

Начато: пятница, 18. 12. 2009. - 15:43.08
Найдено файлов: 1

1 -===- F:\Music\[1982] [APE] Select\Kim Wilde - Select [1982] [APE].ape
  Извлечение успешно выполнено
  Заключение: этот трек - CDDA с вероятностью 100%
  Временный файл удалён.

Завершено: пятница, 18. 12. 2009. - 15:46.46 (Время операции: 0:03.38)
01. House Of Salome (3:37)
02. Back Street Joe (4:29)
03. Stay Awhile (3:40)
04. Love Blonde (4:06)
05. Dream Sequence (6:05)
06. Dancing In The Dark (3:44)
07. Shoot To Disable (3:37)
08. Can You Hear It (4:22)
09. Sparks (4:09)
10. Sing It Out For Love (3:34)



Код:
Код: Выделить всё
Отчёт EAC об извлечении, выполненном 8. ноября 2008, 10:04 для диска:
Kim Wilde / Catch as Catch Can

Дисковод: Optiarc DVD RW AD-7200S Adapter: 1 ID: 1
Режим чтения: Достоверный (C2: нет, Точный поток: да, Отключение кэша: да)
Коррекция смещения при чтении: 48
Способность читать области Lead-in и Lead-out : Нет

Выходной формат: Monkey's Audio Lossless Encoder v3.99 DLL
Fast Lossless Compression

Другие параметры:
Заполнение пропущенных сэмплов тишиной : Да
Удаление блоков с тишиной в начале и конце : Нет
Встроенный Win32-интерфейс для Win NT/2000

Характеристики диапазона извлечения и сообщения об ошибках
Выбранный диапазон
Имя файла F:\Музыка\торренты\Kim Wilde _дискография\1983\Kim Wilde - Catch as Catch Can.ape

Пиковый уровень 88.8 %
Качество диапазона 100.0 %
CRC 28F49B6C
Копирование... OK

Ошибок не произошло

Конец отчёта

Код:
Код: Выделить всё
AUDIOCHECKER v2.0 beta (build 457) - by Dester -
~~~~~~~~~~~~~~~~~~~~~~~~~~~~~~~~~~

Начато: пятница, 18. 12. 2009. - 15:47.43
Найдено файлов: 1

1 -===- F:\Music\[1983] [APE] Catch As Catch Can\Kim Wilde - Catch As Catch Can [1983] [APE].ape
  Извлечение успешно выполнено
  Заключение: этот трек - CDDA с вероятностью 99%
  Временный файл удалён.

Завершено: пятница, 18. 12. 2009. - 15:51.54 (Время операции: 0:04.10)
01. The Touch (4:08)
02. Is It Over (3:52)
03. Suburbs Of Moscow (3:22)
04. Fit In (4:38)
05. Rage To Love (4:18)
06. The Second Time (3:52)
07. Bladerunner (4:28)
08. Janine (3:44)
09. Shangri-La (4:45)
10. Thought It Was Goodbye (4:35)



Код:
Код: Выделить всё
Отчёт EAC об извлечении, выполненном 8. ноября 2008, 10:17 для диска:
Kim Wilde / Teases & Dares

Дисковод: Optiarc DVD RW AD-7200S Adapter: 1 ID: 1
Режим чтения: Достоверный (C2: нет, Точный поток: да, Отключение кэша: да)
Коррекция смещения при чтении: 48
Способность читать области Lead-in и Lead-out : Нет

Выходной формат: Monkey's Audio Lossless Encoder v3.99 DLL
Fast Lossless Compression

Другие параметры:
Заполнение пропущенных сэмплов тишиной : Да
Удаление блоков с тишиной в начале и конце : Нет
Встроенный Win32-интерфейс для Win NT/2000

Характеристики диапазона извлечения и сообщения об ошибках
Выбранный диапазон
Имя файла F:\Музыка\торренты\Kim Wilde _дискография\1984\Kim Wilde - Teases & Dares.ape

Пиковый уровень 100.0 %
Качество диапазона 100.0 %
CRC AC6F5001
Копирование... OK

Ошибок не произошло

Конец отчёта

Код:
Код: Выделить всё
AUDIOCHECKER v2.0 beta (build 457) - by Dester -
~~~~~~~~~~~~~~~~~~~~~~~~~~~~~~~~~~

Начато: пятница, 18. 12. 2009. - 15:52.19
Найдено файлов: 1

1 -===- F:\Music\[1984] [APE] Teases & Dares\Kim Wilde - Teases & Dares [1984] [APE].ape
  Извлечение успешно выполнено
  Заключение: этот трек - CDDA с вероятностью 100%
  Временный файл удалён.

Завершено: пятница, 18. 12. 2009. - 15:56.46 (Время операции: 0:04.27)
01. You Keep Me Hangin' On (4:15)
02. Hit Him (3:32)
03. Another Step (Closer to You) (3:25)
04. The Thrill of It (3:55)
05. I've Got So Much Love (3:57)
06. Victim (4:01)
07. Schoolgirl (3:40)
08. Say You Really Want Me (3:59)
09. She Hasn't Got Time for You (4:02)
10. Brothers (4:48)
11. Missing (4:28)
12. How Do You Want My Love (3:57)
13. Don't Say Nothing's Changed (3:55)



Код:
Код: Выделить всё
Отчёт EAC об извлечении, выполненном 8. ноября 2008, 10:31 для диска:
Kim Wilde / Another Step

Дисковод: Optiarc DVD RW AD-7200S Adapter: 1 ID: 1
Режим чтения: Достоверный (C2: нет, Точный поток: да, Отключение кэша: да)
Коррекция смещения при чтении: 48
Способность читать области Lead-in и Lead-out : Нет

Выходной формат: Monkey's Audio Lossless Encoder v3.99 DLL
Fast Lossless Compression

Другие параметры:
Заполнение пропущенных сэмплов тишиной : Да
Удаление блоков с тишиной в начале и конце : Нет
Встроенный Win32-интерфейс для Win NT/2000

Характеристики диапазона извлечения и сообщения об ошибках
Выбранный диапазон
Имя файла F:\Музыка\торренты\Kim Wilde _дискография\1986\Kim Wilde - Another Step.ape

Пиковый уровень 100.0 %
Качество диапазона 100.0 %
CRC C87C0087
Копирование... OK

Ошибок не произошло

Конец отчёта

Код:
Код: Выделить всё
AUDIOCHECKER v2.0 beta (build 457) - by Dester -
~~~~~~~~~~~~~~~~~~~~~~~~~~~~~~~~~~

Начато: пятница, 18. 12. 2009. - 15:57.12
Найдено файлов: 1

1 -===- F:\Music\[1986] [APE] Another Step\Kim Wilde - Another Step [1986] [APE].ape
  Извлечение успешно выполнено
  Заключение: этот трек - CDDA с вероятностью 100%
  Временный файл удалён.

Завершено: пятница, 18. 12. 2009. - 16:02.16 (Время операции: 0:05.04)
01. Hey Mister Heartache (4:34)
02. You Came (4:34)
03. Four Letter Word (4:02)
04. Love In The Natural Way (4:16)
05. Love's A No (4:15)
06. Never Trust A Stranger (4:05)
07. You'll Be The One Who'll Lose (4:31)
08. European Soul (5:21)
09. Stone (4:40)
10. Lucky Guy (2:38)
11. Hey Mister Heartache (12" version) (8:03)



Код:
Код: Выделить всё
Отчёт EAC об извлечении, выполненном 8. ноября 2008, 13:10 для диска:
Kim Wilde / Close

Дисковод: Optiarc DVD RW AD-7200S Adapter: 1 ID: 1
Режим чтения: Достоверный (C2: нет, Точный поток: да, Отключение кэша: да)
Коррекция смещения при чтении: 48
Способность читать области Lead-in и Lead-out : Нет

Выходной формат: Monkey's Audio Lossless Encoder v3.99 DLL
Fast Lossless Compression

Другие параметры:
Заполнение пропущенных сэмплов тишиной : Да
Удаление блоков с тишиной в начале и конце : Нет
Встроенный Win32-интерфейс для Win NT/2000

Характеристики диапазона извлечения и сообщения об ошибках
Выбранный диапазон
Имя файла F:\Музыка\торренты\Kim Wilde _дискография\1988\Kim Wilde - Close.ape

Пиковый уровень 100.0 %
Качество диапазона 100.0 %
CRC CCEE4D7E
Копирование... OK

Ошибок не произошло

Конец отчёта

Код:
Код: Выделить всё
AUDIOCHECKER v2.0 beta (build 457) - by Dester -
~~~~~~~~~~~~~~~~~~~~~~~~~~~~~~~~~~

Начато: пятница, 18. 12. 2009. - 16:03.52
Найдено файлов: 1

1 -===- F:\Music\[1988] [APE] Close\Kim Wilde - Close [1988] [APE].ape
  Извлечение успешно выполнено
  Заключение: этот трек - MPEG с вероятностью 95%
  Временный файл удалён.

Завершено: пятница, 18. 12. 2009. - 16:08.24 (Время операции: 0:04.32)
01. It's Here (3:36)
02. Love (Send Him Back To Me) (4:32)
03. Storm In Our Hearts (5:09)
04. World In Perfect Harmony (3:55)
05. Someday (4:51)
06. Time (4:12)
07. Who's To Blame (3:50)
08. Can't Get Enough (Of Your Love) (4:00)
09. In Hollywood (4:19)
10. I Can't Say Goodbye (4:57)



Код:
Код: Выделить всё
Exact Audio Copy V0.99 prebeta 4 from 23. January 2008

EAC extraction logfile from 14. November 2008, 21:07

Kim Wilde / Love Moves

Used drive : HL-DT-STDVDRAM GSA-4163B Adapter: 1 ID: 1

Read mode : Secure
Utilize accurate stream : Yes
Defeat audio cache : Yes
Make use of C2 pointers : No

Read offset correction : 667
Overread into Lead-In and Lead-Out : No
Fill up missing offset samples with silence : Yes
Delete leading and trailing silent blocks : No
Null samples used in CRC calculations : Yes
Used interface : Installed external ASPI interface

Used output format : User Defined Encoder
Selected bitrate : 32 kBit/s
Quality : High
Add ID3 tag : No
Command line compressor : C:\Program Files\Exact Audio Copy\Flac\flac.exe
Additional command line options : -8 -V -T "ARTIST=%a" -T "TITLE=%t" -T "ALBUM=%g" -T "DATE=%y" -T "TRACKNUMBER=%n" -T "GENRE=%m" -T

TOC of the extracted CD

Track | Start | Length | Start sector | End sector
---------------------------------------------------------
1 | 0:00.33 | 3:36.47 | 33 | 16279
2 | 3:37.05 | 4:32.70 | 16280 | 36749
3 | 8:10.00 | 5:09.05 | 36750 | 59929
4 | 13:19.05 | 3:55.15 | 59930 | 77569
5 | 17:14.20 | 4:51.48 | 77570 | 99442
6 | 22:05.68 | 4:12.32 | 99443 | 118374
7 | 26:18.25 | 3:50.50 | 118375 | 135674
8 | 30:09.00 | 4:00.28 | 135675 | 153702
9 | 34:09.28 | 4:19.40 | 153703 | 173167
10 | 38:28.68 | 4:57.20 | 173168 | 195462

Range status and errors

Selected range

Filename F:\Extraction\Kim Wilde - Love Moves.wav

Peak level 97.7 %
Range quality 100.0 %
Copy CRC 4DC1F941
Copy OK

No errors occurred

AccurateRip summary

Track 1 accurately ripped (confidence 2) [A6445E23]
Track 2 accurately ripped (confidence 2) [98650E97]
Track 3 accurately ripped (confidence 2) [79439068]
Track 4 accurately ripped (confidence 2) [67A5178A]
Track 5 accurately ripped (confidence 2) [2295490D]
Track 6 accurately ripped (confidence 2) [44A8611E]
Track 7 accurately ripped (confidence 2) [011B29FA]
Track 8 accurately ripped (confidence 2) [B87EBBC8]
Track 9 accurately ripped (confidence 2) [F9E1C145]
Track 10 accurately ripped (confidence 2) [1DCB3BAB]

All tracks accurately ripped

End of status report

Код:
Код: Выделить всё
AUDIOCHECKER v2.0 beta (build 457) - by Dester -
~~~~~~~~~~~~~~~~~~~~~~~~~~~~~~~~~~

Начато: пятница, 18. 12. 2009. - 16:09.00
Найдено файлов: 1

1 -===- F:\Music\[1990] [FLAC] Love Moves\Kim Wilde - Love Moves [1990] [FLAC].flac
  Извлечение успешно выполнено
  Заключение: этот трек - MPEG с вероятностью 95%
  Временный файл удалён.

Завершено: пятница, 18. 12. 2009. - 16:12.41 (Время операции: 0:03.40)
01. Love Is Holy (4:02)
02. Who Do You Think You Are (3:46)
03. I Believe In You (4:07)
04. Touched By Your Magic (4:35)
05. I Won't Change The Way That I Feel (4:06)
06. Million Miles Away (4:06)
07. The Light Of The Moon (Belongs To Me) (4:13)
08. Heart Over Mind (4:06)
09. A Miracle's Coming (3:57)
10. Try Again (4:20)
11. Too Late (3:59)



Код:
Код: Выделить всё
EAC extraction logfile from 8. June 2008, 16:08 for CD
Kim Wilde / Love is

Used drive : Optiarc DVD RW AD-7170S Adapter: 2 ID: 0
Read mode : Secure with NO C2, accurate stream, disable cache
Read offset correction : 48
Overread into Lead-In and Lead-Out : No

Used output format : Monkey's Audio Lossless Encoder v3.99 DLL
High Lossless Compression

Other options :
Fill up missing offset samples with silence : Yes
Delete leading and trailing silent blocks : No
Installed external ASPI interface

Range status and errors
Selected range
Filename C:\Documents and Settings\Администратор\Рабочий стол\Kim Wilde - Love Is - 1992\CDImage.ape

Peak level 100.0 %
Range quality 100.0 %
CRC 8A6EEBDF
Copy OK

No errors occured

End of status report

Код:
Код: Выделить всё
AUDIOCHECKER v2.0 beta (build 457) - by Dester -
~~~~~~~~~~~~~~~~~~~~~~~~~~~~~~~~~~

Начато: пятница, 18. 12. 2009. - 16:13.04
Найдено файлов: 1

1 -===- F:\Music\[1992] [APE] Love Is\Kim Wilde - Love Is [1992] [APE].ape
  Извлечение успешно выполнено
  Заключение: этот трек - MPEG с вероятностью 95%
  Временный файл удалён.

Завершено: пятница, 18. 12. 2009. - 16:17.44 (Время операции: 0:04.39)
01. Breakin' Away (3:37)
02. High On You (4:32)
03. This I Swear (4:24)
04. C'mon Love Me (5:32)
05. True To You (4:56)
06. Hypnotise (4:49)
07. Heaven (3:50)
08. Sweet Inspiration (3:51)
09. Where Do You Go From Here (4:33)
10. Hold On (4:35)
11. You're All I Wanna Do (4:03)
12. Life & Soul (4:33)
13. Now & Forever (5:09)
14. Back To Heaven (1:42)



Код:
Код: Выделить всё
Отчёт EAC об извлечении, выполненном 8. ноября 2008, 13:26 для диска:
Kim Wilde / Now & Forever

Дисковод: Optiarc DVD RW AD-7200S Adapter: 1 ID: 1
Режим чтения: Достоверный (C2: нет, Точный поток: да, Отключение кэша: да)
Коррекция смещения при чтении: 48
Способность читать области Lead-in и Lead-out : Нет

Выходной формат: Monkey's Audio Lossless Encoder v3.99 DLL
Fast Lossless Compression

Другие параметры:
Заполнение пропущенных сэмплов тишиной : Да
Удаление блоков с тишиной в начале и конце : Нет
Встроенный Win32-интерфейс для Win NT/2000

Характеристики диапазона извлечения и сообщения об ошибках
Выбранный диапазон
Имя файла F:\Музыка\торренты\Kim Wilde _дискография\1995\Kim Wilde - Now & Forever.ape

Пиковый уровень 99.9 %
Качество диапазона 100.0 %
CRC 51B3231D
Копирование... OK

Ошибок не произошло

Конец отчёта

Код:
Код: Выделить всё
AUDIOCHECKER v2.0 beta (build 457) - by Dester -
~~~~~~~~~~~~~~~~~~~~~~~~~~~~~~~~~~

Начато: пятница, 18. 12. 2009. - 16:18.23
Найдено файлов: 1

1 -===- F:\Music\[1995] [APE] Now & Forever\Kim Wilde - Now & Forever [1995] [APE].ape
  Извлечение успешно выполнено
  Заключение: этот трек - CDDA с вероятностью 100%
  Временный файл удалён.

Завершено: пятница, 18. 12. 2009. - 16:25.13 (Время операции: 0:06.50)
01. Kids In America (3:28)
02. Chequered Love (3:23)
03. Water On Glass (3:38)
04. Cambodia (3:58)
05. View From A Bridge (3:32)
06. Child Come Away (4:06)
07. Love Blonde (3:34)
08. Rage To Love (4:20)
09. You Keep Me Hanging On (4:15)
10. Another Step (Closer To You) (3:31)
11. You Came (3:31)
12. Never Trust A Stranger (4:06)
13. Four Letter Word (4:03)
14. Love Is Holy (4:03)
15. If I Can't Have You (3:29)
16. Loved (3:32)
17. View From A Bridge (Raw Remix Edit) (4:25)
18. Kids In America (D-Bop's Bright Lights Mix) (4:03)



Код:
Код: Выделить всё
Exact Audio Copy V0.99 prebeta 5 from 4. May 2009

Отчёт EAC об извлечении, выполненном 3. октября 2009, 20:04

Wilde, Kim / The Very Best Of Kim Wilde

Дисковод: PIONEER DVD-RW  DVR-115D   Adapter: 1  ID: 0

Режим чтения                 : Достоверность
Использование точного потока : Да
Отключение кэша аудио        : Да
Использование указателей C2  : Нет

Коррекция смещения при чтении                     : 48
Способность читать области Lead-in и Lead-out     : Нет
Заполнение пропущенных сэмплов тишиной            : Да
Удаление блоков с тишиной в начале и конце        : Нет
При вычислениях CRC использовались нулевые сэмплы : Да
Интерфейс                                         : Установленный внешний ASPI-интерфейс

Выходной формат          : Пользовательский кодировщик
Выбранный битрейт        : 128 kBit/s
Качество                 : Высокий
Добавление ID3-тэга      : Да
Утилита сжатия           : C:\Program Files\Exact Audio Copy\Flac\flac.exe
Дополнительные параметры : -8 -V %s

TOC извлечённого CD

     Трек |   Старт  | Длительность | Начальный сектор | Конечный сектор
    ---------------------------------------------------------------------
       1  |  0:00.00 |    3:27.70   |           0      |      15594
       2  |  3:27.70 |    3:22.67   |       15595      |      30811
       3  |  6:50.62 |    3:37.68   |       30812      |      47154
       4  | 10:28.55 |    3:57.57   |       47155      |      64986
       5  | 14:26.37 |    3:31.55   |       64987      |      80866
       6  | 17:58.17 |    4:05.73   |       80867      |      99314
       7  | 22:04.15 |    3:34.10   |       99315      |     115374
       8  | 25:38.25 |    4:19.67   |      115375      |     134866
       9  | 29:58.17 |    4:15.28   |      134867      |     154019
      10  | 34:13.45 |    3:31.30   |      154020      |     169874
      11  | 37:45.00 |    3:30.67   |      169875      |     185691
      12  | 41:15.67 |    4:05.53   |      185692      |     204119
      13  | 45:21.45 |    4:02.70   |      204120      |     222339
      14  | 49:24.40 |    4:02.42   |      222340      |     240531
      15  | 53:27.07 |    3:29.28   |      240532      |     256234
      16  | 56:56.35 |    3:32.02   |      256235      |     272136
      17  | 60:28.37 |    4:25.33   |      272137      |     292044
      18  | 64:53.70 |    4:03.02   |      292045      |     310271

Характеристики диапазона извлечения и сообщения об ошибках

Выбранный диапазон

     Имя файла C:\Wilde, Kim - The Very Best Of Kim Wilde.wav

     Пиковый уровень 98.7 %
     Качество диапазона 100.0 %
     CRC копии E3EDA940
     Копирование... OK

Ошибок не произошло

AccurateRip: сводка

Трек  1  точность не определена (достоверность 25)  [06C67BAF], AccurateRip вернул [8F00B24F]
Трек  2  точность не определена (достоверность 24)  [68F0916C], AccurateRip вернул [9D3836CC]
Трек  3  точность не определена (достоверность 23)  [AC4258C3], AccurateRip вернул [4D8FB34B]
Трек  4  точность не определена (достоверность 25)  [55BE8469], AccurateRip вернул [9931E5F9]
Трек  5  точность не определена (достоверность 24)  [F57EEFFE], AccurateRip вернул [BD5C0F86]
Трек  6  точность не определена (достоверность 23)  [B20D9A2A], AccurateRip вернул [2883E9C2]
Трек  7  точность не определена (достоверность 24)  [A5AD601B], AccurateRip вернул [396FC14B]
Трек  8  точность не определена (достоверность 23)  [3D6F1A6D], AccurateRip вернул [A78A031D]
Трек  9  точность не определена (достоверность 25)  [9290B278], AccurateRip вернул [9DC64DB0]
Трек 10  точность не определена (достоверность 24)  [7021D56C], AccurateRip вернул [F31AAACC]
Трек 11  точность не определена (достоверность 25)  [8C8DE62B], AccurateRip вернул [E707F8B3]
Трек 12  точность не определена (достоверность 23)  [A4F1AAD3], AccurateRip вернул [AB027C93]
Трек 13  точность не определена (достоверность 24)  [61FF90AF], AccurateRip вернул [72A018AF]
Трек 14  точность не определена (достоверность 23)  [A2068E7D], AccurateRip вернул [88323B25]
Трек 15  точность не определена (достоверность 24)  [6A452405], AccurateRip вернул [C3DC85A5]
Трек 16  точность не определена (достоверность 24)  [7BA45686], AccurateRip вернул [4707225E]
Трек 17  точность не определена (достоверность 23)  [F2A9CC54], AccurateRip вернул [3E681574]
Трек 18  точность не определена (достоверность 22)  [B534CF88], AccurateRip вернул [98519F50]

Ни один трек не прошёл проверки на точность
В вашей базе может быть иной вариант штамповки диска

Конец отчёта

Код:
Код: Выделить всё
AUDIOCHECKER v2.0 beta (build 457) - by Dester -
~~~~~~~~~~~~~~~~~~~~~~~~~~~~~~~~~~

Начато: пятница, 18. 12. 2009. - 16:26.00
Найдено файлов: 1

1 -===- F:\Music\[2001] [FLAC] The Very Best Of Kim Wilde\Kim Wilde - The Very Best Of Kim Wilde [2001] [FLAC].flac
  Извлечение успешно выполнено
  Заключение: этот трек - CDDA с вероятностью 100%
  Временный файл удалён.

Завершено: пятница, 18. 12. 2009. - 16:33.28 (Время операции: 0:07.28)
01. Perfect Girl (3:46)
02. You Came (3:10)
03. Together We Belong (4:17)
04. Forgive Me (3:55)
05. Four Letter Word (4:35)
06. You Keep Me Hangin' On (3:11)
07. Baby Obey Me (3:14)
08. Kids In America (3:24)
09. I Fly (2:59)
10. Game Over (3:49)
11. Lost Without You (4:06)
12. View From A Bridge (3:55)
13. Maybe I'm Crazy (4:06)
14. Cambodia (Paul Oakenfold Remix) (5:20)



Код:
Код: Выделить всё
Отчёт EAC об извлечении, выполненном 8. ноября 2008, 13:42 для диска:
Kim Wilde / Never Say Never

Дисковод: Optiarc DVD RW AD-7200S Adapter: 1 ID: 1
Режим чтения: Достоверный (C2: нет, Точный поток: да, Отключение кэша: да)
Коррекция смещения при чтении: 48
Способность читать области Lead-in и Lead-out : Нет

Выходной формат: Monkey's Audio Lossless Encoder v3.99 DLL
Fast Lossless Compression

Другие параметры:
Заполнение пропущенных сэмплов тишиной : Да
Удаление блоков с тишиной в начале и конце : Нет
Встроенный Win32-интерфейс для Win NT/2000

Характеристики диапазона извлечения и сообщения об ошибках
Выбранный диапазон
Имя файла F:\Музыка\торренты\Kim Wilde _дискография\2006\Kim Wilde - Never Say Never.ape

Пиковый уровень 100.0 %
Качество диапазона 100.0 %
CRC C223AEE6
Копирование... OK

Ошибок не произошло

Конец отчёта

Код:
Код: Выделить всё
AUDIOCHECKER v2.0 beta (build 457) - by Dester -
~~~~~~~~~~~~~~~~~~~~~~~~~~~~~~~~~~

Начато: пятница, 18. 12. 2009. - 16:33.56
Найдено файлов: 1

1 -===- F:\Music\[2006] [APE] Never Say Never\Kim Wilde - Never Say Never [2006] [APE].ape
  Извлечение успешно выполнено
  Заключение: этот трек - CDDA с вероятностью 100%
  Временный файл удалён.

Завершено: пятница, 18. 12. 2009. - 16:40.12 (Время операции: 0:06.15)
Compilations:

01. Kids In America (3:25)
02. Chequered Love (3:22)
03. Water On Glass (3:36)
04. Cambodia (3:56)
05. View From A Bridge (3:30)
06. Child Come Away (4:05)
07. Love Blonde (3:33)
08. The Second Time (3:53)
09. Rage To Love (4:20)
10. You Keep Me Hangin' On (4:16)
11. Another Step (Closer To You) (3:31)
12. You Came (3:31)
13. Never Trust A Stranger (4:06)
14. Four Letter Word (4:03)
15. Love Is Holy (4:03)
16. If I Can't Have You (3:29)
17. In My Life (3:46)



Код:
Код: Выделить всё
Exact Audio Copy V0.99 prebeta 4 from 23. January 2008

Отчёт EAC об извлечении, выполненном 16. ноября 2008, 13:45

Kim Wilde / The Singles Collection 1981-1993

Дисковод: Optiarc DVD RW AD-7200S   Adapter: 1  ID: 1

Режим чтения                 : Достоверность
Использование точного потока : Да
Отключение кэша аудио        : Да
Использование указателей C2  : Нет

Коррекция смещения при чтении                     : 48
Способность читать области Lead-in и Lead-out     : Нет
Заполнение пропущенных сэмплов тишиной            : Да
Удаление блоков с тишиной в начале и конце        : Нет
При вычислениях CRC использовались нулевые сэмплы : Да
Интерфейс                                         : Встроенный Win32-интерфейс для Win NT/2000

Выходной формат : Monkey's Audio Lossless Encoder v3.99 DLL
Формат сэмплов  : Fast Lossless Compression

TOC извлечённого CD

     Трек |   Старт  | Длительность | Начальный сектор | Конечный сектор
    ---------------------------------------------------------------------
       1  |  0:00.00 |    3:25.13   |           0      |      15387
       2  |  3:25.13 |    3:21.67   |       15388      |      30529
       3  |  6:47.05 |    3:35.70   |       30530      |      46724
       4  | 10:23.00 |    3:56.20   |       46725      |      64444
       5  | 14:19.20 |    3:30.05   |       64445      |      80199
       6  | 17:49.25 |    4:05.13   |       80200      |      98587
       7  | 21:54.38 |    3:32.47   |       98588      |     114534
       8  | 25:27.10 |    3:52.70   |      114535      |     132004
       9  | 29:20.05 |    4:19.55   |      132005      |     151484
      10  | 33:39.60 |    4:15.40   |      151485      |     170649
      11  | 37:55.25 |    3:31.25   |      170650      |     186499
      12  | 41:26.50 |    3:30.63   |      186500      |     202312
      13  | 44:57.38 |    4:05.57   |      202313      |     220744
      14  | 49:03.20 |    4:02.68   |      220745      |     238962
      15  | 53:06.13 |    4:02.42   |      238963      |     257154
      16  | 57:08.55 |    3:28.63   |      257155      |     272817
      17  | 60:37.43 |    3:45.70   |      272818      |     289762

Характеристики диапазона извлечения и сообщения об ошибках

Выбранный диапазон

     Имя файла F:\Музыка\торренты\Kim Wilde _дискография\singles 1981-1993\Kim Wilde - The Singles Collection 1981-1993.ape

     Пиковый уровень 97.7 %
     Качество диапазона 100.0 %
     CRC копии 76B771FA
     Копирование... OK

Ошибок не произошло

Конец отчёта

Код:
Код: Выделить всё
AUDIOCHECKER v2.0 beta (build 457) - by Dester -
~~~~~~~~~~~~~~~~~~~~~~~~~~~~~~~~~~

Начато: пятница, 18. 12. 2009. - 16:40.40
Найдено файлов: 1

1 -===- F:\Music\[1993] [APE] The Singles Collection 1981-1993\Kim Wilde - The Singles Collection 1981-1993 [1993] [APE].ape
  Извлечение успешно выполнено
  Заключение: этот трек - CDDA с вероятностью 100%
  Временный файл удалён.

Завершено: пятница, 18. 12. 2009. - 16:48.05 (Время операции: 0:07.24)
01. Kids In America (3:26)
02. Chequered Love (3:22)
03. Water On Glass (3:36)
04. Everything We Know (3:42)
05. Young Heroes (3:16)
06. 2-6-5-8-0 (3:11)
07. You'll Never Be So Wrong (4:10)
08. Falling Out (4:03)
09. Tuning In Tuning On (4:24)
10. Ego (4:11)
11. View From A Bridge (3:31)
12. Words Fell Down (3:31)
13. Action City (3:23)
14. Just A Feeling (4:10)
15. Chaos At The Airport (3:18)
16. Take Me Tonight (3:52)
17. Can You Come Over (3:35)
18. Wendy Said (3:49)
19. Our Town (3:47)
20. Cambodia - Reprise (3:20)



Код:
Код: Выделить всё
Отчёт EAC об извлечении, выполненном 18. ноября 2008, 22:15 для диска:
Kim Wilde / The Gold Collection

Дисковод: Optiarc DVD RW AD-7200S   Adapter: 1  ID: 1
Режим чтения: Достоверный (C2: нет, Точный поток: да, Отключение кэша: да)
Коррекция смещения при чтении: 48
Способность читать области Lead-in и Lead-out : Нет

Выходной формат: Monkey's Audio Lossless Encoder v3.99 DLL
                     Fast Lossless Compression

Другие параметры:
    Заполнение пропущенных сэмплов тишиной : Да
    Удаление блоков с тишиной в начале и конце : Нет
    Встроенный Win32-интерфейс для Win NT/2000

Характеристики диапазона извлечения и сообщения об ошибках
Выбранный диапазон
     Имя файла F:\Музыка\Kim Wilde\1996\Kim Wilde - The Gold Collection.ape

     Пиковый уровень 100.0 %
     Качество диапазона 99.9 %
     CRC 066E5AA2
     Копирование... OK

Ошибок не произошло

Конец отчёта

Код:
Код: Выделить всё
AUDIOCHECKER v2.0 beta (build 457) - by Dester -
~~~~~~~~~~~~~~~~~~~~~~~~~~~~~~~~~~

Начато: пятница, 18. 12. 2009. - 16:48.31
Найдено файлов: 1

1 -===- F:\Music\[1996] [APE] The Gold Collection\Kim Wilde - The Gold Collection [1996] [APE].ape
  Извлечение успешно выполнено
  Заключение: этот трек - CDDA с вероятностью 100%
  Временный файл удалён.

Завершено: пятница, 18. 12. 2009. - 16:56.32 (Время операции: 0:08.00)
01. Kids In America (3:29)
02. Chequered Love (3:23)
03. Water On Glass (3:38)
04. Cambodia (3:58)
05. View From A Bridge (3:32)
06. Child Come Away (4:06)
07. Love Blonde (3:34)
08. Dancing In The Dark (3:45)
09. Tuning In Tuning On (4:25)
10. Shane (3:42)
11. Boys (3:14)
12. Watching For Shapes (3:44)
13. Take Me Tonight (3:55)
14. Just Another Guy (3:21)
15. Can You Hear It (4:28)
16. Back Street Driver (3:34)
17. Bitter Is Better (3:44)
18. Love Blonde (12' Version) (5:02)
19. Dancing In The Dark (Nile Rodgers 12' Version) (5:28)



Код:
Код: Выделить всё
Отчёт EAC об извлечении, выполненном 21. ноября 2008, 17:13 для диска:
Kim Wilde / The Hits Collection

Дисковод: Optiarc DVD RW AD-7200S   Adapter: 1  ID: 1
Режим чтения: Достоверный (C2: нет, Точный поток: да, Отключение кэша: да)
Коррекция смещения при чтении: 48
Способность читать области Lead-in и Lead-out : Нет

Выходной формат: Monkey's Audio Lossless Encoder v3.99 DLL
                     Fast Lossless Compression

Другие параметры:
    Заполнение пропущенных сэмплов тишиной : Да
    Удаление блоков с тишиной в начале и конце : Нет
    Встроенный Win32-интерфейс для Win NT/2000

Характеристики диапазона извлечения и сообщения об ошибках
Выбранный диапазон
     Имя файла F:\Музыка\Kim Wilde - The Hits Collection.ape

     Пиковый уровень 98.2 %
     Качество диапазона 99.9 %
     CRC 47917A57
     Копирование... OK

Ошибок не произошло

Конец отчёта

Код:
Код: Выделить всё
AUDIOCHECKER v2.0 beta (build 457) - by Dester -
~~~~~~~~~~~~~~~~~~~~~~~~~~~~~~~~~~

Начато: пятница, 18. 12. 2009. - 16:57.22
Найдено файлов: 1

1 -===- F:\Music\[2005] [APE] The Hits Collection\Kim Wilde - The Hits Collection [2005] [APE].ape
  Извлечение успешно выполнено
  Заключение: этот трек - CDDA с вероятностью 100%
  Временный файл удалён.

Завершено: пятница, 18. 12. 2009. - 17:05.40 (Время операции: 0:08.18)
Правила, инструкции, FAQ!!!
Торрент  Добавлен [12 янв 2015, 21:18] Скачать торрент Магнет ссылка
Скачать торрент
59.83 КБ

Статус
Проверен 
 
Размер  4.8 ГБ
Приватный: Нет (DHT включён)
.torrent скачан  15
Как залить торрент? | Как скачать Torrent? | Как смотреть и слушать онлайн?  
Гость
 



Вернуться в Дискографии (Зарубежные)

Кто сейчас на конференции

Сейчас этот форум просматривают: нет зарегистрированных пользователей и гости: 0