Киллер Джо / Killer Joe (Уильям Фридкин / William Friedkin) [2011, США, триллер, комедия, криминал, HDRip]

Статистика раздачи
Размер: 1.47 ГБ | Добавлен: 27 окт 2012, 10:53 | Скачали: 0
Сидеров: 1  [0 байт/сек]    Личеров: 0  [0 байт/сек]

Сообщение Гость » 27 окт 2012, 10:53

  • Страна: США
  • Жанр:триллер, комедия, криминал
  • Год выпуска: 2011
  • Продолжительность: 01:42:00

    Перевод:Одноголосый закадровый
  • Cубтитры: нет
  • Режиссер:Уильям Фридкин / William Friedkin
  • В ролях: Мэттью МакКонахи, Эмиль Хирш, Джуно Темпл, Томас Хейден Чёрч, Джина Гершон, Скотт А. Мартин, Грэйлен Брайант Бэнкс, Кэрол Саттон, Дэнни Эппер, Джефф Галпин
  • Описание:
    Фильм рассказывает о брате и сестре, которые замышляют убийство матери, чтобы получить деньги по страховке и по этому случаю они нанимают «Киллера Джо» Купера — копа и наемного убийцу.

  • Качество видео: HDRip
  • Формат видео: AVI
  • Исходник BDRip 720p
  • Видео:XviD, 1664 Kb/s, 720x384,23,976 кадр/сек
  • Аудио:AC3, 384 Kb/s (6 ch),44,1 КГц
Общее
Полное имя : D:\Торенты\Killer.Joe.2011.L1.HDRip.1400Mb.avi
Формат : AVI
Формат/Информация : Audio Video Interleave
Размер файла : 1,47 Гбайт
Продолжительность : 1 ч. 42 м.
Общий поток : 2057 Кбит/сек
Программа кодирования : VirtualDubMod 1.5.10.2 (build 2542/release)
Библиотека кодирования : VirtualDubMod build 2542/release
Видео
Идентификатор : 0
Формат : MPEG-4 Visual
Профиль формата : Advanced Simple@L5
Параметр BVOP формата : 2
Параметр QPel формата : Нет
Параметр GMC формата : Без точки перехода
Параметр матрицы формата : Default (H.263)
Режим смешивания : Сжатый битовый поток
Идентификатор кодека : XVID
Идентификатор кодека/Подсказка : XviD
Продолжительность : 1 ч. 42 м.
Битрейт : 1664 Кбит/сек
Ширина : 720 пикс.
Высота : 384 пикс.
Соотношение сторон : 1,875
Частота кадров : 23,976 кадр/сек
Цветовое пространство : YUV
Подвыборка цветности : 4:2:0
Битовая глубина : 8 бит
Тип развёртки : Прогрессивная
Метод сжатия : С потерями
Бит/(Пиксели*Кадры) : 0.251
Размер потока : 1,19 Гбайт (81%)
Библиотека кодирования : XviD 64
Аудио
Идентификатор : 1
Формат : AC-3
Формат/Информация : Audio Coding 3
Расширение режима : CM (complete main)
Идентификатор кодека : 2000
Продолжительность : 1 ч. 42 м.
Вид битрейта : Постоянный
Битрейт : 384 Кбит/сек
Каналы : 6 каналов
Расположение каналов : Front: L C R, Side: L R, LFE
Частота : 44,1 КГц
Битовая глубина : 16 бит
Метод сжатия : С потерями
Задержка видео : 313 мс.
Размер потока : 281 Мбайт (19%)
Выравнивание : Разделение по промежуткам
Продолжительность промежутка : 42 мс. (1,00 видеокадр)
Время предзагрузки промежутка : 500 ms



Правила, инструкции, FAQ!!!
Торрент  Добавлен [27 окт 2012, 10:53] Скачать торрент Магнет ссылка
Скачать торрент
[ Размер 15.3 КБ / Просмотров 29 ]

Статус
Проверен 
 
Размер  1.47 ГБ
Приватный: Нет (DHT включён)
.torrent скачан  0
Как залить торрент? | Как скачать Torrent? | Как смотреть и слушать онлайн?  
Гость
 


  • Похожие торренты
    Ответы
    Просмотры
    Последнее сообщение

Вернуться в Триллеры

Кто сейчас на конференции

Сейчас этот форум просматривают: нет зарегистрированных пользователей и гости: 0