Kansas - Дискография (18 альбомов) (1974-2009) [FLAC|Lossless]<Rock, Progressive Rock>


Статистика раздачи
Размер: 7.12 ГБ | Добавлен: 30 апр 2014, 20:52 | Скачали: 2
Сидеров: 9  [0 байт/сек]    Личеров: 195  [0 байт/сек]

Сообщение Гость » 30 апр 2014, 20:52

Kansas - Дискография (18 альбомов) (1974-2009)



Год: 1974-2009
Жанр: Rock, Progressive Rock
Кодек: FLAC
Битрейт: Lossless
Тип битрейта: CBR
Тип рипа: Image+cue (кроме 1992 Live At The Whisky)
Общая продолжительность: 17:32:41
Год: 1974
Жанр: Rock, Progressive Rock
Продолжительность: 00:54:46
Кодек: FLAC
Тип битрейта: CBR
Битрейт: 929

Трек лист:
01 - Can I Tell You
02 - Bringing It Back
03 - Lonely Wind
04 - Belexes
05 - Journey From Mariabronn
06 - The Pilgrimage
07 - Apercu
08 - Death Of Mother Nature Suite
09 - Bringing It Back (Live)
AUDIOCHECKER v2.0 beta (build 457) - by Dester -
~~~~~~~~~~~~~~~~~~~~~~~~~~~~~~~~~~

Путь: ...\1974 - Kansas

01 -=- Kansas - 1974 - Kansas.flac -=- CDDA (99%)

214302948
Exact Audio Copy V0.99 prebeta 4 from 23. January 2008

Отчёт EAC об извлечении, выполненном 22. июня 2008, 21:44

Kansas / Kansas (30th Anniversary Edition)

Дисковод: _NEC DVD_RW ND-4571A Adapter: 0 ID: 0

Режим чтения : Достоверность
Использование точного потока : Да
Отключение кэша аудио : Нет
Использование указателей C2 : Да

Коррекция смещения при чтении : 48
Способность читать области Lead-in и Lead-out : Нет
Заполнение пропущенных сэмплов тишиной : Да
Удаление блоков с тишиной в начале и конце : Нет
При вычислениях CRC использовались нулевые сэмплы : Нет
Интерфейс : Встроенный Win32-интерфейс для Win NT/2000

Выходной формат : Внутренние WAV-операции
Формат сэмплов : 44.100 Гц; 16 бит; стерео

TOC извлечённого CD

Трек | Старт | Длительность | Начальный сектор | Конечный сектор
---------------------------------------------------------------------
1 | 0:00.00 | 3:32.41 | 0 | 15940
2 | 3:32.41 | 3:33.56 | 15941 | 31971
3 | 7:06.22 | 4:17.40 | 31972 | 51286
4 | 11:23.62 | 4:24.41 | 51287 | 71127
5 | 15:48.28 | 7:58.35 | 71128 | 107012
6 | 23:46.63 | 3:43.22 | 107013 | 123759
7 | 27:30.10 | 9:36.09 | 123760 | 166968
8 | 37:06.19 | 7:58.53 | 166969 | 202871
9 | 45:04.72 | 9:41.25 | 202872 | 246471

Характеристики диапазона извлечения и сообщения об ошибках

Выбранный диапазон

Имя файла D:\Upload\Kansas - Kansas.wav

Пиковый уровень 100.0 %
Качество диапазона 100.0 %
CRC копии 18FA6915
Копирование... OK

Ошибок не произошло

AccurateRip: сводка

Трек 1 точное извлечение (доверие 9) [14475D74]
Трек 2 точное извлечение (доверие 9) [D8862EA4]
Трек 3 точное извлечение (доверие 8) [0C3DF64D]
Трек 4 точное извлечение (доверие 8) [6FDB7D27]
Трек 5 точное извлечение (доверие 8) [BE7D8CAB]
Трек 6 точное извлечение (доверие 8) [62AE2B16]
Трек 7 точное извлечение (доверие 8) [81D3871B]
Трек 8 точное извлечение (доверие 8) [D06F4C09]
Трек 9 точное извлечение (доверие 6) [B0B85180]

Все треки извлечены точно

Конец отчёта
#777Год: 1975
Жанр: Rock, Progressive Rock
Продолжительность: 00:48:32
Кодек: FLAC
Тип битрейта: CBR
Битрейт: 965

Трек лист:
01 - It Takes A Woman's Love
02 - Two Cents Worth
03 - Icarus - Borne On Wings Of Steel
04 - All The World
05 - Child Of Innocence
06 - It's You
07 - Mysteries And Mayhem
08 - The Pinnacle
09 - Child Of Innocence (Rehearsal)
10 - It's You (Demo)
AUDIOCHECKER v2.0 beta (build 457) - by Dester -
~~~~~~~~~~~~~~~~~~~~~~~~~~~~~~~~~~

Путь: ...\1975 - Masque

01 -=- Kansas - 1975 - Masque.flac -=- CDDA (99%)

214027908
Exact Audio Copy V0.99 prebeta 4 from 23. January 2008

Отчёт EAC об извлечении, выполненном 7. июня 2009, 11:36

Kansas / Masque

Дисковод: TSSTcorpCD/DVDW SN-W082B Adapter: 5 ID: 0

Режим чтения : Достоверность
Использование точного потока : Да
Отключение кэша аудио : Да
Использование указателей C2 : Нет

Коррекция смещения при чтении : 704
Способность читать области Lead-in и Lead-out : Нет
Заполнение пропущенных сэмплов тишиной : Да
Удаление блоков с тишиной в начале и конце : Нет
При вычислениях CRC использовались нулевые сэмплы : Нет
Интерфейс : Встроенный Win32-интерфейс для Win NT/2000

Выходной формат : Пользовательский кодировщик
Выбранный битрейт : 768 kBit/s
Качество : Высокий
Добавление ID3-тэга : Нет
Утилита сжатия : C:\Program Files\Exact Audio Copy\FLAC\FLAC.EXE
Дополнительные параметры : -6 -V -T "ARTIST=%a" -T "TITLE=%t" -T "ALBUM=%g" -T "DATE=%y" -T "TRACKNUMBER=%n" -T "GENRE=%m" -T "COMMENT=%e" %s -o %d

TOC извлечённого CD

Трек | Старт | Длительность | Начальный сектор | Конечный сектор
---------------------------------------------------------------------
1 | 0:00.00 | 3:08.51 | 0 | 14150
2 | 3:08.51 | 3:08.07 | 14151 | 28257
3 | 6:16.58 | 6:04.04 | 28258 | 55561
4 | 12:20.62 | 7:11.26 | 55562 | 87912
5 | 19:32.13 | 4:36.74 | 87913 | 108686
6 | 24:09.12 | 2:32.43 | 108687 | 120129
7 | 26:41.55 | 4:17.70 | 120130 | 139474
8 | 30:59.50 | 9:44.35 | 139475 | 183309
9 | 40:44.10 | 5:06.58 | 183310 | 206317
10 | 45:50.68 | 2:41.42 | 206318 | 218434

Характеристики диапазона извлечения и сообщения об ошибках

Выбранный диапазон

Имя файла F:\Лосслесс\Kansas - Masque.wav

Пиковый уровень 100.0 %
Качество диапазона 100.0 %
CRC копии 7E6F53C4
Копирование... OK

Ошибок не произошло

AccurateRip: сводка

Трек 1 точность не определена (достоверность 1) [19315C96], AccurateRip вернул [4310420F]
Трек 2 точность не определена (достоверность 1) [1212E475], AccurateRip вернул [6A367889]
Трек 3 точность не определена (достоверность 1) [D7B8C109], AccurateRip вернул [9B6CBF45]
Трек 4 точность не определена (достоверность 1) [1C842AAB], AccurateRip вернул [E36BB013]
Трек 5 точность не определена (достоверность 1) [8B869BD0], AccurateRip вернул [FC1DF828]
Трек 6 точность не определена (достоверность 1) [3B7C889A], AccurateRip вернул [EE6DE8D4]
Трек 7 точность не определена (достоверность 1) [CA8AC460], AccurateRip вернул [3BC3391C]
Трек 8 точность не определена (достоверность 1) [81154900], AccurateRip вернул [4D3A504E]
Трек 9 точность не определена (достоверность 1) [5B19B8AE], AccurateRip вернул [D990057E]
Трек 10 точность не определена (достоверность 1) [E7C30934], AccurateRip вернул [25A29C7C]

Ни один трек не прошёл проверки на точность
В вашей базе может быть иной вариант штамповки диска

Конец отчёта
#777Год: 1975
Жанр: Rock, Progressive Rock
Продолжительность: 00:45:05
Кодек: FLAC
Тип битрейта: CBR
Битрейт: 796

Трек лист:
01 - Down The Road
02 - Song For America
03 - Lamplight Symphony
04 - Lonely Street
05 - The Devil Game
06 - Incomudro - Hymn To The Atman
AUDIOCHECKER v2.0 beta (build 457) - by Dester -
~~~~~~~~~~~~~~~~~~~~~~~~~~~~~~~~~~

Путь: ...\1975 - Song For America

01 -=- Kansas - 1975 - Song For America.flac -=- CDDA (100%)

36442676
#777Год: 1976
Жанр: Rock, Progressive Rock
Продолжительность: 00:55:21
Кодек: FLAC
Тип битрейта: CBR
Битрейт: 870

Трек лист:
01 - Carry On Wayward Son
02 - The Wall
03 - What's On My Mind
04 - Miracles Out Of Nowhere
05 - Opus Insert
06 - Questions Of My Childhood
07 - Cheyenne Anthem
08 - Magnum Opus a)Father Padilla Meets The Perfect Gnat b)Howling At The Moon c)M...
09 - Carry On Wayward Son (Live - Previously Unreleased)
10 - Cheyenne Anthem (Live - Previously Unreleased)
AUDIOCHECKER v2.0 beta (build 457) - by Dester -
~~~~~~~~~~~~~~~~~~~~~~~~~~~~~~~~~~

Путь: ...\1976 - Leftoverture

01 -=- Kansas - 1976 - Leftoverture.flac -=- CDDA (100%)

142440564
#777Год: 1977
Жанр: Rock, Progressive Rock
Продолжительность: 00:54:35
Кодек: FLAC
Тип битрейта: CBR
Битрейт: 894

Трек лист:
01 - Point Of Know Return
02 - Paradox
03 - The Spider
04 - Portrait (He Knew)
05 - Closet Chronicles
06 - Lightning's Hand
07 - Dust In The Wind
08 - Sparks Of The Tempest
09 - Nobody's Home
10 - Hopelessly Human
11 - Sparks Of The Tempest (live) *
12 - Portrait (He Knew) [Remix] *
AUDIOCHECKER v2.0 beta (build 457) - by Dester -
~~~~~~~~~~~~~~~~~~~~~~~~~~~~~~~~~~

Путь: ...\1977 - Point Of Know Return

01 -=- Kansas - 1977 - Point Of Know Return.flac -=- CDDA (100%)

234200500
Exact Audio Copy V0.99 prebeta 3 from 28. July 2007

Отчёт EAC об извлечении, выполненном 2. августа 2009, 13:06

Kansas / Point Of Know Return

Дисковод: Optiarc DVD RW AD-7593A Adapter: 0 ID: 1

Режим чтения : Достоверность
Использование точного потока : Да
Отключение кэша аудио : Да
Использование указателей C2 : Нет

Коррекция смещения при чтении : 48
Способность читать области Lead-in и Lead-out : Нет
Заполнение пропущенных сэмплов тишиной : Да
Удаление блоков с тишиной в начале и конце : Нет
При вычислениях CRC использовались нулевые сэмплы : Да
Интерфейс : Установленный внешний ASPI-интерфейс

Выходной формат : Пользовательский кодировщик
Выбранный битрейт : 1024 kBit/s
Качество : Высокий
Добавление ID3-тэга : Да
Утилита сжатия : C:\Program Files\Exact Audio Copy\FLAC\FLAC.EXE
Дополнительные параметры : -6 -V -T "ARTIST=%a" -T "TITLE=%t" -T "ALBUM=%g" -T "DATE=%y" -T "TRACKNUMBER=%n" -T "GENRE=%m" -T "COMMENT=%e" %s -o %d

TOC извлечённого CD

Трек | Старт | Длительность | Начальный сектор | Конечный сектор
---------------------------------------------------------------------
1 | 0:00.00 | 3:13.40 | 0 | 14514
2 | 3:13.40 | 3:50.62 | 14515 | 31826
3 | 7:04.27 | 2:05.28 | 31827 | 41229
4 | 9:09.55 | 4:37.05 | 41230 | 62009
5 | 13:46.60 | 6:31.40 | 62010 | 91374
6 | 20:18.25 | 4:24.27 | 91375 | 111201
7 | 24:42.52 | 3:28.50 | 111202 | 126851
8 | 28:11.27 | 4:19.03 | 126852 | 146279
9 | 32:30.30 | 4:40.00 | 146280 | 167279
10 | 37:10.30 | 7:17.70 | 167280 | 200124
11 | 44:28.25 | 5:17.57 | 200125 | 223956
12 | 49:46.07 | 4:49.58 | 223957 | 245689

Характеристики диапазона извлечения и сообщения об ошибках

Выбранный диапазон

Имя файла C:\Documents and Settings\Мои документы\LOSSLESS\Kansas - Point Of Know Return.wav

Пиковый уровень 100.0 %
Качество диапазона 100.0 %
CRC теста AD89F1F9
CRC копии AD89F1F9
Копирование... OK

Ошибок не произошло

Конец отчёта
#777Год: 1979
Жанр: Rock, Progressive Rock
Продолжительность: 00:41:43
Кодек: FLAC
Тип битрейта: CBR
Битрейт: 834

Трек лист:
01 - On The Other Side
02 - People Of The South Wind
03 - Angels Have Fallen
04 - How My Soul Cries Out For You
05 - A Glimpse Of Home
06 - Away From You
07 - Stay Out Of Trouble
08 - Reason To Be
AUDIOCHECKER v2.0 beta (build 457) - by Dester -
~~~~~~~~~~~~~~~~~~~~~~~~~~~~~~~~~~

Путь: ...\1979 - Monolith

01 -=- Kansas - 1979 - Monolith.flac -=- CDDA (100%)

16982516
EAC extraction logfile from 11. June 2006, 18:29 for CD
Kansas / Monolith

Used drive : PLEXTOR CD-R PX-W4824A Adapter: 0 ID: 1
Read mode : Secure with NO C2, accurate stream, disable cache
Read offset correction : 98
Overread into Lead-In and Lead-Out : No

Used output format : Internal WAV Routines
44.100 Hz; 16 Bit; Stereo

Other options :
Fill up missing offset samples with silence : Yes
Delete leading and trailing silent blocks : No
Installed external ASPI interface

Range status and errors
Selected range
Filename H:\HQshare.net\Kansas\CDImage.wav

Peak level 85.3 %
Range quality 100.0 %
CRC 4C58C567
Copy OK

No errors occured

End of status report
#777Год: 1980
Жанр: Rock, Progressive Rock
Продолжительность: 00:43:25
Кодек: FLAC
Тип битрейта: CBR
Битрейт: 857

Трек лист:
01 - Relentless
02 - Anything For You
03 - Hold On
04 - Loner
05 - Curtain Of Iron
06 - Got To Rock On
07 - Don't Open Your Eyes
08 - No One Together
09 - No Room For A Stranger
10 - Back Door
AUDIOCHECKER v2.0 beta (build 457) - by Dester -
~~~~~~~~~~~~~~~~~~~~~~~~~~~~~~~~~~

Путь: ...\1980 - Audio-Visions

01 -=- Kansas - 1980 - Audio-Visions.flac -=- CDDA (99%)

141215764
EAC extraction logfile from 30. May 2006, 21:23 for CD
Kansas / Audio-Visions

Used drive : PLEXTOR CD-R PX-W4824A Adapter: 0 ID: 1
Read mode : Secure with NO C2, accurate stream, disable cache
Read offset correction : 98
Overread into Lead-In and Lead-Out : No

Used output format : Internal WAV Routines
44.100 Hz; 16 Bit; Stereo

Other options :
Fill up missing offset samples with silence : Yes
Delete leading and trailing silent blocks : No
Installed external ASPI interface

Range status and errors
Selected range
Filename H:\HQshare.net\Kansas\CDImage.wav

Peak level 100.0 %
Range quality 100.0 %
CRC 0132729A
Copy OK

No errors occured

End of status report
#777Год: 1982
Жанр: Rock, Progressive Rock
Продолжительность: 00:42:54
Кодек: FLAC
Тип битрейта: CBR
Битрейт: 856

Трек лист:
01 - Play The Game Tonight
02 - Right Away
03 - Fair Exchange
04 - Chasing Shadows
05 - Diamonds And Pearls
06 - Face It
07 - Windows
08 - Borderline
09 - Play On
10 - Crossfire
AUDIOCHECKER v2.0 beta (build 457) - by Dester -
~~~~~~~~~~~~~~~~~~~~~~~~~~~~~~~~~~

Путь: ...\1982 - Vinyl Confessions

01 -=- Kansas - 1982 - Vinyl Confessions.flac -=- CDDA (100%)

206469236
EAC extraction logfile from 3. June 2006, 21:17 for CD
Kansas / Vinyl Confessions

Used drive : PLEXTOR CD-R PX-W4824A Adapter: 0 ID: 1
Read mode : Secure with NO C2, accurate stream, disable cache
Read offset correction : 98
Overread into Lead-In and Lead-Out : No

Used output format : Internal WAV Routines
44.100 Hz; 16 Bit; Stereo

Other options :
Fill up missing offset samples with silence : Yes
Delete leading and trailing silent blocks : No
Installed external ASPI interface

Range status and errors
Selected range
Filename H:\HQshare.net\Kansas\CDImage.wav

Peak level 100.0 %
Range quality 100.0 %
CRC 8D5857C4
Copy OK

No errors occured

End of status report
#777Год: 1983
Жанр: Rock, Progressive Rock
Продолжительность: 00:42:01
Кодек: FLAC
Тип битрейта: CBR
Битрейт: 942

Трек лист:
01 - Fight Fire With Fire
02 - Everybody's My Friend
03 - Mainstream
04 - Andi
05 - Going Through The Motions
06 - Get Rich
07 - Don't Take Your Love Away
08 - End Of The Age
09 - Incident On A Bridge
AUDIOCHECKER v2.0 beta (build 457) - by Dester -
~~~~~~~~~~~~~~~~~~~~~~~~~~~~~~~~~~

Путь: ...\1983 - Drastic Measures

01 -=- Kansas - 1983 - Drastic Measures.flac -=- CDDA (100%)

142232820
EAC extraction logfile from 8. July 2006, 18:38 for CD
Kansas / Drastic Measures

Used drive : PLEXTOR CD-R PX-W4824A Adapter: 0 ID: 1
Read mode : Secure with NO C2, accurate stream, disable cache
Read offset correction : 98
Overread into Lead-In and Lead-Out : No

Used output format : Internal WAV Routines
44.100 Hz; 16 Bit; Stereo

Other options :
Fill up missing offset samples with silence : Yes
Delete leading and trailing silent blocks : No
Installed external ASPI interface

Range status and errors
Selected range
Filename H:\HQshare.net\KANSAS\CDImage.wav

Peak level 100.0 %
Range quality 99.9 %
CRC 3A492247
Copy OK

No errors occured

End of status report
#777Год: 1986
Жанр: Rock, Progressive Rock
Продолжительность: 00:39:33
Кодек: FLAC
Тип битрейта: CBR
Битрейт: 882

Трек лист:
01 - Silhouettes In Disguise
02 - Power
03 - All I Wanted
04 - Secret Service
05 - We're Not Alone Anymore
06 - Musicatto
07 - Taking In The View
08 - Three Pretenders
09 - Tomb 19
10 - Can't Cry Anymore
AUDIOCHECKER v2.0 beta (build 457) - by Dester -
~~~~~~~~~~~~~~~~~~~~~~~~~~~~~~~~~~

Путь: ...\1986 - Power

01 -=- Kansas - 1986 - Power.flac -=- CDDA (100%)

53382596
EAC extraction logfile from 27. May 2006, 14:48 for CD
Kansas / Power

Used drive : PLEXTOR CD-R PX-W4824A Adapter: 0 ID: 1
Read mode : Secure with NO C2, accurate stream, disable cache
Read offset correction : 98
Overread into Lead-In and Lead-Out : No

Used output format : Internal WAV Routines
44.100 Hz; 16 Bit; Stereo

Other options :
Fill up missing offset samples with silence : Yes
Delete leading and trailing silent blocks : No
Installed external ASPI interface

Range status and errors
Selected range
Filename H:\HQshare.net\Kansas\CDImage.wav

Peak level 100.0 %
Range quality 100.0 %
CRC 7A0B36AC
Copy OK

No errors occured

End of status report
#777Год: 1988
Жанр: Rock, Progressive Rock
Продолжительность: 00:53:00
Кодек: FLAC
Тип битрейта: CBR
Битрейт: 863

Трек лист:
01 - Ghosts
02 - One Big Sky
03 - Inside Of Me
04 - One Man, One Heart
05 - House On Fire
06 - Once In A Lifetime
07 - Stand Beside Me
08 - I Counted On Love
09 - The Preacher
10 - Rainmaker
11 - T.O. Witcher
12 - Bells Of Saint James
AUDIOCHECKER v2.0 beta (build 457) - by Dester -
~~~~~~~~~~~~~~~~~~~~~~~~~~~~~~~~~~

Путь: ...\1988 - In The Spirit Of Things

01 -=- Kansas - 1988 - In The Spirit Of Things.flac -=- CDDA (100%)

31428692
EAC extraction logfile from 18. June 2006, 8:22 for CD
Kansas / In the Spirit of Things

Used drive : PLEXTOR CD-R PX-W4824A Adapter: 0 ID: 1
Read mode : Secure with NO C2, accurate stream, disable cache
Read offset correction : 98
Overread into Lead-In and Lead-Out : No

Used output format : Internal WAV Routines
44.100 Hz; 16 Bit; Stereo

Other options :
Fill up missing offset samples with silence : Yes
Delete leading and trailing silent blocks : No
Installed external ASPI interface

Range status and errors
Selected range
Filename H:\HQshare.net\Kansas\CDImage.wav

Peak level 99.4 %
Range quality 100.0 %
CRC AB66F370
Copy OK

No errors occured

End of status report
#777Год: 1992
Жанр: Rock, Progressive Rock
Продолжительность: 01:12:07
Кодек: FLAC
Тип битрейта: VBR

Трек лист:
01 - Introduction
02 - "Howlin At The Moon" From Magnum Opus
03 - Paradox
04 - Point Of Know Return
05 - Song For America
06 - The Wall
07 - Hold On
08 - Dust In The Wind
09 - Miracles Out Of Nowhere
10 - Mysteries And Mayhem
11 - Portrait
12 - Carry On Wayward Son
13 - Down The Road
14 - Lonely Street
AUDIOCHECKER v2.0 beta (build 457) - by Dester -
~~~~~~~~~~~~~~~~~~~~~~~~~~~~~~~~~~

Путь: ...\1992 - Live At The Whisky

01 -=- 01 - Introduction.flac -=- CDDA (100%)
02 -=- 02 - ''Howlin At The Moon'' From Magnum Opus.flac -=- CDDA (100%)
03 -=- 03 - Paradox.flac -=- CDDA (100%)
04 -=- 04 - Point Of Know Return.flac -=- CDDA (100%)
05 -=- 05 - Song For America.flac -=- CDDA (100%)
06 -=- 06 - The Wall.flac -=- CDDA (99%)
07 -=- 07 - Hold On.flac -=- CDDA (100%)
08 -=- 08 - Dust In The Wind.flac -=- CDDA (43%)
09 -=- 09 - Miracles Out Of Nowhere.flac -=- CDDA (99%)
10 -=- 10 - Mysteries And Mayhem.flac -=- CDDA (100%)
11 -=- 11 - Portrait.flac -=- CDDA (100%)
12 -=- 12 - Carry On Wayward Son.flac -=- CDDA (100%)
13 -=- 13 - Down The Road.flac -=- CDDA (100%)
14 -=- 14 - Lonely Street.flac -=- CDDA (100%)

Сводка 95,79% CDDA

4293604
#777Год: 1995
Жанр: Rock, Progressive Rock
Продолжительность: 00:45:19
Кодек: FLAC
Тип битрейта: CBR
Битрейт: 943

Трек лист:
01 - I Can Fly
02 - Desparate Times
03 - Hope Once Again
04 - Black Fathom 4
05 - Under The Knife
06 - Need
07 - Freaks Of Nature
08 - Cold Grey Morning
09 - Peaceful And Warm
AUDIOCHECKER v2.0 beta (build 457) - by Dester -
~~~~~~~~~~~~~~~~~~~~~~~~~~~~~~~~~~

Путь: ...\1995 - Freaks Of Nature

01 -=- Kansas - 1995 - Freaks Of Nature.flac -=- CDDA (100%)

255090836
EAC extraction logfile from 14. June 2006, 21:09 for CD
Kansas / Freaks Of Nature

Used drive : _NEC DVD_RW ND-4550A Adapter: 1 ID: 1
Read mode : Secure with NO C2, accurate stream, disable cache
Read offset correction : 48
Overread into Lead-In and Lead-Out : No

Used output format : E:\Program Files\Monkey's Audio\MAC.exe (Monkey's Audio Lossless Encoder)
Normal Lossless Compression

Other options :
Fill up missing offset samples with silence : Yes
Delete leading and trailing silent blocks : No
Installed external ASPI interface

Range status and errors
Selected range
Filename G:\Rips\Kansas - [1995] - Freaks Of Nature\CDImage.wav

Peak level 100.0 %
Range quality 99.9 %
CRC 8F280BC1
Copy OK

No errors occured

End of status report
#777Год: 1998
Жанр: Rock, Progressive Rock
Продолжительность: 01:11:12
Кодек: FLAC
Тип битрейта: CBR
Битрейт: 822

Трек лист:
01 - Eleanor Rigby
02 - Dust In The Wind
03 - Preamble
04 - Song For America
05 - In Your Eyes
06 - Miracles Out Of Nowhere
07 - Hold On
08 - The Sky Is Falling
09 - Cheyenne Anthem
10 - Prelude & Introduction
11 - The Wall
12 - Need To Know
13 - Nobody's Home
AUDIOCHECKER v2.0 beta (build 457) - by Dester -
~~~~~~~~~~~~~~~~~~~~~~~~~~~~~~~~~~

Путь: ...\1998 - Always Never The Same

01 -=- Kansas - 1998 - Always Never The Same.flac -=- CDDA (100%)

119993780
EAC extraction logfile from 23. July 2005, 0:50 for CD
Kansas / Always Never the Same

Used drive : TOSHIBA DVD-ROM SD-M1612 Adapter: 1 ID: 0
Read mode : Secure with NO C2, accurate stream, disable cache
Read offset correction : -472
Overread into Lead-In and Lead-Out : No

Used output format : C:\Archivos de programa\EAC Prebeta 5\MAC.exe (Monkey's Audio Lossless Encoder)
High Lossless Compression

Other options :
Fill up missing offset samples with silence : Yes
Delete leading and trailing silent blocks : No
Installed external ASPI interface

Range status and errors
Selected range
Filename E:\Descargas Finalizadas\APE Darkhorse1974\CDImage.wav

Peak level 99.8 %
Range quality 100.0 %
CRC 797A75A0
Copy OK

No errors occured

End of status report
#777Год: 1998
Жанр: Rock, Progressive Rock
Продолжительность: 01:05:55
Кодек: FLAC
Тип битрейта: CBR
Битрейт: 955

Трек лист:
01 - Magnum Opus
02 - One Big Sky
03 - Paradox
04 - Point Of Know Return
05 - The Wall
06 - All I Wanted
07 - T.O. Witcher
08 - Dust In The Wind
09 - Miracles Out Of Nowhere
10 - The Preacher
11 - House On Fire
12 - Carry On Wayward Son
AUDIOCHECKER v2.0 beta (build 457) - by Dester -
~~~~~~~~~~~~~~~~~~~~~~~~~~~~~~~~~~

Путь: ...\1998 - King Biscuit Flower Hour Presents

01 -=- Kansas - 1998 - King Biscuit Flower Hour Presents.flac -=- CDDA (100%)

57869956
EAC extraction logfile from 12. June 2003, 15:01 for CD
Kansas / King Biscuit Flower Hour Presents

Used drive : HL-DT-STCD-RW GCE-8160B Adapter: 1 ID: 1
Read mode : Secure with C2, accurate stream, NO disable cache
Combined read/write offset correction : 0
Overread into Lead-In and Lead-Out : No

Used output format : Internal WAV Routines
44.100 Hz; 16 Bit; Stereo

Other options :
Fill up missing offset samples with silence : Yes
Delete leading and trailing silent blocks : No
Installed external ASPI interface

Range status and errors
Selected range
Filename C:\APE\Kansas - King_Biscuit_Flower_Hour_Presents\CDImage.wav

Peak level 100.0 %
Range quality 99.9 %
CRC 834F674F
Copy OK

No errors occured

End of status report
#777Год: 2000
Жанр: Rock, Progressive Rock
Продолжительность: 01:08:13
Кодек: FLAC
Тип битрейта: CBR
Битрейт: 944

Трек лист:
01 - Icarus II
02 - When The World Was Yount
03 - Grand Fun Alley
04 - The Coming Dawn (Thanatopsis)
05 - Myriad
06 - Look At The Time
07 - Disappearing Skin Tight Blues
08 - Distant Vision
09 - Byzantium
10 - Not Man Big
11 - Piste 11
AUDIOCHECKER v2.0 beta (build 457) - by Dester -
~~~~~~~~~~~~~~~~~~~~~~~~~~~~~~~~~~

Путь: ...\2000 - Somewhere To Elsewhere

01 -=- Kansas - 2000 - Somewhere To Elsewhere.flac -=- CDDA (100%)

202616372
EAC extraction logfile from 26. May 2006, 20:36 for CD
Kansas / Somewhere to elsewhere

Used drive : PLEXTOR CD-R PX-W4824A Adapter: 0 ID: 1
Read mode : Secure with NO C2, accurate stream, disable cache
Read offset correction : 98
Overread into Lead-In and Lead-Out : No

Used output format : Internal WAV Routines
44.100 Hz; 16 Bit; Stereo

Other options :
Fill up missing offset samples with silence : Yes
Delete leading and trailing silent blocks : No
Installed external ASPI interface

Range status and errors
Selected range
Filename H:\HQshare.net\Kansas\CDImage.wav

Peak level 96.2 %
Range quality 99.9 %
CRC 9B53C365
Copy OK

No errors occured

End of status report
#777Год: 2002
Жанр: Rock, Progressive Rock
Продолжительность: 01:07:44
Кодек: FLAC
Тип битрейта: CBR
Битрейт: 906

Трек лист:
01 - Intro
02 - Belexes
03 - Icarus II
04 - Icarus
05 - Song For America
06 - Howlin' At The Moon
07 - The Wall
08 - The Preacher
09 - Journey From Mariabronn
10 - Dust In The Wind
11 - Cheyenne Anthem
12 - Child Of Innocense
AUDIOCHECKER v2.0 beta (build 457) - by Dester -
~~~~~~~~~~~~~~~~~~~~~~~~~~~~~~~~~~

Путь: ...\CD1

01 -=- Kansas - 2002 - Device Voice Drum (CD1).flac -=- CDDA (100%)

166545588
EAC extraction logfile from 18. June 2006, 10:16 for CD
Kansas / Device - Voice - Drum (disk 1)

Used drive : PLEXTOR CD-R PX-W4824A Adapter: 0 ID: 1
Read mode : Secure with NO C2, accurate stream, disable cache
Read offset correction : 98
Overread into Lead-In and Lead-Out : No

Used output format : Internal WAV Routines
44.100 Hz; 16 Bit; Stereo

Other options :
Fill up missing offset samples with silence : Yes
Delete leading and trailing silent blocks : No
Installed external ASPI interface

Range status and errors
Selected range
Filename H:\HQshare.net\Kansas\Kansas DVD\CDImage.wav

Peak level 99.9 %
Range quality 100.0 %
CRC F8F62475
Copy OK

No errors occured

End of status report
#777Год: 2002
Жанр: Rock, Progressive Rock
Продолжительность: 00:31:59
Кодек: FLAC
Тип битрейта: CBR
Битрейт: 943

Трек лист:
01 - Miracles Out Of Nowhere
02 - Point Of Know Return
03 - Portrait - Pinnacle
04 - Fight Fire With Fire
05 - Play The Game Tonight
06 - Carry On Wayward Son
AUDIOCHECKER v2.0 beta (build 457) - by Dester -
~~~~~~~~~~~~~~~~~~~~~~~~~~~~~~~~~~

Путь: ...\CD2

01 -=- Kansas - 2002 - Device Voice Drum (CD2).flac -=- CDDA (100%)

164645044
EAC extraction logfile from 18. June 2006, 11:13 for CD
Kansas / Device Voice Drum (Disc 2)

Used drive : PLEXTOR CD-R PX-W4824A Adapter: 0 ID: 1
Read mode : Secure with NO C2, accurate stream, disable cache
Read offset correction : 98
Overread into Lead-In and Lead-Out : No

Used output format : Internal WAV Routines
44.100 Hz; 16 Bit; Stereo

Other options :
Fill up missing offset samples with silence : Yes
Delete leading and trailing silent blocks : No
Installed external ASPI interface

Range status and errors
Selected range
Filename H:\HQshare.net\Kansas DVD\CD2\CDImage.wav

Peak level 99.9 %
Range quality 100.0 %
CRC 5ADC0A0B
Copy OK

No errors occured

End of status report
#777Год: 2009
Жанр: Rock, Progressive Rock
Продолжительность: 00:59:20
Кодек: FLAC
Тип битрейта: CBR
Битрейт: 907

Трек лист:
01 - Howling At The Moon
02 - Belexes
03 - Point Of Know Return
04 - Song For America
05 - On The Other Side
06 - Musicatto
07 - Ghosts\ Rainmaker
08 - Nobody's Home
09 - Hold On
10 - Cheyenne Anthem
AUDIOCHECKER v2.0 beta (build 457) - by Dester -
~~~~~~~~~~~~~~~~~~~~~~~~~~~~~~~~~~

Путь: ...\CD1

01 -=- Kansas - 2009 - There's Know Place Like Home (CD1).flac -=- CDDA (100%)

30157620
Exact Audio Copy V0.99 prebeta 5 from 4. May 2009

Отчёт EAC об извлечении, выполненном 6. января 2010, 16:12

Kansas / There's Know Place Like Home (CD1)

Дисковод: PIONEER DVD-RW DVR-111D Adapter: 0 ID: 0

Режим чтения : Достоверность
Использование точного потока : Да
Отключение кэша аудио : Да
Использование указателей C2 : Нет

Коррекция смещения при чтении : 48
Способность читать области Lead-in и Lead-out : Нет
Заполнение пропущенных сэмплов тишиной : Да
Удаление блоков с тишиной в начале и конце : Нет
При вычислениях CRC использовались нулевые сэмплы : Да
Интерфейс : Встроенный Win32-интерфейс для Win NT/2000

Выходной формат : Внутренние WAV-операции
Формат сэмплов : 44.100 Гц; 16 бит; стерео

TOC извлечённого CD

Трек | Старт | Длительность | Начальный сектор | Конечный сектор
---------------------------------------------------------------------
1 | 0:00.00 | 3:40.11 | 0 | 16510
2 | 3:40.11 | 6:37.57 | 16511 | 46342
3 | 10:17.68 | 4:25.51 | 46343 | 66268
4 | 14:43.44 | 9:39.28 | 66269 | 109721
5 | 24:22.72 | 7:51.55 | 109722 | 145101
6 | 32:14.52 | 3:29.72 | 145102 | 160848
7 | 35:44.49 | 5:20.45 | 160849 | 184893
8 | 41:05.19 | 5:25.59 | 184894 | 209327
9 | 46:31.03 | 5:14.43 | 209328 | 232920
10 | 51:45.46 | 7:34.45 | 232921 | 267015

Характеристики диапазона извлечения и сообщения об ошибках

Выбранный диапазон

Имя файла C:\Documents and Settings\Владелец\Рабочий стол\Kansas - There's Know Place Like Home (2CD) (2009) (Flac)\Kansas - There's Know Place Like Home (CD1).wav

Пиковый уровень 100.0 %
Качество диапазона 100.0 %
CRC теста CA299EC2
CRC копии CA299EC2
Копирование... OK

Ошибок не произошло

AccurateRip: сводка

Трек 1 нет в базе данных
Трек 2 нет в базе данных
Трек 3 нет в базе данных
Трек 4 нет в базе данных
Трек 5 нет в базе данных
Трек 6 нет в базе данных
Трек 7 нет в базе данных
Трек 8 нет в базе данных
Трек 9 нет в базе данных
Трек 10 нет в базе данных

Ни одного трека нет в базе AccurateRip

Конец отчёта
#777Год: 2009
Жанр: Rock, Progressive Rock
Продолжительность: 00:49:49
Кодек: FLAC
Тип битрейта: CBR
Битрейт: 915

Трек лист:
01 - Icarus II
02 - Icarus: Borne On Wings Of Steel
03 - Miracles Out Of Nowhere
04 - The Wall
05 - Fight Fire With Fire
06 - Dust In The Wind
07 - Carry On Wayward Son
08 - Down The Road - afternoon jam
AUDIOCHECKER v2.0 beta (build 457) - by Dester -
~~~~~~~~~~~~~~~~~~~~~~~~~~~~~~~~~~

Путь: ...\CD2

01 -=- Kansas - 2009 - There's Know Place Like Home (CD2).flac -=- CDDA (100%)

28388148
Exact Audio Copy V0.99 prebeta 5 from 4. May 2009

Отчёт EAC об извлечении, выполненном 6. января 2010, 16:41

Kansas / There's Know Place Like Home (CD2)

Дисковод: PIONEER DVD-RW DVR-111D Adapter: 0 ID: 0

Режим чтения : Достоверность
Использование точного потока : Да
Отключение кэша аудио : Да
Использование указателей C2 : Нет

Коррекция смещения при чтении : 48
Способность читать области Lead-in и Lead-out : Нет
Заполнение пропущенных сэмплов тишиной : Да
Удаление блоков с тишиной в начале и конце : Нет
При вычислениях CRC использовались нулевые сэмплы : Да
Интерфейс : Встроенный Win32-интерфейс для Win NT/2000

Выходной формат : Внутренние WAV-операции
Формат сэмплов : 44.100 Гц; 16 бит; стерео

TOC извлечённого CD

Трек | Старт | Длительность | Начальный сектор | Конечный сектор
---------------------------------------------------------------------
1 | 0:00.00 | 7:26.18 | 0 | 33467
2 | 7:26.18 | 6:46.12 | 33468 | 63929
3 | 14:12.30 | 6:50.68 | 63930 | 94747
4 | 21:03.23 | 5:51.63 | 94748 | 121135
5 | 26:55.11 | 4:29.43 | 121136 | 141353
6 | 31:24.54 | 4:22.08 | 141354 | 161011
7 | 35:46.62 | 7:06.46 | 161012 | 193007
8 | 42:53.33 | 6:55.66 | 193008 | 224198

Характеристики диапазона извлечения и сообщения об ошибках

Выбранный диапазон

Имя файла C:\Documents and Settings\Владелец\Рабочий стол\Kansas - There's Know Place Like Home (2CD) (2009) (Flac)\Kansas - There's Know Place Like Home (CD2).wav

Пиковый уровень 100.0 %
Качество диапазона 100.0 %
CRC теста A50DAC5A
CRC копии A50DAC5A
Копирование... OK

Ошибок не произошло

AccurateRip: сводка

Трек 1 нет в базе данных
Трек 2 нет в базе данных
Трек 3 нет в базе данных
Трек 4 нет в базе данных
Трек 5 нет в базе данных
Трек 6 нет в базе данных
Трек 7 нет в базе данных
Трек 8 нет в базе данных

Ни одного трека нет в базе AccurateRip

Конец отчёта
Правила, инструкции, FAQ!!!
Торрент  Добавлен [30 апр 2014, 20:52] Скачать торрент Магнет ссылка
Скачать торрент
55.12 КБ

Статус
Проверен 
 
Размер  7.12 ГБ
Приватный: Нет (DHT включён)
.torrent скачан  2
Как залить торрент? | Как скачать Torrent? | Как смотреть и слушать онлайн?  
Гость
 



Вернуться в Дискографии (Зарубежные)

Кто сейчас на конференции

Сейчас этот форум просматривают: нет зарегистрированных пользователей и гости: 0