Как приручить дракона 3Д / How to Train Your Dragon 3D (Дин ДеБлуа, Крис Сандерс / Dean DeBlois, Chris Sanders) [2010 г., комедийные скандинавско-фентезийные приключения, BDRip 720p] OverUnder / Вертикальная стереопара


Статистика раздачи
Размер: 5.46 ГБ | Добавлен: 07 сен 2016, 18:51 | Скачали: 0
Сидеров: 6  [0 байт/сек]    Личеров: 2  [0 байт/сек]

Сообщение Гость » 07 сен 2016, 18:51

Как приручить дракона 3Д / How to Train Your Dragon 3D
Год выпуска: 2010
Страна: США
Жанр: комедийные скандинавско-фентезийные приключения
Продолжительность: 01:37:52
Перевод: профессиональный (полное дублирование)
Русские субтитры: нет

Производство: DreamWorks Animation
Режиссер: Дин ДеБлуа /Dean DeBlois/, Крис Сандерс /Chris Sanders/

Роли озвучивали: Джей Барушель /Jay Baruchel/, Джерард Батлер /Gerard Butler/, Крэйг Фергюсон /Craig Ferguson/, Америка Феррера /America Ferrera/, Джона Хилл /Jonah Hill/, Кристофер Минц-Плассе /Christopher Mintz-Plasse/, ТиДжей Миллер /T.J. Miller/, Кристен Уиг /Kristen Wiig/, Робин Аткин Даунс /Robin Atkin Downes/, Филип МакГрэйд /Philip McGrade/
Роли дублировали: Андрей Лёвин, Валерий Соловьев, Михаил Боярский, Софья Ануфриева, Михаил Хрусталев

Описание:
Вы узнаете историю подростка Иккинга, которому не слишком близки традиции его героического племени, много лет ведущего войну с драконами. Мир Иккинга переворачивается с ног на голову, когда он неожиданно встречает дракона Беззубика, который поможет ему и другим викингам увидеть привычный мир с совершенно другой стороны…

Альтернативное описание:
Виккинг Кровожадный Карасик III, наследник трона королевства викингов, страдает от одной маленькой проблемы: он не герой. В отчаянии отправившись на поиски самого большого и злобного дракона на свете, чтобы убить его и пройти обряд инициации, он находит крошечную беззубую рептилию. Вдвоем они пускаются на поиски приключений, чтобы каждый мог заслужить уважение своего племени.

Качество: BDrip
Формат: MKV
Формат 3D: OverUnder / Вертикальная стереопара
Видео кодек: x264
Аудио кодек: AC3
Видео: MPEG4 Video (H264) 1280x1088 23.98fps 6537 Kbps
Аудио1: russian Dolby AC3 48000Hz 6ch 640kbps
Аудио2: english Dolby AC3 48000Hz 6ch 640kbps

Доп. информация:Для просмотра понадобится стереоплеер, через него можно смотреть с любыми видами очков и стереомониторов. В Стереоскопик плеере в окне браузера поменять "тип файла" - "Все файлы" вместо "все поддерживаемые" (по умолчанию), иначе не увидит расширение MKV, потом Вид _ метод просмотра _ .... под свой тип очков или 3Д монитор.
Также возможен просмотр 2D версии на обычном плеере отрезав второй ракурс ffd фильтром


тематические ссылки:
Format : Matroska
File size : 5.46 GiB
Duration : 1h 37mn
Overall bit rate : 7 976 Kbps
Encoded date : UTC 2010-10-26 21:48:28
Writing application : mkvmerge v2.9.7 ('Tenderness') built on Jul 1 2009 18:43:35
Writing library : libebml v0.7.7 + libmatroska v0.8.1

Video
ID : 1
Format : AVC
Format/Info : Advanced Video Codec
Format profile : High@L4.0
Format settings, CABAC : Yes
Format settings, ReFrames : 4 frames
Muxing mode : Container profile=Unknown@4.0
Codec ID : V_MPEG4/ISO/AVC
Duration : 1h 37mn
Bit rate : 6 537 Kbps
Width : 1 280 pixels
Height : 1 088 pixels
Display aspect ratio : 1.176
Original display aspect ratio : 0.889
Frame rate : 23.976 fps
Color space : YUV
Chroma subsampling : 4:2:0
Bit depth : 8 bits
Scan type : Progressive
Bits/(Pixel*Frame) : 0.196
Stream size : 4.47 GiB (82%)
Writing library : x264 core 107 r1745 4785e8e
Encoding settings : cabac=1 / ref=4 / deblock=1:-3:-3 / analyse=0x3:0x113 / me=umh / subme=7 / psy=1 / psy_rd=1.00:0.15 / mixed_ref=1 / me_range=16 / chroma_me=1 / trellis=2 / 8x8dct=1 / cqm=0 / deadzone=21,11 / fast_pskip=1 / chroma_qp_offset=-3 / threads=6 / sliced_threads=0 / nr=0 / decimate=1 / interlaced=0 / constrained_intra=0 / bframes=6 / b_pyramid=0 / b_adapt=2 / b_bias=0 / direct=3 / weightb=1 / open_gop=0 / weightp=2 / keyint=250 / keyint_min=23 / scenecut=40 / intra_refresh=0 / rc_lookahead=40 / rc=crf / mbtree=1 / crf=18.0 / qcomp=0.60 / qpmin=10 / qpmax=51 / qpstep=4 / ip_ratio=1.40 / aq=1:1.00
Language : English

Audio #1
ID : 2
Format : AC-3
Format/Info : Audio Coding 3
Mode extension : CM (complete main)
Codec ID : A_AC3
Duration : 1h 37mn
Bit rate mode : Constant
Bit rate : 640 Kbps
Channel(s) : 6 channels
Channel positions : Front: L C R, Side: L R, LFE
Sampling rate : 48.0 KHz
Bit depth : 16 bits
Stream size : 449 MiB (8%)
Language : Russian

Audio #2
ID : 3
Format : AC-3
Format/Info : Audio Coding 3
Mode extension : CM (complete main)
Codec ID : A_AC3
Duration : 1h 37mn
Bit rate mode : Constant
Bit rate : 640 Kbps
Channel(s) : 6 channels
Channel positions : Front: L C R, Side: L R, LFE
Sampling rate : 48.0 KHz
Bit depth : 16 bits
Video delay : 24ms
Stream size : 449 MiB (8%)
Language : English

Menu
00:00:00.000 : en:00:00:00.000
00:08:39.811 : en:00:08:39.811
00:11:31.983 : en:00:11:31.983
00:15:11.035 : en:00:15:11.035
00:21:57.107 : en:00:21:57.107
00:27:41.702 : en:00:27:41.702
00:33:14.201 : en:00:33:14.201
00:39:07.136 : en:00:39:07.136
00:43:28.731 : en:00:43:28.731
00:47:08.367 : en:00:47:08.367
00:49:47.193 : en:00:49:47.193
00:59:55.801 : en:00:59:55.801
01:04:47.383 : en:01:04:47.383
01:09:28.164 : en:01:09:28.164
01:12:38.187 : en:01:12:38.187
01:23:26.043 : en:01:23:26.043
01:28:54.496 : en:01:28:54.496
Торент перезалит 27.10.10 - исправил AR
Правила, инструкции, FAQ!!!
Торрент  Добавлен [07 сен 2016, 18:51] Скачать торрент Магнет ссылка
Скачать торрент
27.76 КБ

Статус
Проверен 
 
Размер  5.46 ГБ
Приватный: Нет (DHT включён)
.torrent скачан  0
Как залить торрент? | Как скачать Torrent? | Как смотреть и слушать онлайн?  
Гость
 



Вернуться в HD-Video в 3D

Кто сейчас на конференции

Сейчас этот форум просматривают: нет зарегистрированных пользователей и гости: 2