Johnossi - 4 альбома (2006-2013) Discography [FLAC|Lossless]<Alternative>


Статистика раздачи
Размер: 1.16 ГБ | Добавлен: 16 мар 2014, 00:40 | Скачали: 0
Сидеров: 2  [0 байт/сек]    Личеров: 1  [0 байт/сек]

Сообщение Гость » 16 мар 2014, 00:40

Johnossi - Discography: 4 CDs (2006-2013)

Год: 2006-2013
Страна: Sweden
Жанр: Alternative
Продолжительность: 02:53:48

Кодек: FLAC
Битрейт: Lossless
Тип рипа: tracks+.cue
Источник (релизер): What.CD
Наличие сканов в содержимом раздачи: да
#777Продолжительность: 00:46:37
Треклист:
01 - The Show Tonight
02 - Execution Song
03 - Glory Days To Come
04 - There's A Lot Of Things To Do Before You Die
05 - Man Must Dance
06 - Family Values
07 - Press Hold
08 - Happiness A La Mode
09 - From Peoples Heart
10 - Santa Monica Bay
11 - The Lottery
12 - Summerbreeze

Bonus Tracks
13 - Rescue Team
14 - Risky Business I
15 - Risky Business II
Код:
Код: Выделить всё
EAC extraction logfile from 27. January 2008, 18:03 for CD
Johnossi / Johnossi

Used drive  : LITE-ON LTR-52327S   Adapter: 1  ID: 3
Read mode   : Secure with NO C2, accurate stream, disable cache
Read offset correction : 6
Overread into Lead-In and Lead-Out : No

Used output format : C:\Program\Flac\flac.exe   (User Defined Encoder)
                     320 kBit/s
                     Additional command line options : -8 -V -T "ARTIST=%a" -T "TITLE=%t" -T "ALBUM=%g" -T "DATE=%y" -T "TRACKNUMBER=%n" -T "GENRE=%m" -T "ALBUMARTIST=%a" -T "COMMENT=EAC Flac 1.2.1 -8" %s

Other options      :
    Fill up missing offset samples with silence : Yes
    Delete leading and trailing silent blocks : No
    Native Win32 interface for Win NT & 2000

Track  1
     Filename C:\Temp\musik\Johnossi - Johnossi (2006) [FLAC]\01 - The Show Tonight.wav

     Pre-gap length  0:00:02.00

     Peak level 98.8 %
     Track quality 99.9 %
     Test CRC 463ABBC9
     Copy CRC 463ABBC9
     Copy OK

Track  2
     Filename C:\Temp\musik\Johnossi - Johnossi (2006) [FLAC]\02 - Execution Song.wav

     Peak level 98.8 %
     Track quality 100.0 %
     Test CRC EBF747B4
     Copy CRC EBF747B4
     Copy OK

Track  3
     Filename C:\Temp\musik\Johnossi - Johnossi (2006) [FLAC]\03 - Glory Days To Come.wav

     Peak level 98.8 %
     Track quality 100.0 %
     Test CRC 82EF5483
     Copy CRC 82EF5483
     Copy OK

Track  4
     Filename C:\Temp\musik\Johnossi - Johnossi (2006) [FLAC]\04 - There's A Lot Of Things To Do Before You Die.wav

     Peak level 98.8 %
     Track quality 100.0 %
     Test CRC 9FB32290
     Copy CRC 9FB32290
     Copy OK

Track  5
     Filename C:\Temp\musik\Johnossi - Johnossi (2006) [FLAC]\05 - Man Must Dance.wav

     Peak level 98.8 %
     Track quality 99.9 %
     Test CRC 2A19D9BD
     Copy CRC 2A19D9BD
     Copy OK

Track  6
     Filename C:\Temp\musik\Johnossi - Johnossi (2006) [FLAC]\06 - Family Values.wav

     Peak level 98.8 %
     Track quality 100.0 %
     Test CRC 130FFD5E
     Copy CRC 130FFD5E
     Copy OK

Track  7
     Filename C:\Temp\musik\Johnossi - Johnossi (2006) [FLAC]\07 - Press Hold.wav

     Peak level 98.8 %
     Track quality 100.0 %
     Test CRC 19FA47B9
     Copy CRC 19FA47B9
     Copy OK

Track  8
     Filename C:\Temp\musik\Johnossi - Johnossi (2006) [FLAC]\08 - Happiness A La Mode.wav

     Peak level 98.8 %
     Track quality 100.0 %
     Test CRC 6842844B
     Copy CRC 6842844B
     Copy OK

Track  9
     Filename C:\Temp\musik\Johnossi - Johnossi (2006) [FLAC]\09 - From Peoples Heart.wav

     Peak level 98.8 %
     Track quality 100.0 %
     Test CRC 2F7DE3AD
     Copy CRC 2F7DE3AD
     Copy OK

Track 10
     Filename C:\Temp\musik\Johnossi - Johnossi (2006) [FLAC]\10 - Santa Monica Bay.wav

     Peak level 98.8 %
     Track quality 100.0 %
     Test CRC FFAABF45
     Copy CRC FFAABF45
     Copy OK

Track 11
     Filename C:\Temp\musik\Johnossi - Johnossi (2006) [FLAC]\11 - The Lottery.wav

     Peak level 98.8 %
     Track quality 100.0 %
     Test CRC 34C9811A
     Copy CRC 34C9811A
     Copy OK

Track 12
     Filename C:\Temp\musik\Johnossi - Johnossi (2006) [FLAC]\12 - Summerbreeze.wav

     Peak level 98.8 %
     Track quality 100.0 %
     Test CRC 75AF33B7
     Copy CRC 75AF33B7
     Copy OK

Track 13
     Filename C:\Temp\musik\Johnossi - Johnossi (2006) [FLAC]\13 - Rescue Team.wav

     Peak level 98.8 %
     Track quality 100.0 %
     Test CRC 7BB88D91
     Copy CRC 7BB88D91
     Copy OK

Track 14
     Filename C:\Temp\musik\Johnossi - Johnossi (2006) [FLAC]\14 - Risky Business I.wav

     Peak level 98.8 %
     Track quality 100.0 %
     Test CRC 8FE8EDC2
     Copy CRC 8FE8EDC2
     Copy OK

Track 15
     Filename C:\Temp\musik\Johnossi - Johnossi (2006) [FLAC]\15 - Risky Business II.wav

     Peak level 98.8 %
     Track quality 100.0 %
     Test CRC FBD4F1FE
     Copy CRC FBD4F1FE
     Copy OK

No errors occured

End of status report
Код:
Код: Выделить всё
-----------------------

DON'T MODIFY THIS FILE

-----------------------

PERFORMER: auCDtect Task Manager, ver. 1.6.0 RC1 build 1.6.0.1
Copyright (c) 2008-2010 y-soft. All rights reserved
http:/y-soft.org

ANALYZER: auCDtect: CD records authenticity detector, version 0.8.2
Copyright (c) 2004 Oleg Berngardt. All rights reserved.
Copyright (c) 2004 Alexander Djourik. All rights reserved.

FILE: 15 - Risky Business II.flac
  Size: 14770496 Hash: F7D531D1A35EF6167E776176F36ED95E Accuracy: -m0
  Conclusion: CDDA 100%
  Signature: 1D2DC81976245F8D8EEC5B256E97E5C93939EBA6
FILE: 14 - Risky Business I.flac
  Size: 17596944 Hash: 6F0DDCFBDDB20FA7B1241794DB0FA812 Accuracy: -m0
  Conclusion: CDDA 100%
  Signature: 2E460AAE2D73409F55E5B2E5490A563432482213
FILE: 13 - Rescue Team.flac
  Size: 21389902 Hash: 4F8EA746355E84759809472EE943D373 Accuracy: -m0
  Conclusion: CDDA 100%
  Signature: 6AC960987BF7866E229E46DEE5A421A392E9410A
FILE: 12 - Summerbreeze.flac
  Size: 13532654 Hash: 65A46F5085885DC1E5B791EF3510BD8A Accuracy: -m0
  Conclusion: CDDA 100%
  Signature: A8FB025217D4008D62EE42381DDBEBDD03A1E375
FILE: 11 - The Lottery.flac
  Size: 25260130 Hash: 880CCF13EDFD2DF9F44905F153D59198 Accuracy: -m0
  Conclusion: CDDA 100%
  Signature: 9DD6CFFCFA615822CBD004F2C7D016A83985B32E
FILE: 10 - Santa Monica Bay.flac
  Size: 19625175 Hash: 6DCD36D4B7743DDFF6BF8F3640DF75D0 Accuracy: -m0
  Conclusion: CDDA 100%
  Signature: F187A035151A2D548127E9B5E63425E6DE3BBE6F
FILE: 09 - From Peoples Heart.flac
  Size: 19404877 Hash: EC9265C024E3A7139F8709B863A4E358 Accuracy: -m0
  Conclusion: CDDA 100%
  Signature: 32BC0B45E5B196BFF482688075E8FC0BABB46631
FILE: 08 - Happiness A La Mode.flac
  Size: 27482071 Hash: 88F87CD1A82E92EBB2D50E685E848B35 Accuracy: -m0
  Conclusion: CDDA 100%
  Signature: 3A961CBC3204591B44E8001FDC3FF74DF7C748C3
FILE: 07 - Press Hold.flac
  Size: 34109263 Hash: 4BAB76C5B59E883964CF604C8FB9587C Accuracy: -m0
  Conclusion: CDDA 100%
  Signature: 1ECA27686FEBCC535E2CD40F2C27744CB0B7F7AA
FILE: 06 - Family Values.flac
  Size: 20377903 Hash: 158E4584A7809418A97D9AFCED182665 Accuracy: -m0
  Conclusion: CDDA 100%
  Signature: D4408658123D2064DAAD1C5714D4672579B4EDBA
FILE: 05 - Man Must Dance.flac
  Size: 16191007 Hash: 2BD70B1844BF87A3528C940A4FF5F8BE Accuracy: -m0
  Conclusion: CDDA 100%
  Signature: 4FCBBE241734004403008AB155C6218B3AD5B529
FILE: 04 - There's A Lot Of Things To Do Before You Die.flac
  Size: 18427672 Hash: 99FD26C3179B1D6DA4227B3FE0165466 Accuracy: -m0
  Conclusion: CDDA 100%
  Signature: D109DC4F29FC0662A643234BB0E0723CB8488D60
FILE: 03 - Glory Days To Come.flac
  Size: 22803947 Hash: 18323AD60EFAD54DAFC3F4A20B466DA8 Accuracy: -m0
  Conclusion: CDDA 100%
  Signature: B6349D4B8A5311EC0BBA128D4A08152A007F947C
FILE: 02 - Execution Song.flac
  Size: 17881638 Hash: 4C1833E51452502933BD78B2AFE114A7 Accuracy: -m0
  Conclusion: CDDA 100%
  Signature: 4422FFD2696B011ADCB3EBA40630C3FBDD23FA3D
FILE: 01 - The Show Tonight.flac
  Size: 28189304 Hash: 3390125C2D6E819BE1AAF9687C30FBEE Accuracy: -m0
  Conclusion: CDDA 100%
  Signature: 1C39A57D008CBD0BE4965766996F09EE63FE4DE8
#777Продолжительность: 00:37:21
Треклист:
01 - 18 Karat Gold
02 - Party With My Pain
03 - Send More Money
04 - Train Song
05 - In The Mystery Time Of Cold And Rain
06 - Zeppelin
07 - Bobby
08 - All They Ever Wanted
09 - Up In The Air
10 - Lie Lie Die
Код:
Код: Выделить всё
Exact Audio Copy V0.99 prebeta 4 from 23. January 2008

EAC extraction logfile from 9. April 2008, 16:42

Johnossi / All They Ever Wanted

Used drive  : TSSTcorpCDDVDW SH-S203B   Adapter: 1  ID: 0

Read mode               : Secure
Utilize accurate stream : Yes
Defeat audio cache      : No
Make use of C2 pointers : No

Read offset correction                      : 6
Overread into Lead-In and Lead-Out          : No
Fill up missing offset samples with silence : Yes
Delete leading and trailing silent blocks   : No
Null samples used in CRC calculations       : Yes
Used interface                              : Installed external ASPI interface
Gap handling                                : Appended to previous track

Used output format              : User Defined Encoder
Selected bitrate                : 128 kBit/s
Quality                         : High
Add ID3 tag                     : No
Command line compressor         : C:\Program\Exact Audio Copy\flac.exe
Additional command line options : -8 -A tukey(0.25) -A gauss(0.1875) -b 4096 -V -T "artist=%a" -T "title=%t" -T "album=%g" -T "date=%y" -T "tracknumber=%n" -T "genre=%m" %s --sector-align

TOC of the extracted CD

     Track |   Start  |  Length  | Start sector | End sector
    ---------------------------------------------------------
        1  |  0:00.00 |  4:42.42 |         0    |    21191
        2  |  4:42.42 |  3:38.69 |     21192    |    37610
        3  |  8:21.36 |  3:06.72 |     37611    |    51632
        4  | 11:28.33 |  3:13.15 |     51633    |    66122
        5  | 14:41.48 |  3:24.10 |     66123    |    81432
        6  | 18:05.58 |  4:02.00 |     81433    |    99582
        7  | 22:07.58 |  4:11.68 |     99583    |   118475
        8  | 26:19.51 |  2:33.43 |    118476    |   129993
        9  | 28:53.19 |  3:23.71 |    129994    |   145289
       10  | 32:17.15 |  5:04.23 |    145290    |   168112

Track  1

     Filename E:\Johnossi\All They Ever Wanted (FLAC)\01 - 18 Karat Gold.wav

     Pre-gap length  0:00:02.00

     Peak level 98.9 %
     Track quality 99.9 %
     Test CRC 9C1622A7
     Copy CRC 9C1622A7
     Track not present in AccurateRip database
     Copy OK

Track  2

     Filename E:\Johnossi\All They Ever Wanted (FLAC)\02 - Party With My Pain.wav

     Peak level 98.9 %
     Track quality 100.0 %
     Test CRC 0D852D63
     Copy CRC 0D852D63
     Track not present in AccurateRip database
     Copy OK

Track  3

     Filename E:\Johnossi\All They Ever Wanted (FLAC)\03 - Send More Money.wav

     Pre-gap length  0:00:01.51

     Peak level 98.9 %
     Track quality 99.9 %
     Test CRC 78E730C9
     Copy CRC 78E730C9
     Track not present in AccurateRip database
     Copy OK

Track  4

     Filename E:\Johnossi\All They Ever Wanted (FLAC)\04 - Train Song.wav

     Peak level 98.9 %
     Track quality 100.0 %
     Test CRC A8F4A069
     Copy CRC A8F4A069
     Track not present in AccurateRip database
     Copy OK

Track  5

     Filename E:\Johnossi\All They Ever Wanted (FLAC)\05 - In The Mystery Time Of Cold And Rain.wav

     Pre-gap length  0:00:03.23

     Peak level 98.9 %
     Track quality 100.0 %
     Test CRC FEF5C8AA
     Copy CRC FEF5C8AA
     Track not present in AccurateRip database
     Copy OK

Track  6

     Filename E:\Johnossi\All They Ever Wanted (FLAC)\06 - Zeppelin.wav

     Pre-gap length  0:00:01.58

     Peak level 98.9 %
     Track quality 100.0 %
     Test CRC 974D397C
     Copy CRC 974D397C
     Track not present in AccurateRip database
     Copy OK

Track  7

     Filename E:\Johnossi\All They Ever Wanted (FLAC)\07 - Bobby.wav

     Pre-gap length  0:00:01.49

     Peak level 98.9 %
     Track quality 100.0 %
     Test CRC 5CA93CEA
     Copy CRC 5CA93CEA
     Track not present in AccurateRip database
     Copy OK

Track  8

     Filename E:\Johnossi\All They Ever Wanted (FLAC)\08 - All They Ever Wanted.wav

     Pre-gap length  0:00:02.01

     Peak level 98.9 %
     Track quality 100.0 %
     Test CRC 7014F290
     Copy CRC 7014F290
     Track not present in AccurateRip database
     Copy OK

Track  9

     Filename E:\Johnossi\All They Ever Wanted (FLAC)\09 - Up In The Air.wav

     Pre-gap length  0:00:01.44

     Peak level 98.9 %
     Track quality 100.0 %
     Test CRC 6BDEFA19
     Copy CRC 6BDEFA19
     Track not present in AccurateRip database
     Copy OK

Track 10

     Filename E:\Johnossi\All They Ever Wanted (FLAC)\10 - Lie Lie Die.wav

     Pre-gap length  0:00:03.10

     Peak level 98.9 %
     Track quality 100.0 %
     Test CRC 4E81B66D
     Copy CRC 4E81B66D
     Track not present in AccurateRip database
     Copy OK

None of the tracks are present in the AccurateRip database

No errors occurred

End of status report
Код:
Код: Выделить всё
-----------------------

DON'T MODIFY THIS FILE

-----------------------

PERFORMER: auCDtect Task Manager, ver. 1.6.0 RC1 build 1.6.0.1
Copyright (c) 2008-2010 y-soft. All rights reserved
http:/y-soft.org

ANALYZER: auCDtect: CD records authenticity detector, version 0.8.2
Copyright (c) 2004 Oleg Berngardt. All rights reserved.
Copyright (c) 2004 Alexander Djourik. All rights reserved.

FILE: 10 - Lie Lie Die.flac
  Size: 36945013 Hash: 3C98112A24B7CC2E3FA90031B1D3E77D Accuracy: -m0
  Conclusion: CDDA 100%
  Signature: BC4DC90455B934D3CD1835EFA9C5D4508F0DD3AA
FILE: 09 - Up In The Air.flac
  Size: 27010333 Hash: 64E4E8D437144731357B69E2BBB790E6 Accuracy: -m0
  Conclusion: CDDA 100%
  Signature: 8CCDF5069EECB126ABF8F72DC8B8F52D4E712F09
FILE: 08 - All They Ever Wanted.flac
  Size: 20486705 Hash: 23ACBC3C0C2364E9FA77BE70B5E264A3 Accuracy: -m0
  Conclusion: CDDA 100%
  Signature: EC347BFA1E53AB72695BEDE63F4A1D640FCF1CD1
FILE: 07 - Bobby.flac
  Size: 32822714 Hash: D0DC8F5B1658DF9DBBDE160762001DA9 Accuracy: -m0
  Conclusion: CDDA 100%
  Signature: F5BCD48F6411A4D5EB4D7E786DC3D1321A86CEDD
FILE: 06 - Zeppelin.flac
  Size: 33235040 Hash: CAFD7301923EEA574ADFE80CFD1D04CF Accuracy: -m0
  Conclusion: CDDA 100%
  Signature: E54280BDC77396FBCF21E6A38F4A072E1C5AED4C
FILE: 05 - In The Mystery Time Of Cold And Rain.flac
  Size: 24815217 Hash: 395F2516DC25E6922BA06F47A79F1EF9 Accuracy: -m0
  Conclusion: CDDA 100%
  Signature: 60F682F833BF3F467A344C7F411AA5C0DAF0CA35
FILE: 04 - Train Song.flac
  Size: 24956541 Hash: D02B66038B57B27D0239ED34A67E1708 Accuracy: -m0
  Conclusion: CDDA 100%
  Signature: F51877706D507A46AB271C66FF4E1115384FC5D2
FILE: 03 - Send More Money.flac
  Size: 23960515 Hash: 6796814AED62FA680BF85849CFE3A839 Accuracy: -m0
  Conclusion: CDDA 100%
  Signature: 825EB3C07C6331265114173D377FA1E873FC6BB0
FILE: 02 - Party With My Pain.flac
  Size: 28744886 Hash: C667ADB4A8B2461AC36C5B9E00277887 Accuracy: -m0
  Conclusion: CDDA 100%
  Signature: 006E928F18CB14EE7E7A0AFC68C3731D69C177CF
FILE: 01 - 18 Karat Gold.flac
  Size: 35501757 Hash: 71095183825959F7FE0B695900818A72 Accuracy: -m0
  Conclusion: CDDA 100%
  Signature: 9CF8B1978E59228753B6151AEE17F926870B90CB
#777Продолжительность: 00:44:22
Треклист:
01 - Mavericks
02 - Dead End
03 - Houses
04 - Roscoe
05 - Bed On Fire
06 - What's The Point
07 - No Last Call
08 - Come Along (There's A Gene)
09 - Worried Ground
10 - Sickness
Код:
Код: Выделить всё
Exact Audio Copy V0.99 prebeta 5 from 4. May 2009

EAC extraction logfile from 26. February 2011, 15:24

Johnossi / Mavericks

Used drive  : TSSTcorpCDDVDW SE-S084C   Adapter: 7  ID: 0

Read mode               : Secure
Utilize accurate stream : Yes
Defeat audio cache      : Yes
Make use of C2 pointers : No

Read offset correction                      : 6
Overread into Lead-In and Lead-Out          : No
Fill up missing offset samples with silence : Yes
Delete leading and trailing silent blocks   : No
Null samples used in CRC calculations       : Yes
Used interface                              : Native Win32 interface for Win NT & 2000
Gap handling                                : Appended to previous track

Used output format              : User Defined Encoder
Selected bitrate                : 128 kBit/s
Quality                         : High
Add ID3 tag                     : No
Command line compressor         : C:\Program Files (x86)\Exact Audio Copy\Flac\flac.exe
Additional command line options : -8 -V -T "ARTIST=%a" -T "TITLE=%t" -T "ALBUM=%g" -T "DATE=%y" -T "TRACKNUMBER=%n" -T "TOTALTRACKS=%x" -T "GENRE=%m" -T "ALBUMARTIST=%v" -T "ALBUM ARTIST=%v" -T "COMMENT=EAC V0.99 prebeta 5, Secure Mode, Test & Copy, Accurat

TOC of the extracted CD

     Track |   Start  |  Length  | Start sector | End sector
    ---------------------------------------------------------
        1  |  0:00.00 |  4:33.15 |         0    |    20489
        2  |  4:33.15 |  3:58.09 |     20490    |    38348
        3  |  8:31.24 |  4:10.47 |     38349    |    57145
        4  | 12:41.71 |  4:23.12 |     57146    |    76882
        5  | 17:05.08 |  3:44.42 |     76883    |    93724
        6  | 20:49.50 |  4:15.53 |     93725    |   112902
        7  | 25:05.28 |  3:04.21 |    112903    |   126723
        8  | 28:09.49 |  3:50.52 |    126724    |   144025
        9  | 32:00.26 |  6:29.35 |    144026    |   173235
       10  | 38:29.61 |  5:52.39 |    173236    |   199674

Track  1

     Filename D:\Rippat\Johnossi - Macericks (2010) [FLAC]\01 - Mavericks.wav

     Pre-gap length  0:00:02.00

     Peak level 98.8 %
     Track quality 100.0 %
     Test CRC 85B5B1B3
     Copy CRC 85B5B1B3
     Accurately ripped (confidence 9)  [E1136D11]
     Copy OK

Track  2

     Filename D:\Rippat\Johnossi - Macericks (2010) [FLAC]\02 - Dead End.wav

     Peak level 98.8 %
     Track quality 100.0 %
     Test CRC F74EFE0F
     Copy CRC F74EFE0F
     Accurately ripped (confidence 9)  [8DABAA6A]
     Copy OK

Track  3

     Filename D:\Rippat\Johnossi - Macericks (2010) [FLAC]\03 - Houses.wav

     Peak level 98.8 %
     Track quality 100.0 %
     Test CRC 843C2D74
     Copy CRC 843C2D74
     Accurately ripped (confidence 9)  [C6387A6F]
     Copy OK

Track  4

     Filename D:\Rippat\Johnossi - Macericks (2010) [FLAC]\04 - Roscoe.wav

     Peak level 98.8 %
     Track quality 100.0 %
     Test CRC 62338EC5
     Copy CRC 62338EC5
     Accurately ripped (confidence 9)  [65DCF387]
     Copy OK

Track  5

     Filename D:\Rippat\Johnossi - Macericks (2010) [FLAC]\05 - Bed On Fire.wav

     Peak level 98.8 %
     Track quality 100.0 %
     Test CRC A58CC344
     Copy CRC A58CC344
     Accurately ripped (confidence 9)  [3EA3158E]
     Copy OK

Track  6

     Filename D:\Rippat\Johnossi - Macericks (2010) [FLAC]\06 - What's The Point.wav

     Peak level 98.8 %
     Track quality 99.9 %
     Test CRC E13D58B1
     Copy CRC E13D58B1
     Accurately ripped (confidence 9)  [B41C2B28]
     Copy OK

Track  7

     Filename D:\Rippat\Johnossi - Macericks (2010) [FLAC]\07 - No Last Call.wav

     Peak level 98.8 %
     Track quality 99.9 %
     Test CRC 6A1DB4E2
     Copy CRC 6A1DB4E2
     Accurately ripped (confidence 9)  [1204EB83]
     Copy OK

Track  8

     Filename D:\Rippat\Johnossi - Macericks (2010) [FLAC]\08 - Come Along (There's A Gene).wav

     Peak level 98.8 %
     Track quality 100.0 %
     Test CRC 969F3EBA
     Copy CRC 969F3EBA
     Accurately ripped (confidence 9)  [A9E05945]
     Copy OK

Track  9

     Filename D:\Rippat\Johnossi - Macericks (2010) [FLAC]\09 - Worried Ground.wav

     Peak level 98.8 %
     Track quality 100.0 %
     Test CRC 0A5CC73B
     Copy CRC 0A5CC73B
     Accurately ripped (confidence 9)  [7E17D9F2]
     Copy OK

Track 10

     Filename D:\Rippat\Johnossi - Macericks (2010) [FLAC]\10 - Sickness.wav

     Peak level 98.8 %
     Track quality 100.0 %
     Test CRC 8E72580F
     Copy CRC 8E72580F
     Accurately ripped (confidence 9)  [93B23348]
     Copy OK

All tracks accurately ripped

No errors occurred

End of status report
Код:
Код: Выделить всё
-----------------------

DON'T MODIFY THIS FILE

-----------------------

PERFORMER: auCDtect Task Manager, ver. 1.6.0 RC1 build 1.6.0.1
Copyright (c) 2008-2010 y-soft. All rights reserved
http:/y-soft.org

ANALYZER: auCDtect: CD records authenticity detector, version 0.8.2
Copyright (c) 2004 Oleg Berngardt. All rights reserved.
Copyright (c) 2004 Alexander Djourik. All rights reserved.

FILE: 10 - Sickness.flac
  Size: 40126979 Hash: 294D59B4F875FE76FAC50657B11AB09C Accuracy: -m0
  Conclusion: CDDA 99%
  Signature: DC333BD5E630688DA1C3BA4A0FA8AECFC446086C
FILE: 09 - Worried Ground.flac
  Size: 42846853 Hash: 2DDD5CD7B5C5F6E810D6766B0E4807D4 Accuracy: -m0
  Conclusion: CDDA 100%
  Signature: DD20978A0B7B6F6ABBFC7E5350901545CEE3480A
FILE: 08 - Come Along (There's A Gene).flac
  Size: 26251742 Hash: 5D5650F23C383FFEE5B8C0ABDB8163E1 Accuracy: -m0
  Conclusion: CDDA 100%
  Signature: A4329C12CFFB414D5A35C8903F4F42A7510095D7
FILE: 07 - No Last Call.flac
  Size: 21952213 Hash: 621560FADAD9A3C0B7D72183C26532F6 Accuracy: -m0
  Conclusion: CDDA 100%
  Signature: 85E4DC572B5E0F4E4D627D52D6B4F460E6104DD3
FILE: 06 - What's The Point.flac
  Size: 31954041 Hash: 221C06F95435C0E4A5AED46F1BB62B8F Accuracy: -m0
  Conclusion: CDDA 100%
  Signature: 57FFD0B05AEB9FB9C66AFC0ADFDC176E7C0BFABD
FILE: 05 - Bed On Fire.flac
  Size: 23538404 Hash: CCF067E1CAC9F9A9B39C5987253E38CD Accuracy: -m0
  Conclusion: CDDA 100%
  Signature: EBB5FE62E6AE3B4290A9051BAEE0A71F03FAA64C
FILE: 04 - Roscoe.flac
  Size: 33100774 Hash: D3BF8FC4BE13261498C7A372DB277361 Accuracy: -m0
  Conclusion: CDDA 100%
  Signature: 28D1A8FACF787311F529C88B7C9BAA3C5E2CFA68
FILE: 03 - Houses.flac
  Size: 28407169 Hash: 64EC5FE53098B5DF5D7E2FB414185E06 Accuracy: -m0
  Conclusion: CDDA 100%
  Signature: 3DA2CCF87AB30A3D63179AC306A6902821F8DA26
FILE: 02 - Dead End.flac
  Size: 29925236 Hash: 30E5CE1BBED974F49F137E21ED129617 Accuracy: -m0
  Conclusion: CDDA 99%
  Signature: 57642E57C2DCE1BDC3850256AF6455F2D62DB6B6
FILE: 01 - Mavericks.flac
  Size: 28301072 Hash: 51DE13C0DB0F8E32E8C8BCF7BCEDB786 Accuracy: -m0
  Conclusion: CDDA 100%
  Signature: 6A1123B9C084775BF8517260C1C5392D7BB4242F
#777Продолжительность: 00:45:27
Треклист:
01 - Into The Wild
02 - Gone Forever
03 - E.M.
04 - Everywhere (With You Man)
05 - For a Little While
06 - Alone Now
07 - Seventeen
08 - Bull - Bear
09 - Tell The World
10 - Great Escape
Код:
Код: Выделить всё
Exact Audio Copy V1.0 beta 3 from 29. August 2011

EAC extraction logfile from 9. May 2013, 17:38

Johnossi / Transitions

Used drive  : HL-DT-STBD-RE  BH10LS30   Adapter: 3  ID: 0

Read mode               : Secure
Utilize accurate stream : Yes
Defeat audio cache      : Yes
Make use of C2 pointers : No

Read offset correction                      : 667
Overread into Lead-In and Lead-Out          : No
Fill up missing offset samples with silence : Yes
Delete leading and trailing silent blocks   : No
Null samples used in CRC calculations       : Yes
Used interface                              : Native Win32 interface for Win NT & 2000
Gap handling                                : Appended to previous track

Used output format              : User Defined Encoder
Selected bitrate                : 896 kBit/s
Quality                         : High
Add ID3 tag                     : No
Command line compressor         : C:\Program Files (x86)\Exact Audio Copy\FLAC\FLAC.EXE
Additional command line options : -8 -V -T "ARTIST=%artist%" -T "TITLE=%title%" -T "ALBUM=%albumtitle%" -T "DATE=%year%" -T "TRACKNUMBER=%tracknr%" -T "GENRE=%genre%" -T "PERFORMER=%albuminterpret%" -T "COMPOSER=%composer%" %haslyrics%--tag-from-file=LYRICS="%lyricsfile%"%haslyrics% -T "ALBUMARTIST=%albumartist%" -T "DISCNUMBER=%cdnumber%" -T "TOTALDISCS=%totalcds%" -T "TOTALTRACKS=%numtracks%" -T "COMMENT=%comment%" %source% -o %dest%

TOC of the extracted CD

     Track |   Start  |  Length  | Start sector | End sector
    ---------------------------------------------------------
        1  |  0:00.00 |  6:09.70 |         0    |    27744
        2  |  6:09.70 |  4:15.48 |     27745    |    46917
        3  | 10:25.43 |  3:27.08 |     46918    |    62450
        4  | 13:52.51 |  4:10.49 |     62451    |    81249
        5  | 18:03.25 |  5:03.39 |     81250    |   104013
        6  | 23:06.64 |  5:01.02 |    104014    |   126590
        7  | 28:07.66 |  3:03.70 |    126591    |   140385
        8  | 31:11.61 |  4:24.20 |    140386    |   160205
        9  | 35:36.06 |  4:51.61 |    160206    |   182091
       10  | 40:27.67 |  4:59.58 |    182092    |   204574

Track  1

     Filename E:\Rip\EAC What\Johnossi\01 - Into The Wild.wav

     Pre-gap length  0:00:02.00

     Peak level 96.5 %
     Extraction speed 1.3 X
     Track quality 100.0 %
     Test CRC 97D2FF53
     Copy CRC 97D2FF53
     Accurately ripped (confidence 1)  [1262A56A]  (AR v2)
     Copy OK

Track  2

     Filename E:\Rip\EAC What\Johnossi\02 - Gone Forever.wav

     Peak level 96.5 %
     Extraction speed 1.3 X
     Track quality 99.9 %
     Test CRC ACFCAC55
     Copy CRC ACFCAC55
     Accurately ripped (confidence 1)  [5FDF6E71]  (AR v2)
     Copy OK

Track  3

     Filename E:\Rip\EAC What\Johnossi\03 - E.M..wav

     Peak level 96.5 %
     Extraction speed 1.5 X
     Track quality 100.0 %
     Test CRC A3A5DAEB
     Copy CRC A3A5DAEB
     Accurately ripped (confidence 1)  [11CDA41A]  (AR v2)
     Copy OK

Track  4

     Filename E:\Rip\EAC What\Johnossi\04 - Everywhere (With You Man).wav

     Peak level 96.5 %
     Extraction speed 1.5 X
     Track quality 99.9 %
     Test CRC C80BCAED
     Copy CRC C80BCAED
     Accurately ripped (confidence 1)  [4B17444C]  (AR v2)
     Copy OK

Track  5

     Filename E:\Rip\EAC What\Johnossi\05 - For a Little While.wav

     Peak level 96.5 %
     Extraction speed 1.8 X
     Track quality 100.0 %
     Test CRC ACC58914
     Copy CRC ACC58914
     Accurately ripped (confidence 1)  [C0E8FF33]  (AR v2)
     Copy OK

Track  6

     Filename E:\Rip\EAC What\Johnossi\06 - Alone Now.wav

     Peak level 96.5 %
     Extraction speed 1.9 X
     Track quality 100.0 %
     Test CRC 4EED033E
     Copy CRC 4EED033E
     Accurately ripped (confidence 1)  [56A6DEFC]  (AR v2)
     Copy OK

Track  7

     Filename E:\Rip\EAC What\Johnossi\07 - Seventeen.wav

     Peak level 96.5 %
     Extraction speed 1.6 X
     Track quality 99.9 %
     Test CRC 769A1449
     Copy CRC 769A1449
     Accurately ripped (confidence 1)  [B88EC387]  (AR v2)
     Copy OK

Track  8

     Filename E:\Rip\EAC What\Johnossi\08 - Bull - Bear.wav

     Peak level 96.5 %
     Extraction speed 1.8 X
     Track quality 99.9 %
     Test CRC 9601DBA2
     Copy CRC 9601DBA2
     Accurately ripped (confidence 1)  [0FF9B381]  (AR v2)
     Copy OK

Track  9

     Filename E:\Rip\EAC What\Johnossi\09 - Tell The World.wav

     Peak level 96.5 %
     Extraction speed 2.0 X
     Track quality 99.9 %
     Test CRC AE9C5D3D
     Copy CRC AE9C5D3D
     Accurately ripped (confidence 1)  [5B585A9B]  (AR v2)
     Copy OK

Track 10

     Filename E:\Rip\EAC What\Johnossi\10 - Great Escape.wav

     Peak level 93.5 %
     Extraction speed 2.1 X
     Track quality 99.9 %
     Test CRC 35A09AF7
     Copy CRC 35A09AF7
     Accurately ripped (confidence 1)  [10714D21]  (AR v2)
     Copy OK

All tracks accurately ripped

No errors occurred

End of status report

==== Log checksum 91D5269BA9AB6D2EA88D3CDF18D054F4FD4F1E852871162559C74AB2C5904417 ====
Код:
Код: Выделить всё
-----------------------

DON'T MODIFY THIS FILE

-----------------------

PERFORMER: auCDtect Task Manager, ver. 1.6.0 RC1 build 1.6.0.1
Copyright (c) 2008-2010 y-soft. All rights reserved
http:/y-soft.org

ANALYZER: auCDtect: CD records authenticity detector, version 0.8.2
Copyright (c) 2004 Oleg Berngardt. All rights reserved.
Copyright (c) 2004 Alexander Djourik. All rights reserved.

FILE: 10 - Great Escape.flac
  Size: 28704178 Hash: B6AF1220C28822F9BEE947F59B771F12 Accuracy: -m0
  Conclusion: CDDA 100%
  Signature: 13B5533147772BEB33DB6C0C40971C5EDBA5A12A
FILE: 09 - Tell The World.flac
  Size: 30490612 Hash: 3A307928ADC7F41367289FF7C5926162 Accuracy: -m0
  Conclusion: CDDA 100%
  Signature: 8F01AF74061B2442E4E71237F98858FB7C566430
FILE: 08 - Bull - Bear.flac
  Size: 32078335 Hash: FF520E2BB5950709F8AE13A54C327B6A Accuracy: -m0
  Conclusion: CDDA 100%
  Signature: 6D5C6B6EC2D8A427A30879F22E1996F53F0EDF91
FILE: 07 - Seventeen.flac
  Size: 23690327 Hash: 7D0BF599271B0E5DC4EE3FC10F38978C Accuracy: -m0
  Conclusion: CDDA 100%
  Signature: C66B81B888C8B582B01843BDBB95E3BF23193FAF
FILE: 06 - Alone Now.flac
  Size: 34707453 Hash: 5C239C710691712B15DAEF473253EF1A Accuracy: -m0
  Conclusion: CDDA 100%
  Signature: 222DFD1E7C0BDB9926F3DF9D097BC7E725D77B9E
FILE: 05 - For a Little While.flac
  Size: 29700388 Hash: 865CE22D9440F23C8280A2961F23A459 Accuracy: -m0
  Conclusion: CDDA 100%
  Signature: B51249D076811BB75F709B6CE1091167AABAA386
FILE: 04 - Everywhere (With You Man).flac
  Size: 31018174 Hash: 015844F33408A5B7463681F038D8EDA0 Accuracy: -m0
  Conclusion: CDDA 100%
  Signature: 7305512C47504D625F935D3130BBFA6B55E3FB53
FILE: 03 - E.M..flac
  Size: 24517928 Hash: 976364BA0FFCFCB5B582B0AE6E01A197 Accuracy: -m0
  Conclusion: CDDA 100%
  Signature: 58E4EA84C1FA1863C82DEDD87C9FCD6376772E07
FILE: 02 - Gone Forever.flac
  Size: 30040960 Hash: 347C81E10D0F7DE085F8853EBFE25471 Accuracy: -m0
  Conclusion: CDDA 100%
  Signature: BF984211C738BBE8E4C798CDD76CD9AC5FC652CC
FILE: 01 - Into The Wild.flac
  Size: 41737741 Hash: F52E42808F6405DE6526FF1B84599703 Accuracy: -m0
  Conclusion: CDDA 100%
  Signature: 4F110E38E1F83A7E078C4E54DFFBEB8C79B47B50
Johnossi

Цитата:
Score: 99 (out of 100)
The following properties decreased the score:
Not ripped with EAC v1.0 or higher (No checksums), -1 point [1]

All They Ever Wanted

Цитата:
Score: 94 (out of 100)
The following properties decreased the score:
'Defeat audio cache' should be yes. -5 points [5]
Not ripped with EAC v1.0 or higher (No checksums), -1 point [6]

Mavericks

Цитата:
Score: 99 (out of 100)
The following properties decreased the score:
Not ripped with EAC v1.0 or higher (No checksums), -1 point [1]

Transitions

Цитата:
Score: 100 (out of 100)
Правила, инструкции, FAQ!!!
Торрент  Добавлен [16 мар 2014, 00:40] Скачать торрент Магнет ссылка
Скачать торрент
19.04 КБ

Статус
Проверен 
 
Размер  1.16 ГБ
Приватный: Нет (DHT включён)
.torrent скачан  0
Как залить торрент? | Как скачать Torrent? | Как смотреть и слушать онлайн?  
Гость
 



Вернуться в Дискографии (Зарубежные)

Кто сейчас на конференции

Сейчас этот форум просматривают: нет зарегистрированных пользователей и гости: 0