Жена / The Wife (2017) BDRip | iTunes


Статистика раздачи
Размер: 1.43 ГБ | Добавлен: 07 фев 2019, 22:39 | Скачали: 1383
Сидеров: 495  [0 байт/сек]    Личеров: 55  [0 байт/сек]

Сообщение Гость » 07 фев 2019, 22:39

Название: Жена
Оригинальное название: The Wife
Год выхода: 2017
Жанр: Драма
Страна: Великобритания, Швеция, США
Перевод: Дублированный | iTunes
Продолжительность: 01:40:29
Режиссер: Бьёрн Рунге
В ролях: Гленн Клоуз, Джонатан Прайс, Кристиан Слэйтер, Макс Айронс, Энни Старк, Гарри Ллойд, Элизабет МакГоверн, Юхан Видерберг, Карин Франц Корлоф, Ричард Кордери и др.

О фильме: В течение сорока лет Джоан Кастельман приносила в жертву свой талант, мечты и амбиции, дабы фигура ее харизматичного супруга Джо, вкупе с его успешной карьерой нью-йоркского литератора, блистали ярко. Но в вечер перед вручением долгожданной Нобелевской премии Джоан решает раскрыть секреты мужа.



Формат: AVI
Качество: BDRip | The.Wife.2017.1080p.BluRay.REMUX.AVC.DTS-HD.MA.5.1-FGT
Видео: Xvid 73, 720x304, ~1640 kbps, 23,976 fps
Звук: русский, AC3, 5.1 ch, 48 kHz, 384 kbps | iTunes
Субтитры: русские (форс. вшитые)

General
Полное имя : E:TorrentTheWifeBDRip.avi
Формат : AVI
Формат/Информация : Audio Video Interleave
Профиль формата : OpenDML
Размер файла : 1.43 GiB
Продолжительность : 1 h 40 min
Общий поток : 2 036 kb/s
Программа кодирования : XviD4PSP 6.0 / 54.27.101

Video
Идентификатор : 0
Формат : MPEG-4 Visual
Профиль формата : Advanced Simple@L5
Настройки формата : BVOP2 / Custom Matrix
Параметр BVOP формата : 2
Параметр QPel формата : No
Параметр GMC формата : No warppoints
Параметр матрицы формата : Custom
Идентификатор кодека : XVID
Идентификатор кодека/Подсказка : XviD
Продолжительность : 1 h 40 min
Битрейт : 1 640 kb/s
Ширина : 720 pixels
Высота : 304 pixels
Соотношение сторон : 2.35:1
Частота кадров : 23.976 (23976/1000) FPS
Цветовое пространство : YUV
Субдискретизация насыщенности : 4:2:0
Битовая глубина : 8 bits
Тип развёртки : Progressive
Метод сжатия : Lossy
Бит/(Пиксели*Кадры) : 0.313
Размер потока : 1.15 GiB (81%)
Библиотека кодирования : XviD 73

Audio
Идентификатор : 1
Формат : AC-3
Формат/Информация : Audio Coding 3
Идентификатор кодека : 2000
Продолжительность : 1 h 40 min
Вид битрейта : Constant
Битрейт : 384 kb/s
Каналы : 6 channels
Расположение каналов : Front: L C R, Side: L R, LFE
Частота : 48.0 kHz
Частота кадров : 31.250 FPS (1536 SPF)
Битовая глубина : 16 bits
Метод сжатия : Lossy
Размер потока : 275 MiB (19%)
Выравнивание : Aligned on interleaves
Продолжительность промежутка : 32 ms (0.77 video frame)




Релиз от:
Правила, инструкции, FAQ!!!
Торрент  Добавлен [07 фев 2019, 22:39] Скачать торрент Магнет ссылка
Скачать торрент
15.25 КБ

Статус
Проверен 
 
Размер  1.43 ГБ
Приватный: Нет (DHT включён)
.torrent скачан  1383
Как залить торрент? | Как скачать Torrent? | Как смотреть и слушать онлайн?  
Гость
 



Вернуться в Драмы, Мелодрамы

Кто сейчас на конференции

Сейчас этот форум просматривают: нет зарегистрированных пользователей и гости: 0