Jaded Heart - 10 Albums (1994-2012) Discography [FLAC|Lossless]<Hard Rock, Hard 'n' Heavy>


Статистика раздачи
Размер: 4.49 ГБ | Добавлен: 27 фев 2016, 13:41 | Скачали: 6
Сидеров: 36  [0 байт/сек]    Личеров: 11  [0 байт/сек]

Сообщение Гость » 21 июл 2014, 09:47

Jaded Heart - Discography 10 Albums (1994-2012)

Год: 1994-2012
Жанр:
Hard Rock, Hard 'n' Heavy
Продолжительность: 09:40:53

Кодек: FLAC, (image+ .cue)
Битрейт: Lossless



Трек лист:
#777Продолжительность: 00:56:36
01. Inside Out 04:57
02. Mama 04:40
03. How Many Tears 04:38
04. Excuse 04:10
05. Hold On 04:42
06. Hard to Stay Alive 04:07
07. So Damn Easy 04:39
08. Listen 03:17
09. Won't Be Losin' 02:42
10. Burning For Love 04:59
11. Surrender 04:28
12. Take Me Back 03:58
13. Missing You 05:11
Код:
Код: Выделить всё
Exact Audio Copy V0.99 prebeta 4 from 23. January 2008

Отчёт EAC об извлечении, выполненном 16. апреля 2009, 13:01

Jaded Heart / Inside Out

Дисковод: MATSHITADVD-RAM UJ-861H Adapter: 0 ID: 0

Режим чтения : Достоверность
 Использование точного потока : Да
 Отключение кэша аудио : Да
 Использование указателей C2 : Нет

Коррекция смещения при чтении : 102
 Способность читать области Lead-in и Lead-out : Нет
 Заполнение пропущенных сэмплов тишиной : Да
 Удаление блоков с тишиной в начале и конце : Нет
 При вычислениях CRC использовались нулевые сэмплы : Да
 Интерфейс : Встроенный Win32-интерфейс для Win NT/2000

Выходной формат : Внутренние WAV-операции
 Формат сэмплов : 44.100 Гц; 16 бит; стерео

TOC извлечённого CD

 Трек | Старт | Длительность | Начальный сектор | Конечный сектор
 ---------------------------------------------------------------------
 1 | 0:00.00 | 4:57.60 | 0 | 22334
 2 | 4:57.60 | 4:40.43 | 22335 | 43377
 3 | 9:38.28 | 4:38.65 | 43378 | 64292
 4 | 14:17.18 | 4:10.57 | 64293 | 83099
 5 | 18:28.00 | 4:42.43 | 83100 | 104292
 6 | 23:10.43 | 4:07.30 | 104293 | 122847
 7 | 27:17.73 | 4:39.60 | 122848 | 143832
 8 | 31:57.58 | 3:17.30 | 143833 | 158637
 9 | 35:15.13 | 2:42.67 | 158638 | 170854
 10 | 37:58.05 | 4:59.40 | 170855 | 193319
 11 | 42:57.45 | 4:28.35 | 193320 | 213454
 12 | 47:26.05 | 3:58.33 | 213455 | 231337
 13 | 51:24.38 | 5:11.72 | 231338 | 254734

Характеристики диапазона извлечения и сообщения об ошибках

Выбранный диапазон

 Имя файла D:\Исходные торренты\Jaded Heart - Inside Out.wav

 Пиковый уровень 96.6 %
 Качество диапазона 100.0 %
 CRC копии 9B308EA5
 Копирование... OK

Ошибок не произошло

AccurateRip: сводка

Трек 1 нет в базе данных
 Трек 2 нет в базе данных
 Трек 3 нет в базе данных
 Трек 4 нет в базе данных
 Трек 5 нет в базе данных
 Трек 6 нет в базе данных
 Трек 7 нет в базе данных
 Трек 8 нет в базе данных
 Трек 9 нет в базе данных
 Трек 10 нет в базе данных
 Трек 11 нет в базе данных
 Трек 12 нет в базе данных
 Трек 13 нет в базе данных

Ни одного трека нет в базе AccurateRip

Конец отчёта
Код:
Код: Выделить всё
DON'T MODIFY THIS FILE

-----------------------

PERFORMER: auCDtect Task Manager, ver. 1.6.0 RC1 build 1.6.0.1
Copyright (c) 2008-2010 y-soft. All rights reserved
http:/y-soft.org

ANALYZER: auCDtect: CD records authenticity detector, version 0.8.2
Copyright (c) 2004 Oleg Berngardt. All rights reserved.
Copyright (c) 2004 Alexander Djourik. All rights reserved.

FILE: Jaded Heart - Inside Out.flac
  Size: 389227228 Hash: D9997B2287F95D7ADC612FAEBC5BDDB7 Accuracy: -m0
  Conclusion: CDDA 100%
  Signature: 9A69C8BE679B29F277B18B6F97AD8DC87FA3AD06
#777Продолжительность: 01:02:39
01. No Hesitation 04:45
02. Dangerous 03:45
03. Stop The Rainy Days 06:10
04. Ain't No Love 04:18
05. Help 04:47
06. Can't Wait For Love 03:53
07. Another Wasted Day 04:13
08. Hold On The Line 04:34
09. The Dream Is Over 05:30
10. I'm Still Holdin' On 03:45
11. Lust 03:59
12. Without No Warning 04:31
13. You Showed Me Heaven 04:46
14. In The Nite 03:36
Код:
Код: Выделить всё
Exact Audio Copy V0.99 prebeta 4 from 23. January 2008

Отчёт EAC об извлечении, выполненном 15. апреля 2009, 20:16

Jaded Heart / Slaves And Masters

Дисковод: MATSHITADVD-RAM UJ-861H Adapter: 0 ID: 0

Режим чтения : Достоверность
 Использование точного потока : Да
 Отключение кэша аудио : Да
 Использование указателей C2 : Нет

Коррекция смещения при чтении : 102
 Способность читать области Lead-in и Lead-out : Нет
 Заполнение пропущенных сэмплов тишиной : Да
 Удаление блоков с тишиной в начале и конце : Нет
 При вычислениях CRC использовались нулевые сэмплы : Да
 Интерфейс : Встроенный Win32-интерфейс для Win NT/2000

Выходной формат : Внутренние WAV-операции
 Формат сэмплов : 44.100 Гц; 16 бит; стерео

TOC извлечённого CD

 Трек | Старт | Длительность | Начальный сектор | Конечный сектор
 ---------------------------------------------------------------------
 1 | 0:00.00 | 4:45.00 | 0 | 21374
 2 | 4:45.00 | 3:45.20 | 21375 | 38269
 3 | 8:30.20 | 6:10.63 | 38270 | 66082
 4 | 14:41.08 | 4:18.30 | 66083 | 85462
 5 | 18:59.38 | 4:47.30 | 85463 | 107017
 6 | 23:46.68 | 3:53.30 | 107018 | 124522
 7 | 27:40.23 | 4:13.65 | 124523 | 143562
 8 | 31:54.13 | 4:34.00 | 143563 | 164112
 9 | 36:28.13 | 5:30.52 | 164113 | 188914
 10 | 41:58.65 | 3:45.63 | 188915 | 205852
 11 | 45:44.53 | 3:59.42 | 205853 | 223819
 12 | 49:44.20 | 4:31.08 | 223820 | 244152
 13 | 54:15.28 | 4:46.70 | 244153 | 265672
 14 | 59:02.23 | 3:36.62 | 265673 | 281934

Характеристики диапазона извлечения и сообщения об ошибках

Выбранный диапазон

 Имя файла D:\Исходные торренты\Jaded Heart - Slaves And Masters.wav

 Пиковый уровень 99.6 %
 Качество диапазона 100.0 %
 CRC копии 4A6FC886
 Копирование... OK

Ошибок не произошло

AccurateRip: сводка

Трек 1 нет в базе данных
 Трек 2 нет в базе данных
 Трек 3 нет в базе данных
 Трек 4 нет в базе данных
 Трек 5 нет в базе данных
 Трек 6 нет в базе данных
 Трек 7 нет в базе данных
 Трек 8 нет в базе данных
 Трек 9 нет в базе данных
 Трек 10 нет в базе данных
 Трек 11 нет в базе данных
 Трек 12 нет в базе данных
 Трек 13 нет в базе данных
 Трек 14 нет в базе данных

Ни одного трека нет в базе AccurateRip

Конец отчёта
Код:
Код: Выделить всё
DON'T MODIFY THIS FILE

-----------------------

PERFORMER: auCDtect Task Manager, ver. 1.6.0 RC1 build 1.6.0.1
Copyright (c) 2008-2010 y-soft. All rights reserved
http:/y-soft.org

ANALYZER: auCDtect: CD records authenticity detector, version 0.8.2
Copyright (c) 2004 Oleg Berngardt. All rights reserved.
Copyright (c) 2004 Alexander Djourik. All rights reserved.

FILE: Jaded Heart - Slaves And Masters.flac
  Size: 447501640 Hash: F302F6D98527AEA7303B64F98485A828 Accuracy: -m0
  Conclusion: CDDA 100%
  Signature: 0A3B76B3125951CAC061AE2A7E69DD3DDE4F0FEF
#777Продолжительность: 01:00:09
01. Heaven Is Falling 06:12
02. Stop Me From Falling 05:47
03. Give It All The Best 04:41
04. Whisper 04:54
05. She's Not You 03:28
06. Mystery Eyes 06:32
07. Walk On A Wire 04:55
08. Can't Stand The Heartache 06:07
09. Where Did Our Love Go 05:26
10. No Friend Of Mine 04:41
11. What Is Love 06:16
12. Let It Go 05:01
13. Tears Ain`t Gonna Lie 04:52
Код:
Код: Выделить всё
Exact Audio Copy V0.99 prebeta 4 from 23. January 2008

Отчёт EAC об извлечении, выполненном 15. апреля 2009, 17:13

JADED HEART / MYSTERY EYES

Дисковод: MATSHITADVD-RAM UJ-861H Adapter: 0 ID: 0

Режим чтения : Достоверность
 Использование точного потока : Да
 Отключение кэша аудио : Да
 Использование указателей C2 : Нет

Коррекция смещения при чтении : 102
 Способность читать области Lead-in и Lead-out : Нет
 Заполнение пропущенных сэмплов тишиной : Да
 Удаление блоков с тишиной в начале и конце : Нет
 При вычислениях CRC использовались нулевые сэмплы : Да
 Интерфейс : Встроенный Win32-интерфейс для Win NT/2000

Выходной формат : Внутренние WAV-операции
 Формат сэмплов : 44.100 Гц; 16 бит; стерео

TOC извлечённого CD

 Трек | Старт | Длительность | Начальный сектор | Конечный сектор
 ---------------------------------------------------------------------
 1 | 0:00.00 | 6:12.52 | 0 | 27951
 2 | 6:12.52 | 5:47.45 | 27952 | 54021
 3 | 12:00.22 | 4:41.58 | 54022 | 75154
 4 | 16:42.05 | 4:54.27 | 75155 | 97231
 5 | 21:36.32 | 3:28.58 | 97232 | 112889
 6 | 25:05.15 | 6:32.60 | 112890 | 142349
 7 | 31:38.00 | 4:55.70 | 142350 | 164544
 8 | 36:33.70 | 6:07.05 | 164545 | 192074
 9 | 42:41.00 | 5:26.70 | 192075 | 216594
 10 | 48:07.70 | 4:41.42 | 216595 | 237711
 11 | 52:49.37 | 6:16.45 | 237712 | 265956
 12 | 59:06.07 | 5:01.50 | 265957 | 288581
 13 | 64:07.57 | 4:52.58 | 288582 | 310539

Характеристики диапазона извлечения и сообщения об ошибках

Выбранный диапазон

 Имя файла D:\Исходные торренты\JADED HEART - MYSTERY EYES.wav

 Пиковый уровень 100.0 %
 Качество диапазона 99.9 %
 CRC копии C00C4ECB
 Копирование... OK

Ошибок не произошло

AccurateRip: сводка

Трек 1 нет в базе данных
 Трек 2 нет в базе данных
 Трек 3 нет в базе данных
 Трек 4 нет в базе данных
 Трек 5 нет в базе данных
 Трек 6 нет в базе данных
 Трек 7 нет в базе данных
 Трек 8 нет в базе данных
 Трек 9 нет в базе данных
 Трек 10 нет в базе данных
 Трек 11 нет в базе данных
 Трек 12 нет в базе данных
 Трек 13 нет в базе данных

Ни одного трека нет в базе AccurateRip

Конец отчёта
Код:
Код: Выделить всё
DON'T MODIFY THIS FILE

-----------------------

PERFORMER: auCDtect Task Manager, ver. 1.6.0 RC1 build 1.6.0.1
Copyright (c) 2008-2010 y-soft. All rights reserved
http:/y-soft.org

ANALYZER: auCDtect: CD records authenticity detector, version 0.8.2
Copyright (c) 2004 Oleg Berngardt. All rights reserved.
Copyright (c) 2004 Alexander Djourik. All rights reserved.

FILE: JADED HEART - MYSTERY EYES.flac
  Size: 518830782 Hash: 021FF4F75304DE768014EE1BBAD5D07E Accuracy: -m0
  Conclusion: CDDA 100%
  Signature: 59EAA62DC0F8E599C3D1708ED23A5E11E388B703
#777Продолжительность: 01:06:07
01. Live and Let Die 06:36
02. Take My Soul 05:59
03. Way Back Home 05:13
04. Stonecold 05:00
05. When You Hear the Thunder 05:20
06. Ain't a Perfect World 04:57
07. With Your Eyes 06:17
08. But I Like It 05:00
09. Hey God Don't Hesitate 05:15
10. She's a Woman 06:46
11. Behind Your Pride 05:22
12. Easy Lover 04:56
Код:
Код: Выделить всё
Exact Audio Copy V0.99 prebeta 4 from 23. January 2008

Отчёт EAC об извлечении, выполненном 23. июня 2009, 12:38

Jaded Heart / IV

Дисковод: MATSHITADVD-RAM UJ-861H Adapter: 0 ID: 0

Режим чтения : Достоверность
 Использование точного потока : Да
 Отключение кэша аудио : Да
 Использование указателей C2 : Нет

Коррекция смещения при чтении : 102
 Способность читать области Lead-in и Lead-out : Нет
 Заполнение пропущенных сэмплов тишиной : Да
 Удаление блоков с тишиной в начале и конце : Нет
 При вычислениях CRC использовались нулевые сэмплы : Да
 Интерфейс : Встроенный Win32-интерфейс для Win NT/2000

Выходной формат : Внутренние WAV-операции
 Формат сэмплов : 44.100 Гц; 16 бит; стерео

TOC извлечённого CD

 Трек | Старт | Длительность | Начальный сектор | Конечный сектор
 ---------------------------------------------------------------------
 1 | 0:00.00 | 6:36.51 | 0 | 29750
 2 | 6:36.51 | 5:59.17 | 29751 | 56692
 3 | 12:35.68 | 5:13.69 | 56693 | 80236
 4 | 17:49.62 | 5:00.37 | 80237 | 102773
 5 | 22:50.24 | 5:20.20 | 102774 | 126793
 6 | 28:10.44 | 4:57.28 | 126794 | 149096
 7 | 33:07.72 | 6:17.23 | 149097 | 177394
 8 | 39:25.20 | 5:00.00 | 177395 | 199894
 9 | 44:25.20 | 5:15.39 | 199895 | 223558
 10 | 49:40.59 | 6:46.50 | 223559 | 254058
 11 | 56:27.34 | 5:22.44 | 254059 | 278252
 12 | 61:50.03 | 4:56.08 | 278253 | 300460
 13 | 69:18.11 | 0:33.29 | 311861 | 314364

Характеристики диапазона извлечения и сообщения об ошибках

Выбранный диапазон

 Имя файла D:\Исходные торренты\Jaded Heart - IV.wav

 Пиковый уровень 100.0 %
 Качество диапазона 100.0 %
 CRC копии 0C93A83D
 Копирование... OK

Ошибок не произошло

AccurateRip: сводка

Трек 1 нет в базе данных
 Трек 2 нет в базе данных
 Трек 3 нет в базе данных
 Трек 4 нет в базе данных
 Трек 5 нет в базе данных
 Трек 6 нет в базе данных
 Трек 7 нет в базе данных
 Трек 8 нет в базе данных
 Трек 9 нет в базе данных
 Трек 10 нет в базе данных
 Трек 11 нет в базе данных
 Трек 12 нет в базе данных

Ни одного трека нет в базе AccurateRip

Конец отчёта
Код:
Код: Выделить всё
DON'T MODIFY THIS FILE

-----------------------

PERFORMER: auCDtect Task Manager, ver. 1.6.0 RC1 build 1.6.0.1
Copyright (c) 2008-2010 y-soft. All rights reserved
http:/y-soft.org

ANALYZER: auCDtect: CD records authenticity detector, version 0.8.2
Copyright (c) 2004 Oleg Berngardt. All rights reserved.
Copyright (c) 2004 Alexander Djourik. All rights reserved.

FILE: Jaded Heart - IV.flac
  Size: 523729739 Hash: 6492A02999803D102486DE151E9540A8 Accuracy: -m0
  Conclusion: CDDA 100%
  Signature: 8A314B5CC4798DE4098F885EC1CAA9F42E61CE51
#777Продолжительность: 00:49:03
01. Intro (Instrumental) 00:35
02. Kid Is Going Down 04:38
03. The Journey Will Never End 05:03
04. On the Rise 04:28
05. We'll Drag You Down 03:17
06. Only Human 05:23
07. Lucky Son 04:09
08. I'll Be There 04:43
09. Larger than Life 03:20
10. Dangerous Destiny 05:00
11. These Are the Good Times 04:28
12. Sunshine Memories(Dedicated to the memory of S.& Y.Kepic) 00:42
13. Sign of the Times 03:12
Код:
Код: Выделить всё
Exact Audio Copy V0.99 prebeta 4 from 23. January 2008

Отчёт EAC об извлечении, выполненном 2. ноября 2008, 21:50

Jaded Heart / The Journey Will Never End

Дисковод: SlimtypeDVD A DS8A1P Adapter: 0 ID: 0

Режим чтения : Достоверность
Использование точного потока : Да
Отключение кэша аудио : Да
Использование указателей C2 : Нет

Коррекция смещения при чтении : 594
Способность читать области Lead-in и Lead-out : Нет
Заполнение пропущенных сэмплов тишиной : Да
Удаление блоков с тишиной в начале и конце : Нет
При вычислениях CRC использовались нулевые сэмплы : Да
Интерфейс : Встроенный Win32-интерфейс для Win NT/2000

Выходной формат : Внутренние WAV-операции
Формат сэмплов : 44.100 Гц; 16 бит; стерео

TOC извлечённого CD

 Трек | Старт | Длительность | Начальный сектор | Конечный сектор
 ---------------------------------------------------------------------
 1 | 0:00.00 | 0:35.41 | 0 | 2665
 2 | 0:35.41 | 4:38.07 | 2666 | 23522
 3 | 5:13.48 | 5:03.42 | 23523 | 46289
 4 | 10:17.15 | 4:28.15 | 46290 | 66404
 5 | 14:45.30 | 3:17.27 | 66405 | 81206
 6 | 18:02.57 | 5:23.21 | 81207 | 105452
 7 | 23:26.03 | 4:09.74 | 105453 | 124201
 8 | 27:36.02 | 4:43.33 | 124202 | 145459
 9 | 32:19.35 | 3:20.31 | 145460 | 160490
 10 | 35:39.66 | 5:00.33 | 160491 | 183023
 11 | 40:40.24 | 4:28.14 | 183024 | 203137
 12 | 45:08.38 | 0:42.42 | 203138 | 206329
 13 | 45:51.05 | 3:12.33 | 206330 | 220762

Характеристики диапазона извлечения и сообщения об ошибках

Выбранный диапазон

 Имя файла C:\Documents and Settings\User\My Documents\Jaded Heart - The Journey Will Never End 2002.wav

 Пиковый уровень 99.8 %
 Качество диапазона 100.0 %
 CRC копии 2CB2D283
 Копирование... OK

Ошибок не произошло

AccurateRip: сводка

Трек 1 нет в базе данных
Трек 2 нет в базе данных
Трек 3 нет в базе данных
Трек 4 нет в базе данных
Трек 5 нет в базе данных
Трек 6 нет в базе данных
Трек 7 нет в базе данных
Трек 8 нет в базе данных
Трек 9 нет в базе данных
Трек 10 нет в базе данных
Трек 11 нет в базе данных
Трек 12 нет в базе данных
Трек 13 нет в базе данных

Ни одного трека нет в базе AccurateRip

Конец отчёта
Код:
Код: Выделить всё
DON'T MODIFY THIS FILE

-----------------------

PERFORMER: auCDtect Task Manager, ver. 1.6.0 RC1 build 1.6.0.1
Copyright (c) 2008-2010 y-soft. All rights reserved
http:/y-soft.org

ANALYZER: auCDtect: CD records authenticity detector, version 0.8.2
Copyright (c) 2004 Oleg Berngardt. All rights reserved.
Copyright (c) 2004 Alexander Djourik. All rights reserved.

FILE: Jaded Heart - The Journey Will Never End 2002.flac
  Size: 374664709 Hash: BE3D9AF655F2E214903D35F763097B99 Accuracy: -m0
  Conclusion: CDDA 100%
  Signature: EDB81EF1DEBE6633AF72D7DA365553DF905F3E15
#777Продолжительность: 01:01:52
01. Anymore 05:26
02. Feels Like Home 04:09
03. Healer 03:31
04. Burning Heart 04:51
05. If I Lose 05:27
06. Trust 05:49
07. Masquerade 05:52
08. Let It Rain 04:39
09. Love Is Magic 04:24
10. Sweet Summertime 02:32
11. Hating You 04:19
12. Jaded 05:25
13. Give It Back 05:21
Код:
Код: Выделить всё
Exact Audio Copy V0.99 prebeta 4 from 23. January 2008

Отчёт EAC об извлечении, выполненном 12. апреля 2009, 20:54

Jaded Heart / Trust

Дисковод: MATSHITADVD-RAM UJ-861H Adapter: 0 ID: 0

Режим чтения : Достоверность
 Использование точного потока : Да
 Отключение кэша аудио : Да
 Использование указателей C2 : Нет

Коррекция смещения при чтении : 102
 Способность читать области Lead-in и Lead-out : Нет
 Заполнение пропущенных сэмплов тишиной : Да
 Удаление блоков с тишиной в начале и конце : Нет
 При вычислениях CRC использовались нулевые сэмплы : Да
 Интерфейс : Встроенный Win32-интерфейс для Win NT/2000

Выходной формат : Внутренние WAV-операции
 Формат сэмплов : 44.100 Гц; 16 бит; стерео

TOC извлечённого CD

 Трек | Старт | Длительность | Начальный сектор | Конечный сектор
 ---------------------------------------------------------------------
 1 | 0:00.00 | 5:26.25 | 0 | 24474
 2 | 5:26.25 | 4:09.17 | 24475 | 43166
 3 | 9:35.42 | 3:31.14 | 43167 | 59005
 4 | 13:06.56 | 4:51.55 | 59006 | 80885
 5 | 17:58.36 | 5:27.68 | 80886 | 105478
 6 | 23:26.29 | 5:49.02 | 105479 | 131655
 7 | 29:15.31 | 5:52.71 | 131656 | 158126
 8 | 35:08.27 | 4:39.23 | 158127 | 179074
 9 | 39:47.50 | 4:24.48 | 179075 | 198922
 10 | 44:12.23 | 2:32.69 | 198923 | 210391
 11 | 46:45.17 | 4:19.21 | 210392 | 229837
 12 | 51:04.38 | 5:25.24 | 229838 | 254236
 13 | 56:29.62 | 5:21.09 | 254237 | 278320
 14 | 64:22.71 | 8:59.60 | 289721 | 330205

Характеристики диапазона извлечения и сообщения об ошибках

Выбранный диапазон

 Имя файла D:\Исходные торренты\Jaded Heart - Trust.wav

 Пиковый уровень 98.0 %
 Качество диапазона 100.0 %
 CRC копии 938FF23C
 Копирование... OK

Ошибок не произошло

AccurateRip: сводка

Трек 1 точность не определена (достоверность 3) [AC2E5CA9], AccurateRip вернул [8033B377]
 Трек 2 точность не определена (достоверность 3) [11818AFF], AccurateRip вернул [914C593B]
 Трек 3 точность не определена (достоверность 3) [E7A4C6E3], AccurateRip вернул [0A918EAF]
 Трек 4 точность не определена (достоверность 3) [BAD9CFEB], AccurateRip вернул [FA4D8FFB]
 Трек 5 точность не определена (достоверность 3) [CB8BF7B4], AccurateRip вернул [887F3912]
 Трек 6 точность не определена (достоверность 3) [0A16195D], AccurateRip вернул [83E13588]
 Трек 7 точность не определена (достоверность 3) [6558FE75], AccurateRip вернул [1C6EFCF8]
 Трек 8 точность не определена (достоверность 3) [6C36479C], AccurateRip вернул [12FDA186]
 Трек 9 точность не определена (достоверность 3) [816C4CB2], AccurateRip вернул [CB0FB1D2]
 Трек 10 точность не определена (достоверность 3) [BBC7B5EE], AccurateRip вернул [31821BCA]
 Трек 11 точность не определена (достоверность 3) [1ED05694], AccurateRip вернул [4E4760D8]
 Трек 12 точность не определена (достоверность 3) [26D3FB4D], AccurateRip вернул [E2B8CB91]
 Трек 13 точность не определена (достоверность 3) [3C85BDE1], AccurateRip вернул [83ED89DF]

Ни один трек не прошёл проверки на точность
 В вашей базе может быть иной вариант штамповки диска

Конец отчёта
Код:
Код: Выделить всё
DON'T MODIFY THIS FILE

-----------------------

PERFORMER: auCDtect Task Manager, ver. 1.6.0 RC1 build 1.6.0.1
Copyright (c) 2008-2010 y-soft. All rights reserved
http:/y-soft.org

ANALYZER: auCDtect: CD records authenticity detector, version 0.8.2
Copyright (c) 2004 Oleg Berngardt. All rights reserved.
Copyright (c) 2004 Alexander Djourik. All rights reserved.

FILE: Jaded Heart - Trust.flac
  Size: 491958201 Hash: B86EC000A82EAC2CBCAE93BF0F759460 Accuracy: -m0
  Conclusion: CDDA 100%
  Signature: B7D41A96AA47AA5841AE8428FFA1A6A3C6242E53
#777Продолжительность: 01:01:30
01. Tomorrow Comes 05:31
02. Hole In My Heart 06:04
03. Somewhere 04:41
04. Dreams You'll Never See 04:37
05. Who's Foolin' 04:38
06. Paid My Dues 04:51
07. Without You 05:07
08. Love & Desire 05:16
09. No ONe 04:55
10. Shores Of Paradise 05:05
11. Frozen Heart 05:27
12. Love To Live 05:18
Код:
Код: Выделить всё
Exact Audio Copy V0.99 prebeta 4 from 23. January 2008

Отчёт EAC об извлечении, выполненном 22. апреля 2009, 23:04

Jaded Heart / Helluva Time

Дисковод: Optiarc DVD RW AD-7200A Adapter: 5 ID: 0

Режим чтения : Достоверность
 Использование точного потока : Да
 Отключение кэша аудио : Да
 Использование указателей C2 : Нет

Коррекция смещения при чтении : 48
 Способность читать области Lead-in и Lead-out : Нет
 Заполнение пропущенных сэмплов тишиной : Да
 Удаление блоков с тишиной в начале и конце : Нет
 При вычислениях CRC использовались нулевые сэмплы : Да
 Интерфейс : Встроенный Win32-интерфейс для Win NT/2000

Выходной формат : Внутренние WAV-операции
 Формат сэмплов : 44.100 Гц; 16 бит; стерео

TOC извлечённого CD

 Трек | Старт | Длительность | Начальный сектор | Конечный сектор
 ---------------------------------------------------------------------
 1 | 0:00.00 | 5:31.13 | 0 | 24837
 2 | 5:31.13 | 6:03.62 | 24838 | 52124
 3 | 11:35.00 | 4:41.21 | 52125 | 73220
 4 | 16:16.21 | 4:37.47 | 73221 | 94042
 5 | 20:53.68 | 4:37.73 | 94043 | 114890
 6 | 25:31.66 | 4:51.08 | 114891 | 136723
 7 | 30:22.74 | 5:06.54 | 136724 | 159727
 8 | 35:29.53 | 5:15.39 | 159728 | 183391
 9 | 40:45.17 | 4:55.00 | 183392 | 205516
 10 | 45:40.17 | 5:05.57 | 205517 | 228448
 11 | 50:45.74 | 5:26.69 | 228449 | 252967
 12 | 56:12.68 | 5:17.10 | 252968 | 276752

Характеристики диапазона извлечения и сообщения об ошибках

Выбранный диапазон

 Имя файла D:\Metal Music\Jaded Heart - 2005 - Helluva Time\Cover\Jaded Heart - Helluva Time.wav

 Пиковый уровень 97.9 %
 Качество диапазона 100.0 %
 CRC копии A51828E3
 Копирование... OK

Ошибок не произошло

Конец отчёта
Код:
Код: Выделить всё
DON'T MODIFY THIS FILE

-----------------------

PERFORMER: auCDtect Task Manager, ver. 1.6.0 RC1 build 1.6.0.1
Copyright (c) 2008-2010 y-soft. All rights reserved
http:/y-soft.org

ANALYZER: auCDtect: CD records authenticity detector, version 0.8.2
Copyright (c) 2004 Oleg Berngardt. All rights reserved.
Copyright (c) 2004 Alexander Djourik. All rights reserved.

FILE: Jaded Heart - Helluva Time.flac
  Size: 489164328 Hash: 418ECA35D4D0FA5B3600CBE57D4ED2A5 Accuracy: -m0
  Conclusion: CDDA 100%
  Signature: 45813734E52A4B6091CA76229D220BE5936B8782
#777Продолжительность: 00:54:59
01. Hero 04:36
02. Justice Is Deserved 04:50
03. Sinister Mind 04:35
04. Going Under 05:03
05. See The Light 04:54
06. Open Your Eyes 03:26
07. My Eager's Red 05:02
08. Always On My Mind 04:14
09. Heavenly Devotion 03:49
10. To Please And Give In 03:26
11. Hellucinate 04:39
12. Crush That Fear 06:17
Код:
Код: Выделить всё
Exact Audio Copy V1.0 beta 3 from 29. August 2011

Отчёт EAC об извлечении, выполненном 1. июля 2012, 15:37

Jaded Heart / Sinister Mind

Дисковод: ASUS DRW-22B3S Adapter: 0 ID: 1

Режим чтения : Достоверность
Использование точного потока : Да
Отключение кэша аудио : Да
Использование указателей C2 : Нет

Коррекция смещения при чтении : 6
Способность читать области Lead-in и Lead-out : Нет
Заполнение пропущенных сэмплов тишиной : Да
Удаление блоков с тишиной в начале и конце : Нет
При вычислениях CRC использовались нулевые сэмплы : Да
Интерфейс : Встроенный Win32-интерфейс для Win NT/2000

Выходной формат : Пользовательский кодировщик
Выбранный битрейт : 896 kBit/s
Качество : Высокий
Добавление ID3-тега : Да
Утилита сжатия : C:\Program Files\Exact Audio Copy\FLAC\FLAC.EXE
Дополнительные параметры : -6 -V -T "ARTIST=%artist%" -T "TITLE=%title%" -T "ALBUM=%albumtitle%" -T "DATE=%year%" -T "TRACKNUMBER=%tracknr%" -T "GENRE=%genre%" -T "COMMENT=%comment%" -T "BAND=%albuminterpret%" -T "ALBUMARTIST=%albuminterpret%" -T "COMPOSER=%composer%" %haslyrics%--tag-from-file=LYRICS="%lyricsfile%"%haslyrics% -T "DISCNUMBER=%cdnumber%" -T "TOTALDISCS=%totalcds%" -T "TOTALTRACKS=%numtracks%" %hascover%--picture="%coverfile%"%hascover% %source% -o %dest%

TOC извлечённого CD

 Трек | Старт | Длительность | Начальный сектор | Конечный сектор
 ---------------------------------------------------------------------
 1 | 0:00.00 | 4:36.36 | 0 | 20735
 2 | 4:36.36 | 4:50.20 | 20736 | 42505
 3 | 9:26.56 | 4:35.26 | 42506 | 63156
 4 | 14:02.07 | 5:03.31 | 63157 | 85912
 5 | 19:05.38 | 4:54.45 | 85913 | 108007
 6 | 24:00.08 | 3:26.22 | 108008 | 123479
 7 | 27:26.30 | 5:02.59 | 123480 | 146188
 8 | 32:29.14 | 4:14.64 | 146189 | 165302
 9 | 36:44.03 | 3:49.24 | 165303 | 182501
 10 | 40:33.27 | 3:26.67 | 182502 | 198018
 11 | 44:00.19 | 4:39.28 | 198019 | 218971
 12 | 48:39.47 | 6:17.48 | 218972 | 247294

Характеристики диапазона извлечения и сообщения об ошибках

Выбранный диапазон

 Имя файла C:\Documents and Settings\Admin\Рабочий стол\Jaded Heart - Sinister Mind - 2007\Jaded Heart - Sinister Mind.wav

 Пиковый уровень 52.1 %
 Скорость извлечения 6.1 X
 Качество диапазона 100.0 %
 CRC теста 8C87A5EE
 CRC копии 8C87A5EE
 Копирование... OK

Ошибок не произошло

Конец отчёта

==== Контрольная сумма отчёта 8A6E45155CD3C88EEB9B516A85E62A5940DAFE20D65488A81728A765E58C0F4E ====
Код:
Код: Выделить всё
DON'T MODIFY THIS FILE

-----------------------

PERFORMER: auCDtect Task Manager, ver. 1.6.0 RC1 build 1.6.0.1
Copyright (c) 2008-2010 y-soft. All rights reserved
http:/y-soft.org

ANALYZER: auCDtect: CD records authenticity detector, version 0.8.2
Copyright (c) 2004 Oleg Berngardt. All rights reserved.
Copyright (c) 2004 Alexander Djourik. All rights reserved.

FILE: Jaded Heart - Sinister Mind.flac
  Size: 430226021 Hash: 89280DB9217A726FCAECF866967531B5 Accuracy: -m0
  Conclusion: CDDA 100%
  Signature: D9B51DCF43F325151828AD1A51C838FDBFB1C8A3
#777Продолжительность: 00:52:25
01. Intro 00:34
02. Love is a Killer 04:00
03. Fly Away 05:56
04. Blood Stained Lies 04:36
05. Tonight 6. Freedom Call 04:24
06. Freedom Call 03:28
07. One Life One Death 04:43
08. Rising 03:56
09. Hell Just Arrived 05:43
10. Psycho Kiss 05:21
11. Come to the Feast 05:21
12. Exterminated 04:23
Код:
Код: Выделить всё
Отчёт EAC об извлечении, выполненном 28. декабря 2009, 17:20 для диска:
Jaded Heart / Perfect Insanity

Дисковод: Optiarc DVD RW AD-7170S Adapter: 2 ID: 2
Режим чтения: Достоверный (C2: нет, Точный поток: да, Отключение кэша: да)
Коррекция смещения при чтении: 48
Способность читать области Lead-in и Lead-out : Нет

Выходной формат: Monkey's Audio Lossless Encoder v3.99 DLL
 High Lossless Compression

Другие параметры:
 Заполнение пропущенных сэмплов тишиной : Да
 Удаление блоков с тишиной в начале и конце : Нет
 Встроенный Win32-интерфейс для Win NT/2000

Характеристики диапазона извлечения и сообщения об ошибках
Выбранный диапазон
 Имя файла C:\Documents and Settings\ARSHI\Рабочий стол\Jaded Heart - Perfect Insanity.ape

 Пиковый уровень 98.8 %
 Качество диапазона 100.0 %
 CRC 12FD469A
 Копирование... OK

Ошибок не произошло

Конец отчёта
Код:
Код: Выделить всё
DON'T MODIFY THIS FILE

-----------------------

PERFORMER: auCDtect Task Manager, ver. 1.6.0 RC1 build 1.6.0.1
Copyright (c) 2008-2010 y-soft. All rights reserved
http:/y-soft.org

ANALYZER: auCDtect: CD records authenticity detector, version 0.8.2
Copyright (c) 2004 Oleg Berngardt. All rights reserved.
Copyright (c) 2004 Alexander Djourik. All rights reserved.

FILE: Jaded Heart - Perfect Insanity.flac
  Size: 424627400 Hash: 966A2718D9D204CC7D4080E5984A0A7F Accuracy: -m0
  Conclusion: CDDA 100%
  Signature: 3B2F925C43EB025EF65B9025FB04C5944125EB55
#777Продолжительность: 00:56:12
01. With you 04:33
02. Saints Denied 03:51
03. Into Tears 05:07
04. Buried Alive 05:33
05. I Believe 04:19
06. Run and Hide 04:08
07. Are we Mental 05:04
08. My Destiny 04:09
09. No more Lies 04:57
10. Life is beautiful 03:54
11. Higher 04:29
12. Fire and Flames 06:00
13. Daten-CD 15:32
Код:
Код: Выделить всё
Exact Audio Copy V1.0 beta 3 from 29. August 2011

Отчёт EAC об извлечении, выполненном 26. июня 2012, 20:39

Jaded Heart / Common Destiny

Дисковод: PLEXTOR DVDR PX-750A Adapter: 1 ID: 0

Режим чтения : Достоверность
Использование точного потока : Да
Отключение кэша аудио : Да
Использование указателей C2 : Нет

Коррекция смещения при чтении : 102
Способность читать области Lead-in и Lead-out : Нет
Заполнение пропущенных сэмплов тишиной : Да
Удаление блоков с тишиной в начале и конце : Нет
При вычислениях CRC использовались нулевые сэмплы : Да
Интерфейс : Встроенный Win32-интерфейс для Win NT/2000

Выходной формат : Пользовательский кодировщик
Выбранный битрейт : 896 kBit/s
Качество : Высокий
Добавление ID3-тега : Да
Утилита сжатия : C:\Program Files\Exact Audio Copy\FLAC\FLAC.EXE
Дополнительные параметры : -6 -V -T "ARTIST=%artist%" -T "TITLE=%title%" -T "ALBUM=%albumtitle%" -T "DATE=%year%" -T "TRACKNUMBER=%tracknr%" -T "GENRE=%genre%" -T "COMMENT=%comment%" -T "BAND=%albuminterpret%" -T "ALBUMARTIST=%albuminterpret%" -T "COMPOSER=%composer%" %haslyrics%--tag-from-file=LYRICS="%lyricsfile%"%haslyrics% -T "DISCNUMBER=%cdnumber%" -T "TOTALDISCS=%totalcds%" -T "TOTALTRACKS=%numtracks%" %hascover%--picture="%coverfile%"%hascover% %source% -o %dest%

TOC извлечённого CD

 Трек | Старт | Длительность | Начальный сектор | Конечный сектор
 ---------------------------------------------------------------------
 1 | 0:00.00 | 4:33.57 | 0 | 20531
 2 | 4:33.57 | 3:51.53 | 20532 | 37909
 3 | 8:25.35 | 5:07.02 | 37910 | 60936
 4 | 13:32.37 | 5:33.45 | 60937 | 85956
 5 | 19:06.07 | 4:19.56 | 85957 | 105437
 6 | 23:25.63 | 4:08.04 | 105438 | 124041
 7 | 27:33.67 | 5:04.31 | 124042 | 146872
 8 | 32:38.23 | 4:09.37 | 146873 | 165584
 9 | 36:47.60 | 4:57.06 | 165585 | 187865
 10 | 41:44.66 | 3:54.55 | 187866 | 205470
 11 | 45:39.46 | 4:29.36 | 205471 | 225681
 12 | 50:09.07 | 6:00.72 | 225682 | 252753
 13 | 58:42.04 | 15:32.25 | 264154 | 334078

Характеристики диапазона извлечения и сообщения об ошибках

Выбранный диапазон

 Имя файла C:\Documents and Settings\Admin\Рабочий стол\NEW CD June, 26\Jaded Heart - Common Destiny - 2012 - 56'12''\Jaded Heart - Common Destiny.wav

 Пиковый уровень 98.7 %
 Скорость извлечения 7.6 X
 Качество диапазона 100.0 %
 CRC теста 5E2B51DE
 CRC копии 5E2B51DE
 Копирование... OK

Ошибок не произошло

Конец отчёта

==== Контрольная сумма отчёта BA24F0ACD83D0EA429B247B68A866C16FFE97460915E867BB193B706EA507FF8 ====
Код:
Код: Выделить всё
DON'T MODIFY THIS FILE

-----------------------

PERFORMER: auCDtect Task Manager, ver. 1.6.0 RC1 build 1.6.0.1
Copyright (c) 2008-2010 y-soft. All rights reserved
http:/y-soft.org

ANALYZER: auCDtect: CD records authenticity detector, version 0.8.2
Copyright (c) 2004 Oleg Berngardt. All rights reserved.
Copyright (c) 2004 Alexander Djourik. All rights reserved.

FILE: Jaded Heart - Common Destiny.flac
  Size: 456753641 Hash: D2EB70100AB6F79BB3255EB03859B646 Accuracy: -m0
  Conclusion: CDDA 99%
  Signature: 0FE06013B02EAD11BBD37A1BDD565D6DBA63B853
В 1990 году Михаэль Борман (вокал) и его брат Дирк (гитара) задумали основать собственную команду и начали подыскивать себе компаньонов. Процесс растянулся на несколько месяцев, но с появлением экс-басиста "The Sygnet" Михаэля Мюллера (р. 13 марта 1969) и бывшего барабанщика "Mad Max" Акселя Крузе (р. 2 июля 1965) состав "Jaded Heart" был укомплектован. В 1994-м на лейбле "Long Island Records" вышел дебютный альбом, "Inside Out". Вскоре в команде появился клавишник Крис Иво, а после тура в компании с Гленном Хьюзом в силу личных причин ушел Дирк. Постоянную замену ему найти не удалось, и долгое время коллективу приходилось пользоваться услугами сессионных гитаристов.

Несмотря на этот факт, группа смогла выйти на международный уровень, и ее второй альбом "Slaves & Masters" проторчал в горячей десятке японских "импортных" чартов целых четыре месяца. Между тем "Jaded Heart" успели несколько раз засветиться на ТВ и провести крупный тур в компании с "Axxis" и "Heaven's Gate".

В декабре 1997-го третий студийник ("Mystery Eyes") поступил в продажу на территории Японии, а спустя три месяца с ним смогли ознакомиться и немцы. Летом 1998-го группе наконец-то удалось раздобыть себе постоянного гитариста в лице Бариша Кепика, после чего был заключен контракт с "MTM Music". Четвертая пластинка записывалась под руководством Бобби Барта ("Axe", Guild Of Ages", "Blackfoot") в его американской студии и видимо поэтому имела более коммерческий саунд. Итог своей десятилетней работе немецкие музыканты подвели выпуском сборника "Diary 1990-2000" и большим европейским туром вместе со швейцарцами "Gotthard". По окончании гастролей Иво ушел, а на его месте материализовался клавишник-гитарист-вокалист Хеннинг Ваннер (р. 19 августа 1972).

В 2001-м "Jaded Heart" специально для мирового чемпионата мира по хоккею записали песню "Champion", а чуть позже приступили к работе над альбомом "The Journey Will Never End". Продюсировал пластинку Томми Ньютон из "Victory", который помог музыкантам вернуться к собственному саунду.

В 2004-м на лейбле "ulfTone Music" вышел диск "Trust", чье появление на прилавках сопровождалось первым хедлайнерским туром "Jaded Heart". По окончании гастролей ушел Михаэль Борман, и перед коллективом встал вопрос о новом фронтмене. Прослушивания, казалось, тянулись бесконечно, однако в итоге подходящая кандидатура была найдена, и место у микрофона занял швед Йохан Фальберг (р. 23 января 1969). Обновленный состав дебютировал с альбомом "Helluva Time", распространявшимся с помощью лейбла "Frontiers Records".

Очередные гастроли, прошедшие в компании с "Helloween", закончились уходом Кепика, а его инструмент достался сородичу Йохана Петеру Остросу (р. 3 марта 1972). В 2006-м команда официально перебралась под крыло "Frontiers Records" и на следующий год при участии продюсеров Михаэля Восса и Криса Лаусмана занялась подготовкой нового альбома.


Раздача обновлена 27.02.16г.
Правила, инструкции, FAQ!!!
Торрент  Добавлен [27 фев 2016, 13:41] Скачать торрент Магнет ссылка
Скачать торрент
22.71 КБ

Статус
Проверен Admin (27 фев 2016, 13:43)
 
Размер  4.49 ГБ
Приватный: Нет (DHT включён)
.torrent скачан  6
Как залить торрент? | Как скачать Torrent? | Как смотреть и слушать онлайн?  
Гость
 



Вернуться в Дискографии (Зарубежные)

Кто сейчас на конференции

Сейчас этот форум просматривают: нет зарегистрированных пользователей и гости: 0