Iron Butterfly - 10 альбомов (1968-1993) Различные издания [FLAC|Lossless]<Rock, Hard Rock, Prog Rock, Classic Rock>


Статистика раздачи
Размер: 3.77 ГБ | Добавлен: 30 май 2014, 00:22 | Скачали: 4
Сидеров: 134  [0 байт/сек]    Личеров: 149  [0 байт/сек]

Сообщение Гость » 30 май 2014, 00:22

Iron Butterfly - Discography 11CD (1968-1993)



Год:1968-1993
Жанр: Rock, Hard Rock, Prog Rock, Classic Rock

Продолжительность: 09:53:46
Кодек: FLAC
Битрейт: Lossless
Тип рипа: Image+.cue
Источник: собственный рип(8CD)+web(3CD)
Наличие сканов в архивах: да

Описание: Само название группы избавляет меня от необходимости пространного описания. Четыре альбома группы поднимались в первую двадцатку Billboard 200, альбом In-A-Gadda-Da-Vida (#4, US, 1968) разошёлся общим тиражом более 25 миллионов экземпляров.
Хотелось пояснить, что In-A-Gadda-Da-Vida представлена здесь в двух вариантах (первый - это японская реплика винила, второй - риновский ремастер с двумя бонус-треками).
Последний диск (1975 года выпуска) "Sun And Steel" нашел в приличном качестве только в сдвоенном варианте (хотя, честно признаюсь - не люблю такие варианты).
Наслаждайтесь!
#777Страна-производитель диска: USA
Год издания диска:1968(2011)
Издатель (лейбл):REC
Номер по каталогу: 526745

Трек лист:
Продолжительность:00:54:20
01. Fields Of Sun [04-26-68, first show] (4:01)
02. You Can't Win [04-26-68, first show] (3:17)
03. Unconscious Power [04-26-68, first show] (3:10)
04. 4Are You Happy [04-26-68, first show] (4:22)
05. So-Lo [04-26-68, first show] (4:05)
06. Iron Butterfly Theme (4:55)
07. Stamped Ideas [04-26-68, second show] (3:18)
08. In-A-Gadda-Da-Vida [04-26-68, second show] (17:20)
09. So-Lo [04-26-68, second show] (4:11)
10. Iron Butterfly Theme (5:40)
Код:
Код: Выделить всё
REM GENRE Rock
REM DATE 1968
REM DISCID 760CBC0A
REM COMMENT "ExactAudioCopy v0.99pb5"
PERFORMER "Iron Batterfly"
TITLE "Fillmore East (Live)"
FILE "1968 - Fillmore East (Live)_Disk1.flac" WAVE
  TRACK 01 AUDIO
    TITLE "Iron Butterfly - Fillmore East 1968 (54:20)"
    PERFORMER "Iron Batterfly"
    ISRC 000000000000
    INDEX 01 00:00:00
  TRACK 02 AUDIO
    TITLE "01. Fields Of Sun [04-26-68, first show] (4:01)"
    PERFORMER "Iron Batterfly"
    ISRC 000000000000
    INDEX 01 04:00:38
  TRACK 03 AUDIO
    TITLE "02. You Can't Win [04-26-68, first show] (3:17)"
    PERFORMER "Iron Batterfly"
    ISRC 000000000000
    INDEX 00 07:17:65
    INDEX 01 07:17:66
  TRACK 04 AUDIO
    TITLE "03. Unconscious Power [04-26-68, first show] (3:10)"
    PERFORMER "Iron Batterfly"
    ISRC 000000000000
    INDEX 01 10:28:10
  TRACK 05 AUDIO
    TITLE "04. 4Are You Happy [04-26-68, first show] (4:22)"
    PERFORMER "Iron Batterfly"
    ISRC 000000000000
    INDEX 01 14:50:39
  TRACK 06 AUDIO
    TITLE "05. So-Lo [04-26-68, first show] (4:05)"
    PERFORMER "Iron Batterfly"
    ISRC 000000000000
    INDEX 01 18:55:65
  TRACK 07 AUDIO
    TITLE "06. Iron Butterfly Theme (4:55)"
    PERFORMER "Iron Batterfly"
    ISRC 000000000000
    INDEX 01 23:51:03
  TRACK 08 AUDIO
    TITLE "07. Stamped Ideas [04-26-68, second show] (3:18)"
    PERFORMER "Iron Batterfly"
    ISRC 000000000000
    INDEX 01 27:09:13
  TRACK 09 AUDIO
    TITLE "08. In-A-Gadda-Da-Vida [04-26-68, second show] (17:20)"
    PERFORMER "Iron Batterfly"
    ISRC 000000000000
    INDEX 01 44:29:00
  TRACK 10 AUDIO
    TITLE "09. So-Lo [04-26-68, second show] (4:11)"
    PERFORMER "Iron Batterfly"
    ISRC 000000000000
    INDEX 01 48:39:50

Код:
Код: Выделить всё
Exact Audio Copy V0.99 prebeta 5 from 4. May 2009

Отчёт EAC об извлечении, выполненном 18. марта 2012, 0:45

Iron Batterfly / Fillmore East (Live)

Дисковод: PIONEER BD-RW   BDR-206   Adapter: 1  ID: 1

Режим чтения                 : Достоверность
Использование точного потока : Да
Отключение кэша аудио        : Да
Использование указателей C2  : Нет

Коррекция смещения при чтении                     : 667
Способность читать области Lead-in и Lead-out     : Нет
Заполнение пропущенных сэмплов тишиной            : Да
Удаление блоков с тишиной в начале и конце        : Нет
При вычислениях CRC использовались нулевые сэмплы : Нет
Интерфейс                                         : Встроенный Win32-интерфейс для Win NT/2000

Выходной формат          : Пользовательский кодировщик
Выбранный битрейт        : 768 kBit/s
Качество                 : Высокий
Добавление ID3-тэга      : Да
Утилита сжатия           : C:\Program Files\Exact Audio Copy\FLAC\FLAC.EXE
Дополнительные параметры : -6 -V -T "ARTIST=%a" -T "TITLE=%t" -T "ALBUM=%g" -T "DATE=%y" -T "TRACKNUMBER=%n" -T "GENRE=%m" -T "COMMENT=%e" %s -o %d

TOC извлечённого CD

     Трек |   Старт  | Длительность | Начальный сектор | Конечный сектор
    ---------------------------------------------------------------------
       1  |  0:00.00 |    4:00.38   |           0      |      18037
       2  |  4:00.38 |    3:17.28   |       18038      |      32840
       3  |  7:17.66 |    3:10.19   |       32841      |      47109
       4  | 10:28.10 |    4:22.29   |       47110      |      66788
       5  | 14:50.39 |    4:05.26   |       66789      |      85189
       6  | 18:55.65 |    4:55.13   |       85190      |     107327
       7  | 23:51.03 |    3:18.10   |      107328      |     122187
       8  | 27:09.13 |   17:19.62   |      122188      |     200174
       9  | 44:29.00 |    4:10.50   |      200175      |     218974
      10  | 48:39.50 |    5:40.26   |      218975      |     244500

Характеристики диапазона извлечения и сообщения об ошибках

Выбранный диапазон

     Имя файла E:\Downloads\1968 - Fillmore East (Live)_Disk1.wav

     Пиковый уровень 100.0 %
     Качество диапазона 100.0 %
     CRC копии 6BB53AAC
     Копирование... OK

Ошибок не произошло

AccurateRip: сводка

Трек  1  нет в базе данных
Трек  2  нет в базе данных
Трек  3  нет в базе данных
Трек  4  нет в базе данных
Трек  5  нет в базе данных
Трек  6  нет в базе данных
Трек  7  нет в базе данных
Трек  8  нет в базе данных
Трек  9  нет в базе данных
Трек 10  нет в базе данных

Ни одного трека нет в базе AccurateRip

Конец отчёта

Код:
Код: Выделить всё
-----------------------

DON'T MODIFY THIS FILE

-----------------------

PERFORMER: auCDtect Task Manager, ver. 1.5.1RC6 build 1.5.1.7
Copyright (c) 2008-2010 y-soft. All rights reserved
http:/y-soft.org

ANALYZER: auCDtect: CD records authenticity detector, version 0.8.2
Copyright (c) 2004 Oleg Berngardt. All rights reserved.
Copyright (c) 2004 Alexander Djourik. All rights reserved.

FILE: 1968 - Fillmore East (Live)_Disk1.flac
  Size: 345376801 Hash: D12C63EEDE1E4A5F7E1105E8DEB1DDF9 Accuracy: -m0
  Conclusion: CDDA 100%
  Signature: E28CA82BCA702F5AFAD80FC56652E61982C4D520

Продолжительность:01:05:26
01. Are You Happy [04-27-68, first show] (4:46)
02. Unconscious Power [04-27-68, first show] (2:49)
03. My Mirage [04-27-68, first show] (4:50)
04. So-Lo [04-27-68, first show] (4:00)
05. Iron Butterfly Theme (5:04)
06. Possession [04-27-68, second show] (5:48)
07. My Mirage [04-27-68, second show] (5:00)
08. Are You Happy [04-27-68, second show] (4:24)
09. Her Favorite Style [04-27-68, second show] (2:53)
10. In-A-Gadda-Da-Vida [04-27-68, second show] (15:34)
11. So-Lo [04-27-68, second show] (4:43)
12. Iron Butterfly Theme (5:35)
Код:
Код: Выделить всё
REM GENRE Rock
REM DATE 1968
REM DISCID BF0F550C
REM COMMENT "ExactAudioCopy v0.99pb5"
PERFORMER "Iron Batterfly"
TITLE "Fillmore East (Live)"
FILE "1968 - Fillmore East (Live)_Disk2.flac" WAVE
  TRACK 01 AUDIO
    TITLE "12. Iron Butterfly Theme (5:35)"
    PERFORMER "Iron Batterfly"
    ISRC 000000000000
    INDEX 01 00:00:00
  TRACK 02 AUDIO
    TITLE "01. Are You Happy [04-27-68, first show] (4:46)"
    PERFORMER "Iron Batterfly"
    ISRC 000000000000
    INDEX 01 04:45:69
  TRACK 03 AUDIO
    TITLE "02. Unconscious Power [04-27-68, first show] (2:49)"
    PERFORMER "Iron Batterfly"
    ISRC 000000000000
    INDEX 01 07:35:00
  TRACK 04 AUDIO
    TITLE "03. My Mirage [04-27-68, first show] (4:50)"
    PERFORMER "Iron Batterfly"
    ISRC 000000000000
    INDEX 01 12:24:44
  TRACK 05 AUDIO
    TITLE "04. So-Lo [04-27-68, first show] (4:00)"
    PERFORMER "Iron Batterfly"
    ISRC 000000000000
    INDEX 01 16:24:08
  TRACK 06 AUDIO
    TITLE "05. Iron Butterfly Theme (5:04)"
    PERFORMER "Iron Batterfly"
    ISRC 000000000000
    INDEX 01 21:27:54
  TRACK 07 AUDIO
    TITLE "06. Possession [04-27-68, second show] (5:48)"
    PERFORMER "Iron Batterfly"
    ISRC 000000000000
    INDEX 01 27:16:03
  TRACK 08 AUDIO
    TITLE "07. My Mirage [04-27-68, second show] (5:00)"
    PERFORMER "Iron Batterfly"
    ISRC 000000000000
    INDEX 01 32:16:29
  TRACK 09 AUDIO
    TITLE "08. Are You Happy [04-27-68, second show] (4:24)"
    PERFORMER "Iron Batterfly"
    ISRC 000000000000
    INDEX 01 36:40:26
  TRACK 10 AUDIO
    TITLE "09. Her Favorite Style [04-27-68, second show] (2:53)"
    PERFORMER "Iron Batterfly"
    ISRC 000000000000
    INDEX 01 39:33:02
  TRACK 11 AUDIO
    TITLE "10. In-A-Gadda-Da-Vida [04-27-68, second show] (15:34)"
    PERFORMER "Iron Batterfly"
    ISRC 000000000000
    INDEX 01 55:07:36
  TRACK 12 AUDIO
    TITLE "11. So-Lo [04-27-68, second show] (4:43)"
    PERFORMER "Iron Batterfly"
    ISRC 000000000000
    INDEX 01 59:50:63

Код:
Код: Выделить всё
Exact Audio Copy V0.99 prebeta 5 from 4. May 2009

Отчёт EAC об извлечении, выполненном 18. марта 2012, 11:12

Iron Batterfly / Fillmore East (Live)

Дисковод: PIONEER BD-RW   BDR-206   Adapter: 1  ID: 1

Режим чтения                 : Достоверность
Использование точного потока : Да
Отключение кэша аудио        : Да
Использование указателей C2  : Нет

Коррекция смещения при чтении                     : 667
Способность читать области Lead-in и Lead-out     : Нет
Заполнение пропущенных сэмплов тишиной            : Да
Удаление блоков с тишиной в начале и конце        : Нет
При вычислениях CRC использовались нулевые сэмплы : Нет
Интерфейс                                         : Встроенный Win32-интерфейс для Win NT/2000

Выходной формат          : Пользовательский кодировщик
Выбранный битрейт        : 768 kBit/s
Качество                 : Высокий
Добавление ID3-тэга      : Да
Утилита сжатия           : C:\Program Files\Exact Audio Copy\FLAC\FLAC.EXE
Дополнительные параметры : -6 -V -T "ARTIST=%a" -T "TITLE=%t" -T "ALBUM=%g" -T "DATE=%y" -T "TRACKNUMBER=%n" -T "GENRE=%m" -T "COMMENT=%e" %s -o %d

TOC извлечённого CD

     Трек |   Старт  | Длительность | Начальный сектор | Конечный сектор
    ---------------------------------------------------------------------
       1  |  0:00.00 |    4:45.69   |           0      |      21443
       2  |  4:45.69 |    2:49.06   |       21444      |      34124
       3  |  7:35.00 |    4:49.44   |       34125      |      55843
       4  | 12:24.44 |    3:59.39   |       55844      |      73807
       5  | 16:24.08 |    5:03.46   |       73808      |      96578
       6  | 21:27.54 |    5:48.24   |       96579      |     122702
       7  | 27:16.03 |    5:00.26   |      122703      |     145228
       8  | 32:16.29 |    4:23.72   |      145229      |     165025
       9  | 36:40.26 |    2:52.51   |      165026      |     177976
      10  | 39:33.02 |   15:34.34   |      177977      |     248060
      11  | 55:07.36 |    4:43.27   |      248061      |     269312
      12  | 59:50.63 |    5:34.74   |      269313      |     294436

Характеристики диапазона извлечения и сообщения об ошибках

Выбранный диапазон

     Имя файла E:\Downloads\1968 - Fillmore East (Live)_Disk2.wav

     Пиковый уровень 100.0 %
     Качество диапазона 100.0 %
     CRC копии 327DF90E
     Копирование... OK

Ошибок не произошло

AccurateRip: сводка

Трек  1  точное извлечение (доверие 1)  [976E2C85]
Трек  2  точное извлечение (доверие 1)  [39EE5401]
Трек  3  точное извлечение (доверие 1)  [60290E74]
Трек  4  точное извлечение (доверие 1)  [B70B7AC0]
Трек  5  точное извлечение (доверие 1)  [3EEF28E0]
Трек  6  точное извлечение (доверие 1)  [08B1B088]
Трек  7  точное извлечение (доверие 1)  [A6DF912B]
Трек  8  точное извлечение (доверие 1)  [3C095D20]
Трек  9  точное извлечение (доверие 1)  [9BDECB3A]
Трек 10  точное извлечение (доверие 1)  [08CCAFD5]
Трек 11  точное извлечение (доверие 1)  [90D2525F]
Трек 12  точное извлечение (доверие 1)  [C0ED6519]

Все треки извлечены точно

Конец отчёта

Код:
Код: Выделить всё
-----------------------

DON'T MODIFY THIS FILE

-----------------------

PERFORMER: auCDtect Task Manager, ver. 1.5.1RC6 build 1.5.1.7
Copyright (c) 2008-2010 y-soft. All rights reserved
http:/y-soft.org

ANALYZER: auCDtect: CD records authenticity detector, version 0.8.2
Copyright (c) 2004 Oleg Berngardt. All rights reserved.
Copyright (c) 2004 Alexander Djourik. All rights reserved.

FILE: 1968 - Fillmore East (Live)_Disk2.flac
  Size: 421843091 Hash: A8D1CE48F06ED79F6B27BB47CB312A03 Accuracy: -m0
  Conclusion: CDDA 100%
  Signature: CF7749D3B26C3D473B5581DE8472307B7DD6CDB4

#777Страна-производитель диска: Germany
Год издания диска:1968(1993)
Издатель (лейбл):ATCo
Номер по каталогу:8122-71521
Продолжительность:00:30:42
Трек лист:
01. Possession (2:46)
02. Unconscious Power (2:32)
03. Get Out Of My Life, Woman (3:58)
04. Gentle As It May Seem (2:29)
05. You Can't Win (2:41)
06. So-Lo (4:05)
07. Look For The Sun (2:14)
08. Fields Of Sun (3:13)
09. Stamped Ideas (2:09)
10. Iron Butterfly Theme (4:34)
Код:
Код: Выделить всё
REM GENRE Psychadelic
REM DATE 1968
REM DISCID 8407320A
REM COMMENT "ExactAudioCopy v0.99pb5"
PERFORMER "Iron Butterfly"
TITLE "Heavy"
FILE "Iron Butterfly - Heavy.flac" WAVE
  TRACK 01 AUDIO
    TITLE "Possession"
    PERFORMER "Iron Butterfly"
    ISRC 000000000000
    INDEX 01 00:00:00
  TRACK 02 AUDIO
    TITLE "Unconscious Power"
    PERFORMER "Iron Butterfly"
    ISRC 000000000000
    INDEX 01 02:45:58
  TRACK 03 AUDIO
    TITLE "Get Out Of My Life, Woman"
    PERFORMER "Iron Butterfly"
    ISRC 000000000000
    INDEX 01 05:17:63
  TRACK 04 AUDIO
    TITLE "Gentle As It May Seem"
    PERFORMER "Iron Butterfly"
    ISRC 000000000000
    INDEX 01 09:15:70
  TRACK 05 AUDIO
    TITLE "You Can't Win"
    PERFORMER "Iron Butterfly"
    ISRC 000000000000
    INDEX 01 11:44:48
  TRACK 06 AUDIO
    TITLE "So-Lo"
    PERFORMER "Iron Butterfly"
    ISRC 000000000000
    INDEX 01 14:26:05
  TRACK 07 AUDIO
    TITLE "Look For The Sun"
    PERFORMER "Iron Butterfly"
    ISRC 000000000000
    INDEX 01 18:31:40
  TRACK 08 AUDIO
    TITLE "Fields Of Sun"
    PERFORMER "Iron Butterfly"
    ISRC 000000000000
    INDEX 01 20:46:00
  TRACK 09 AUDIO
    TITLE "Stamped Ideas"
    PERFORMER "Iron Butterfly"
    ISRC 000000000000
    INDEX 01 23:58:53
  TRACK 10 AUDIO
    TITLE "Iron Butterfly Theme"
    PERFORMER "Iron Butterfly"
    ISRC 000000000000
    INDEX 01 26:07:50

Код:
Код: Выделить всё
Exact Audio Copy V0.99 prebeta 5 from 4. May 2009

Отчёт EAC об извлечении, выполненном 18. марта 2012, 15:46

Iron Butterfly / Heavy

Дисковод: PIONEER BD-RW   BDR-206   Adapter: 1  ID: 1

Режим чтения                 : Достоверность
Использование точного потока : Да
Отключение кэша аудио        : Да
Использование указателей C2  : Нет

Коррекция смещения при чтении                     : 667
Способность читать области Lead-in и Lead-out     : Нет
Заполнение пропущенных сэмплов тишиной            : Да
Удаление блоков с тишиной в начале и конце        : Нет
При вычислениях CRC использовались нулевые сэмплы : Нет
Интерфейс                                         : Встроенный Win32-интерфейс для Win NT/2000

Выходной формат          : Пользовательский кодировщик
Выбранный битрейт        : 768 kBit/s
Качество                 : Высокий
Добавление ID3-тэга      : Да
Утилита сжатия           : C:\Program Files\Exact Audio Copy\FLAC\FLAC.EXE
Дополнительные параметры : -6 -V -T "ARTIST=%a" -T "TITLE=%t" -T "ALBUM=%g" -T "DATE=%y" -T "TRACKNUMBER=%n" -T "GENRE=%m" -T "COMMENT=%e" %s -o %d

TOC извлечённого CD

     Трек |   Старт  | Длительность | Начальный сектор | Конечный сектор
    ---------------------------------------------------------------------
       1  |  0:00.00 |    2:45.58   |           0      |      12432
       2  |  2:45.58 |    2:32.05   |       12433      |      23837
       3  |  5:17.63 |    3:58.07   |       23838      |      41694
       4  |  9:15.70 |    2:28.53   |       41695      |      52847
       5  | 11:44.48 |    2:41.32   |       52848      |      64954
       6  | 14:26.05 |    4:05.35   |       64955      |      83364
       7  | 18:31.40 |    2:14.35   |       83365      |      93449
       8  | 20:46.00 |    3:12.53   |       93450      |     107902
       9  | 23:58.53 |    2:08.72   |      107903      |     117574
      10  | 26:07.50 |    4:34.30   |      117575      |     138154

Характеристики диапазона извлечения и сообщения об ошибках

Выбранный диапазон

     Имя файла E:\Downloads\Iron Butterfly - Heavy.wav

     Пиковый уровень 100.0 %
     Качество диапазона 100.0 %
     CRC копии 77F348BA
     Копирование... OK

Ошибок не произошло

AccurateRip: сводка

Трек  1  нет в базе данных
Трек  2  нет в базе данных
Трек  3  нет в базе данных
Трек  4  нет в базе данных
Трек  5  нет в базе данных
Трек  6  нет в базе данных
Трек  7  нет в базе данных
Трек  8  нет в базе данных
Трек  9  нет в базе данных
Трек 10  нет в базе данных

Ни одного трека нет в базе AccurateRip

Конец отчёта

Код:
Код: Выделить всё
-----------------------

DON'T MODIFY THIS FILE

-----------------------

PERFORMER: auCDtect Task Manager, ver. 1.5.1RC6 build 1.5.1.7
Copyright (c) 2008-2010 y-soft. All rights reserved
http:/y-soft.org

ANALYZER: auCDtect: CD records authenticity detector, version 0.8.2
Copyright (c) 2004 Oleg Berngardt. All rights reserved.
Copyright (c) 2004 Alexander Djourik. All rights reserved.

FILE: Iron Butterfly - Heavy.flac
  Size: 201081643 Hash: B69F61571739827DC53EFFD7EF4425B9 Accuracy: -m0
  Conclusion: CDDA 100%
  Signature: E4CCF7F7BF91FC772E8AA5E5E5EBA034BA2E987A

#777Страна-производитель диска: Japan
Год издания диска:1968(2006)
Издатель (лейбл):VEC
Номер по каталогу:VICW-60002
Продолжительность:00:36:08
Трек лист:
1. "Most Anything You Want" – 3:44
2. "Flowers And Beads" – 3:09
3. "My Mirage" – 4:54
4. "Termination" – 2:52
5. "Are You Happy" – 4:30
6. "In-A-Gadda-Da-Vida" – 17:07
Код:
Код: Выделить всё
REM GENRE "Psychedelic / Acid Rock"
REM DATE 1968
REM DISCID 3D087706
REM COMMENT "ExactAudioCopy v0.99pb4"
PERFORMER "Iron Butterfly"
TITLE "In-A-Gadda-Da-Vida [Vinyl Replica]"
FILE "Iron Butterfly - In-A-Gadda-Da-Vida [Vinyl Replica].flac" WAV
  TRACK 01 AUDIO
    TITLE "Most Anything You Want"
    PERFORMER "Iron Butterfly"
    INDEX 01 00:00:00
  TRACK 02 AUDIO
    TITLE "Flowers And Beads"
    PERFORMER "Iron Butterfly"
    INDEX 00 03:41:13
    INDEX 01 03:43:04
  TRACK 03 AUDIO
    TITLE "My Mirage"
    PERFORMER "Iron Butterfly"
    INDEX 00 06:49:21
    INDEX 01 06:49:56
  TRACK 04 AUDIO
    TITLE "Termination"
    PERFORMER "Iron Butterfly"
    INDEX 00 11:40:69
    INDEX 01 11:42:58
  TRACK 05 AUDIO
    TITLE "Are You Happy"
    PERFORMER "Iron Butterfly"
    INDEX 00 14:32:24
    INDEX 01 14:34:09
  TRACK 06 AUDIO
    TITLE "In-A-Gadda-Da-Vida"
    PERFORMER "Iron Butterfly"
    INDEX 00 19:03:46
    INDEX 01 19:04:43

Код:
Код: Выделить всё
Exact Audio Copy V0.99 prebeta 4 from 23. January 2008

EAC extraction logfile from 29. September 2008, 21:00

Iron Butterfly / In-A-Gadda-Da-Vida [Vinyl Replica]

Used drive  : MATSHITADVD-R   UJ-85J   Adapter: 0  ID: 0

Read mode               : Secure
Utilize accurate stream : Yes
Defeat audio cache      : No
Make use of C2 pointers : No

Read offset correction                      : 102
Overread into Lead-In and Lead-Out          : No
Fill up missing offset samples with silence : Yes
Delete leading and trailing silent blocks   : No
Null samples used in CRC calculations       : No
Used interface                              : Native Win32 interface for Win NT & 2000

Used output format : Internal WAV Routines
Sample format      : 44.100 Hz; 16 Bit; Stereo

TOC of the extracted CD

     Track |   Start  |  Length  | Start sector | End sector
    ---------------------------------------------------------
        1  |  0:00.00 |  3:43.04 |         0    |    16728
        2  |  3:43.04 |  3:06.52 |     16729    |    30730
        3  |  6:49.56 |  4:53.02 |     30731    |    52707
        4  | 11:42.58 |  2:51.26 |     52708    |    65558
        5  | 14:34.09 |  4:30.34 |     65559    |    85842
        6  | 19:04.43 | 17:03.19 |     85843    |   162586

Range status and errors

Selected range

     Filename C:\Dokumente und Einstellungen\Alexander\Eigene Dateien\Eigene Bilder\IB_IAGDV\Iron Butterfly - In-A-Gadda-Da-Vida [Vinyl Replica].wav

     Peak level 99.9 %
     Range quality 100.0 %
     Test CRC 9D1418B0
     Copy CRC 9D1418B0
     Copy OK

No errors occurred

AccurateRip summary

Track  1  accurately ripped (confidence 2)  [8A46B475]
Track  2  accurately ripped (confidence 2)  [948F5725]
Track  3  accurately ripped (confidence 2)  [57353340]
Track  4  accurately ripped (confidence 2)  [4F9AB06C]
Track  5  accurately ripped (confidence 2)  [2D195D24]
Track  6  accurately ripped (confidence 2)  [70CE62AF]

All tracks accurately ripped

End of status report

Код:
Код: Выделить всё
-----------------------

DON'T MODIFY THIS FILE

-----------------------

PERFORMER: auCDtect Task Manager, ver. 1.5.1RC6 build 1.5.1.7
Copyright (c) 2008-2010 y-soft. All rights reserved
http:/y-soft.org

ANALYZER: auCDtect: CD records authenticity detector, version 0.8.2
Copyright (c) 2004 Oleg Berngardt. All rights reserved.
Copyright (c) 2004 Alexander Djourik. All rights reserved.

FILE: Iron Butterfly - In-A-Gadda-Da-Vida [Vinyl Replica].flac
  Size: 230484960 Hash: 54D69B845AD696A01AFC2FF1FB92FBFC Accuracy: -m0
  Conclusion: CDDA 99%
  Signature: 8EAEE6D97952EA6D1272EDC1E6B96676477264C2

#777Страна-производитель диска: USA
Год издания диска:1968(1995)
Издатель (лейбл):ARC
Номер по каталогу:R2 72196
Продолжительность:00:58:09
Трек лист:
01. Most Anything You Want (03:44)
02. Flowers And Beads (03:09)
03. My Mirage (04:54)
04. Termination (02:53)
05. Are You Happy (04:29)
06. In-A-Gadda-Da-Vida (17:07)
07. In-A-Gadda-Da-Vida (live version) (18:57)
08. In-A-Gadda-Da-Vida (single version) (02:54)
Код:
Код: Выделить всё
REM GENRE "Psychedelic Rock"
REM DATE 1968
REM DISCID 5B0DA008
REM COMMENT "ExactAudioCopy v1.0b1"
CATALOG 0081227219628
PERFORMER "Iron Butterfly"
TITLE "In-A-Gadda-Da-Vida [Remastered 1995]"
FILE "Iron Butterfly - In-A-Gadda-Da-Vida [Remastered 1995].flac" WAVE
  TRACK 01 AUDIO
    TITLE "Most Anything You Want"
    PERFORMER "Iron Butterfly"
    ISRC USEE10181064
    INDEX 00 00:00:00
    INDEX 01 00:00:32
  TRACK 02 AUDIO
    TITLE "Flowers and Beads"
    PERFORMER "Iron Butterfly"
    ISRC USEE10181065
    INDEX 00 03:43:42
    INDEX 01 03:44:37
  TRACK 03 AUDIO
    TITLE "My Mirage"
    PERFORMER "Iron Butterfly"
    ISRC USEE10181066
    INDEX 00 06:52:47
    INDEX 01 06:53:40
  TRACK 04 AUDIO
    TITLE "Termination"
    PERFORMER "Iron Butterfly"
    ISRC USEE10181068
    INDEX 00 11:47:70
    INDEX 01 11:48:22
  TRACK 05 AUDIO
    TITLE "Are You Happy"
    PERFORMER "Iron Butterfly"
    ISRC USEE10181067
    INDEX 00 14:40:07
    INDEX 01 14:41:37
  TRACK 06 AUDIO
    TITLE "In-A-Gadda-Da-Vida"
    PERFORMER "Iron Butterfly"
    ISRC USEE10181063
    INDEX 00 19:12:22
    INDEX 01 19:13:35
  TRACK 07 AUDIO
    TITLE "In-A-Gadda-Da-Vida (Live Version)"
    PERFORMER "Iron Butterfly"
    ISRC USEE10181105
    INDEX 00 36:21:27
    INDEX 01 36:23:72
  TRACK 08 AUDIO
    TITLE "In-A-Gadda-Da-Vida (Single Version)"
    PERFORMER "Iron Butterfly"
    ISRC USEE10181094
    INDEX 00 55:14:30
    INDEX 01 55:15:12

Код:
Код: Выделить всё
Exact Audio Copy V1.0 beta 1 from 15. November 2010

EAC extraction logfile from 29. May 2012, 16:51

Iron Butterfly / In-A-Gadda-Da-Vida [Remastered 1995]

Used drive  : Optiarc DVD RW AD-7263S   Adapter: 3  ID: 0

Read mode               : Secure
Utilize accurate stream : Yes
Defeat audio cache      : Yes
Make use of C2 pointers : No

Read offset correction                      : 48
Overread into Lead-In and Lead-Out          : No
Fill up missing offset samples with silence : Yes
Delete leading and trailing silent blocks   : No
Null samples used in CRC calculations       : Yes
Used interface                              : Native Win32 interface for Win NT & 2000

Used output format : Internal WAV Routines
Sample format      : 44.100 Hz; 16 Bit; Stereo

TOC of the extracted CD

     Track |   Start  |  Length  | Start sector | End sector
    ---------------------------------------------------------
        1  |  0:00.32 |  3:44.05 |        32    |    16836
        2  |  3:44.37 |  3:09.03 |     16837    |    31014
        3  |  6:53.40 |  4:54.57 |     31015    |    53121
        4  | 11:48.22 |  2:53.15 |     53122    |    66111
        5  | 14:41.37 |  4:31.73 |     66112    |    86509
        6  | 19:13.35 | 17:10.37 |     86510    |   163796
        7  | 36:23.72 | 18:51.15 |    163797    |   248636
        8  | 55:15.12 |  2:53.55 |    248637    |   261666

Range status and errors

Selected range

     Filename C:\Documents and Settings\maxim\Мои документы\Моя музыка\Iron Butterfly - In-A-Gadda-Da-Vida [Remastered 1995].wav

     Peak level 100.0 %
     Extraction speed 0.2 X
     Range quality 100.0 %
     Test CRC DEAFB90A
     Copy CRC DEAFB90A
     Copy OK

No errors occurred

AccurateRip summary

Track  1  accurately ripped (confidence 3)  [8853C974]
Track  2  accurately ripped (confidence 3)  [A1B297B0]
Track  3  accurately ripped (confidence 3)  [0E02884E]
Track  4  accurately ripped (confidence 3)  [D4B58CD4]
Track  5  accurately ripped (confidence 3)  [D237D343]
Track  6  accurately ripped (confidence 3)  [4066C5BC]
Track  7  accurately ripped (confidence 2)  [55E9EFED]
Track  8  accurately ripped (confidence 3)  [EF6D540D]

All tracks accurately ripped

End of status report

==== Log checksum 0A030EFBC32215E59D6051FD1DC78378C69EC7AB0DCC4912EA7FB7A268C3BC47 ====

Код:
Код: Выделить всё
-----------------------

DON'T MODIFY THIS FILE

-----------------------

PERFORMER: auCDtect Task Manager, ver. 1.5.1RC6 build 1.5.1.7
Copyright (c) 2008-2010 y-soft. All rights reserved
http:/y-soft.org

ANALYZER: auCDtect: CD records authenticity detector, version 0.8.2
Copyright (c) 2004 Oleg Berngardt. All rights reserved.
Copyright (c) 2004 Alexander Djourik. All rights reserved.

FILE: Iron Butterfly - In-A-Gadda-Da-Vida [Remastered 1995].flac
  Size: 365480910 Hash: FEAD3A331DE741B4535C20DB62F392A0 Accuracy: -m0
  Conclusion: CDDA 100%
  Signature: C536DF40E30EBD2F8290DE4B4C133320CDB78DF3

#777Страна-производитель диска: Japan
Год издания диска:1969(2006)
Издатель (лейбл):VEC
Номер по каталогу:VICW-60003
Продолжительность:00:35:01
Трек лист:

01. In The Time Of Our Lives (04:53)
02. Soul Experience (02:53)
03. Lonely Boy (05:01)
04. Real Fright (02:43)
05. In The Crowds (02:17)
06. It Must Be Love (04:23)
07. Her Favorite Style (03:14)
08. Filled With Fear (03:49)
09. Belda-Beast (05:49)
Код:
Код: Выделить всё
REM DATE 1969
REM DISCID 74083409
REM COMMENT "ExactAudioCopy v0.99pb5"
PERFORMER "Iron Butterfly"
TITLE "Ball"
FILE "Iron Butterfly - Ball.flac" WAVE
  TRACK 01 AUDIO
    TITLE "In The Time Of Our Lives"
    PERFORMER "Iron Butterfly"
    ISRC 000000000000
    INDEX 01 00:00:00
  TRACK 02 AUDIO
    TITLE "Soul Experience"
    PERFORMER "Iron Butterfly"
    ISRC 000000000000
    INDEX 01 04:52:44
  TRACK 03 AUDIO
    TITLE "Lonely Boy"
    PERFORMER "Iron Butterfly"
    ISRC 000000000000
    INDEX 01 07:45:05
  TRACK 04 AUDIO
    TITLE "Real Fright"
    PERFORMER "Iron Butterfly"
    ISRC 000000000000
    INDEX 01 12:46:13
  TRACK 05 AUDIO
    TITLE "In The Crowds"
    PERFORMER "Iron Butterfly"
    ISRC 000000000000
    INDEX 01 15:28:55
  TRACK 06 AUDIO
    TITLE "It Must Be Love"
    PERFORMER "Iron Butterfly"
    ISRC 000000000000
    INDEX 01 17:45:44
  TRACK 07 AUDIO
    TITLE "Her Favorite Style"
    PERFORMER "Iron Butterfly"
    ISRC 000000000000
    INDEX 01 22:08:58
  TRACK 08 AUDIO
    TITLE "Filled With Fear"
    PERFORMER "Iron Butterfly"
    ISRC 000000000000
    INDEX 01 25:22:18
  TRACK 09 AUDIO
    TITLE "Belda-Beast"
    PERFORMER "Iron Butterfly"
    ISRC 000000000000
    INDEX 01 29:11:35

Код:
Код: Выделить всё
Exact Audio Copy V0.99 prebeta 5 from 4. May 2009

Отчёт EAC об извлечении, выполненном 18. марта 2012, 16:41

Iron Butterfly / Ball

Дисковод: PIONEER BD-RW   BDR-206   Adapter: 1  ID: 1

Режим чтения                 : Достоверность
Использование точного потока : Да
Отключение кэша аудио        : Да
Использование указателей C2  : Нет

Коррекция смещения при чтении                     : 667
Способность читать области Lead-in и Lead-out     : Нет
Заполнение пропущенных сэмплов тишиной            : Да
Удаление блоков с тишиной в начале и конце        : Нет
При вычислениях CRC использовались нулевые сэмплы : Нет
Интерфейс                                         : Встроенный Win32-интерфейс для Win NT/2000

Выходной формат          : Пользовательский кодировщик
Выбранный битрейт        : 768 kBit/s
Качество                 : Высокий
Добавление ID3-тэга      : Да
Утилита сжатия           : C:\Program Files\Exact Audio Copy\FLAC\FLAC.EXE
Дополнительные параметры : -6 -V -T "ARTIST=%a" -T "TITLE=%t" -T "ALBUM=%g" -T "DATE=%y" -T "TRACKNUMBER=%n" -T "GENRE=%m" -T "COMMENT=%e" %s -o %d

TOC извлечённого CD

     Трек |   Старт  | Длительность | Начальный сектор | Конечный сектор
    ---------------------------------------------------------------------
       1  |  0:00.00 |    4:52.44   |           0      |      21943
       2  |  4:52.44 |    2:52.36   |       21944      |      34879
       3  |  7:45.05 |    5:01.08   |       34880      |      57462
       4  | 12:46.13 |    2:42.42   |       57463      |      69654
       5  | 15:28.55 |    2:16.64   |       69655      |      79918
       6  | 17:45.44 |    4:23.14   |       79919      |      99657
       7  | 22:08.58 |    3:13.35   |       99658      |     114167
       8  | 25:22.18 |    3:49.17   |      114168      |     131359
       9  | 29:11.35 |    5:49.17   |      131360      |     157551

Характеристики диапазона извлечения и сообщения об ошибках

Выбранный диапазон

     Имя файла D:\Muzik\Iron Batterfly\1969 - Ball (2006 VICW-60003 Japan Rem.)\Iron Butterfly - Ball.wav

     Пиковый уровень 100.0 %
     Качество диапазона 100.0 %
     CRC копии 91BEDED1
     Копирование... OK

Ошибок не произошло

AccurateRip: сводка

Трек  1  нет в базе данных
Трек  2  нет в базе данных
Трек  3  нет в базе данных
Трек  4  нет в базе данных
Трек  5  нет в базе данных
Трек  6  нет в базе данных
Трек  7  нет в базе данных
Трек  8  нет в базе данных
Трек  9  нет в базе данных

Ни одного трека нет в базе AccurateRip

Конец отчёта

Код:
Код: Выделить всё
-----------------------

DON'T MODIFY THIS FILE

-----------------------

PERFORMER: auCDtect Task Manager, ver. 1.5.1RC6 build 1.5.1.7
Copyright (c) 2008-2010 y-soft. All rights reserved
http:/y-soft.org

ANALYZER: auCDtect: CD records authenticity detector, version 0.8.2
Copyright (c) 2004 Oleg Berngardt. All rights reserved.
Copyright (c) 2004 Alexander Djourik. All rights reserved.

FILE: Iron Butterfly - Ball.flac
  Size: 220145063 Hash: FC94812A4009F9A2C692124BD601FDDE Accuracy: -m0
  Conclusion: CDDA 100%
  Signature: FA83EB927154796A85F0DEE6194BF988BAD57627

#777Страна-производитель диска: Germany
Год издания диска:1970
Издатель (лейбл):ARC
Номер по каталогу:7567-90396-2
Продолжительность:00:38:52
Трек лист:

01. In The Time Of Our Lives (04:42)
02. Filled With Fear (03:41)
03. Soul Experience (04:09)
04. You Can't Win (03:27)
05. Are You Happy (04:03)
06. In-A-Gadda-Da-Vida (18:50)
Код:
Код: Выделить всё
REM GENRE Rock
REM DATE 1970
REM DISCID 42091C06
REM COMMENT "ExactAudioCopy v0.99pb5"
PERFORMER "Iron Butterfly"
TITLE "Live"
FILE "1970 - Live.flac" WAVE
  TRACK 01 AUDIO
    TITLE "In The Time Of Our Lives"
    PERFORMER "Iron Butterfly"
    ISRC 000000000000
    INDEX 01 00:00:00
  TRACK 02 AUDIO
    TITLE "Filled With Fear"
    PERFORMER "Iron Butterfly"
    ISRC 000000000000
    INDEX 01 04:42:28
  TRACK 03 AUDIO
    TITLE "Soul Experience"
    PERFORMER "Iron Butterfly"
    ISRC 000000000000
    INDEX 01 08:23:65
  TRACK 04 AUDIO
    TITLE "You Can't Win"
    PERFORMER "Iron Butterfly"
    ISRC 000000000000
    INDEX 01 12:33:05
  TRACK 05 AUDIO
    TITLE "Are You Happy"
    PERFORMER "Iron Butterfly"
    ISRC 000000000000
    INDEX 01 15:59:50
  TRACK 06 AUDIO
    TITLE "In-A-Gadda-Da-Vida"
    PERFORMER "Iron Butterfly"
    ISRC 000000000000
    INDEX 01 20:02:38

Код:
Код: Выделить всё
Exact Audio Copy V0.99 prebeta 5 from 4. May 2009

Отчёт EAC об извлечении, выполненном 17. марта 2012, 23:29

Iron Butterfly / Live

Дисковод: PIONEER BD-RW   BDR-206   Adapter: 1  ID: 1

Режим чтения                 : Достоверность
Использование точного потока : Да
Отключение кэша аудио        : Да
Использование указателей C2  : Нет

Коррекция смещения при чтении                     : 667
Способность читать области Lead-in и Lead-out     : Нет
Заполнение пропущенных сэмплов тишиной            : Да
Удаление блоков с тишиной в начале и конце        : Нет
При вычислениях CRC использовались нулевые сэмплы : Нет
Интерфейс                                         : Встроенный Win32-интерфейс для Win NT/2000

Выходной формат          : Пользовательский кодировщик
Выбранный битрейт        : 768 kBit/s
Качество                 : Высокий
Добавление ID3-тэга      : Да
Утилита сжатия           : C:\Program Files\Exact Audio Copy\FLAC\FLAC.EXE
Дополнительные параметры : -6 -V -T "ARTIST=%a" -T "TITLE=%t" -T "ALBUM=%g" -T "DATE=%y" -T "TRACKNUMBER=%n" -T "GENRE=%m" -T "COMMENT=%e" %s -o %d

TOC извлечённого CD

     Трек |   Старт  | Длительность | Начальный сектор | Конечный сектор
    ---------------------------------------------------------------------
       1  |  0:00.00 |    4:42.28   |           0      |      21177
       2  |  4:42.28 |    3:41.37   |       21178      |      37789
       3  |  8:23.65 |    4:09.15   |       37790      |      56479
       4  | 12:33.05 |    3:26.45   |       56480      |      71974
       5  | 15:59.50 |    4:02.63   |       71975      |      90187
       6  | 20:02.38 |   18:49.42   |       90188      |     174904

Характеристики диапазона извлечения и сообщения об ошибках

Выбранный диапазон

     Имя файла E:\Downloads\1970 - Live.wav

     Пиковый уровень 100.0 %
     Качество диапазона 100.0 %
     CRC копии 2F2E53E3
     Копирование... OK

Ошибок не произошло

AccurateRip: сводка

Трек  1  точное извлечение (доверие 8)  [86FBA053]
Трек  2  точное извлечение (доверие 8)  [2AE4D817]
Трек  3  точное извлечение (доверие 8)  [4E304C4A]
Трек  4  точное извлечение (доверие 8)  [6F6BB093]
Трек  5  точное извлечение (доверие 8)  [3B0172AF]
Трек  6  точное извлечение (доверие 7)  [8DA7F4E8]

Все треки извлечены точно

Конец отчёта

Код:
Код: Выделить всё
-----------------------

DON'T MODIFY THIS FILE

-----------------------

PERFORMER: auCDtect Task Manager, ver. 1.5.1RC6 build 1.5.1.7
Copyright (c) 2008-2010 y-soft. All rights reserved
http:/y-soft.org

ANALYZER: auCDtect: CD records authenticity detector, version 0.8.2
Copyright (c) 2004 Oleg Berngardt. All rights reserved.
Copyright (c) 2004 Alexander Djourik. All rights reserved.

FILE: 1970 - Live.flac
  Size: 226998136 Hash: 678B89AEDE68DDD9670AE196EAFDC27B Accuracy: -m0
  Conclusion: CDDA 100%
  Signature: 158CE332D0738565B9A2B85EFDE2E6D81F9B8BA8

#777Страна-производитель диска: USA
Год издания диска:1970(1993)
Издатель (лейбл):ARC
Номер по каталогу:R2-71522
Продолжительность:00:40:48
Трек лист:

01. Free flight (0:50)
02. New day (3:20)
03. Shady lady (3:57)
04. Best years of our life (4:00)
05. Slower than guns (3:50)
06. Stone believer (4:25)
07. Soldier in our town (3:22)
08. Easy rider (Let the wind pay the way) (3:06)
09. Butterfly bleu (13:58)
Код:
Код: Выделить всё
REM GENRE Rock
REM DATE 1970
REM DISCID 70099009
REM COMMENT "ExactAudioCopy v0.99pb5"
PERFORMER "Iron Butterfly"
TITLE "Metamorphosis"
FILE "Iron Butterfly - Metamorphosis.flac" WAVE
  TRACK 01 AUDIO
    TITLE "Free Flight"
    PERFORMER "Iron Butterfly"
    INDEX 00 00:00:00
    INDEX 01 00:00:32
  TRACK 02 AUDIO
    TITLE "New Day"
    PERFORMER "Iron Butterfly"
    INDEX 00 00:48:70
    INDEX 01 00:50:30
  TRACK 03 AUDIO
    TITLE "Shady Lady"
    PERFORMER "Iron Butterfly"
    INDEX 00 04:07:35
    INDEX 01 04:10:32
  TRACK 04 AUDIO
    TITLE "Best Years of Our Life"
    PERFORMER "Iron Butterfly"
    INDEX 00 08:04:68
    INDEX 01 08:07:50
  TRACK 05 AUDIO
    TITLE "Slower Than Guns"
    PERFORMER "Iron Butterfly"
    INDEX 00 12:05:20
    INDEX 01 12:07:25
  TRACK 06 AUDIO
    TITLE "Stone Believer"
    PERFORMER "Iron Butterfly"
    INDEX 00 15:53:50
    INDEX 01 15:57:12
  TRACK 07 AUDIO
    TITLE "Soldier in Our Town"
    PERFORMER "Iron Butterfly"
    INDEX 00 20:20:43
    INDEX 01 20:22:22
  TRACK 08 AUDIO
    TITLE "Easy Rider (Let the Wind Pay the Way)"
    PERFORMER "Iron Butterfly"
    INDEX 00 23:40:48
    INDEX 01 23:44:22
  TRACK 09 AUDIO
    TITLE "Butterfly Bleu"
    PERFORMER "Iron Butterfly"
    INDEX 01 26:50:50

Код:
Код: Выделить всё
Exact Audio Copy V0.99 prebeta 5 from 4. May 2009

Отчёт EAC об извлечении, выполненном 22. января 2012, 7:25

Iron Butterfly / Metamorphosis

Дисковод: Optiarc DVD RW AD-7200A   Adapter: 1  ID: 0

Режим чтения                 : Достоверность
Использование точного потока : Да
Отключение кэша аудио        : Да
Использование указателей C2  : Нет

Коррекция смещения при чтении                     : 48
Способность читать области Lead-in и Lead-out     : Нет
Заполнение пропущенных сэмплов тишиной            : Да
Удаление блоков с тишиной в начале и конце        : Нет
При вычислениях CRC использовались нулевые сэмплы : Да
Интерфейс                                         : Встроенный Win32-интерфейс для Win NT/2000

Выходной формат : Внутренние WAV-операции
Формат сэмплов  : 44.100 Гц; 16 бит; стерео

TOC извлечённого CD

     Трек |   Старт  | Длительность | Начальный сектор | Конечный сектор
    ---------------------------------------------------------------------
       1  |  0:00.32 |    0:49.73   |          32      |       3779
       2  |  0:50.30 |    3:20.02   |        3780      |      18781
       3  |  4:10.32 |    3:57.18   |       18782      |      36574
       4  |  8:07.50 |    3:59.50   |       36575      |      54549
       5  | 12:07.25 |    3:49.62   |       54550      |      71786
       6  | 15:57.12 |    4:25.10   |       71787      |      91671
       7  | 20:22.22 |    3:22.00   |       91672      |     106821
       8  | 23:44.22 |    3:06.28   |      106822      |     120799
       9  | 26:50.50 |   13:57.50   |      120800      |     183624

Характеристики диапазона извлечения и сообщения об ошибках

Выбранный диапазон

     Имя файла H:\Раздачи\Iron Butterfly - Metamorphosis 1970 - 1993\Iron Butterfly - Metamorphosis.wav

     Пиковый уровень 100.0 %
     Качество диапазона 99.9 %
     CRC теста E5DC0110
     CRC копии E5DC0110
     Копирование... OK

Ошибок не произошло

AccurateRip: сводка

Трек  1  точное извлечение (доверие 17)  [CEC82D3B]
Трек  2  точное извлечение (доверие 16)  [6A5072B3]
Трек  3  точное извлечение (доверие 17)  [39DE60EE]
Трек  4  точное извлечение (доверие 17)  [52AFA7C9]
Трек  5  точное извлечение (доверие 17)  [9A063270]
Трек  6  точное извлечение (доверие 17)  [7AA86F1B]
Трек  7  точное извлечение (доверие 17)  [E9B658D2]
Трек  8  точное извлечение (доверие 18)  [AB55A02F]
Трек  9  точное извлечение (доверие 17)  [E651B27C]

Все треки извлечены точно

Конец отчёта

Код:
Код: Выделить всё
-----------------------

DON'T MODIFY THIS FILE

-----------------------

PERFORMER: auCDtect Task Manager, ver. 1.5.1RC6 build 1.5.1.7
Copyright (c) 2008-2010 y-soft. All rights reserved
http:/y-soft.org

ANALYZER: auCDtect: CD records authenticity detector, version 0.8.2
Copyright (c) 2004 Oleg Berngardt. All rights reserved.
Copyright (c) 2004 Alexander Djourik. All rights reserved.

FILE: Iron Butterfly - Metamorphosis.flac
  Size: 249465056 Hash: A7EC72041E48264ECA7C5F720A3739E3 Accuracy: -m0
  Conclusion: CDDA 100%
  Signature: 2E26D144EB4AEEC6F2BFFB893A4AE2D12C674AEF

#777Страна-производитель диска: n/a
Год издания диска:1971 (?)
Издатель (лейбл):n/a
Номер по каталогу:n/a
Продолжительность:00:47:42
Трек лист:

1. Butterfly Bleu 23:12,44
2. Gadda Da Vida 24:29,12
Код:
Код: Выделить всё
REM GENRE "Psychedelic Rock"
REM DATE 1971
REM DISCID 130B2D02
REM COMMENT "ExactAudioCopy v0.99pb5"
PERFORMER "Iron Butterfly"
TITLE "Butterfly Blues '71"
FILE "Iron Butterfly - Butterfly Blues '71.flac" WAVE
  TRACK 01 AUDIO
    TITLE "Butterfly Bleu"
    PERFORMER "Iron Butterfly"
    ISRC 000000000000
    INDEX 01 00:00:00
  TRACK 02 AUDIO
    TITLE "In A Gadda Da Vida"
    PERFORMER "Iron Butterfly"
    ISRC 000000000000
    INDEX 01 23:12:44

Код:
Код: Выделить всё
Exact Audio Copy V0.99 prebeta 5 from 4. May 2009

Отчёт EAC об извлечении, выполненном 18. марта 2012, 18:27

Iron Butterfly / Butterfly Blues '71

Дисковод: PIONEER BD-RW   BDR-206   Adapter: 1  ID: 1

Режим чтения                 : Достоверность
Использование точного потока : Да
Отключение кэша аудио        : Да
Использование указателей C2  : Нет

Коррекция смещения при чтении                     : 667
Способность читать области Lead-in и Lead-out     : Нет
Заполнение пропущенных сэмплов тишиной            : Да
Удаление блоков с тишиной в начале и конце        : Нет
При вычислениях CRC использовались нулевые сэмплы : Нет
Интерфейс                                         : Встроенный Win32-интерфейс для Win NT/2000

Выходной формат          : Пользовательский кодировщик
Выбранный битрейт        : 768 kBit/s
Качество                 : Высокий
Добавление ID3-тэга      : Да
Утилита сжатия           : C:\Program Files\Exact Audio Copy\FLAC\FLAC.EXE
Дополнительные параметры : -6 -V -T "ARTIST=%a" -T "TITLE=%t" -T "ALBUM=%g" -T "DATE=%y" -T "TRACKNUMBER=%n" -T "GENRE=%m" -T "COMMENT=%e" %s -o %d

TOC извлечённого CD

     Трек |   Старт  | Длительность | Начальный сектор | Конечный сектор
    ---------------------------------------------------------------------
       1  |  0:00.00 |   23:12.44   |           0      |     104443
       2  | 23:12.44 |   24:29.12   |      104444      |     214630

Характеристики диапазона извлечения и сообщения об ошибках

Выбранный диапазон

     Имя файла D:\Muzik\Iron Batterfly\1971 - Live in Goteborg (Butleg)\Iron Butterfly - Butterfly Blues '71.wav

     Пиковый уровень 90.6 %
     Качество диапазона 99.9 %
     CRC копии D86AC691
     Копирование... OK

Ошибок не произошло

AccurateRip: сводка

Трек  1  нет в базе данных
Трек  2  нет в базе данных

Ни одного трека нет в базе AccurateRip

Конец отчёта

Код:
Код: Выделить всё
-----------------------

DON'T MODIFY THIS FILE

-----------------------

PERFORMER: auCDtect Task Manager, ver. 1.5.1RC6 build 1.5.1.7
Copyright (c) 2008-2010 y-soft. All rights reserved
http:/y-soft.org

ANALYZER: auCDtect: CD records authenticity detector, version 0.8.2
Copyright (c) 2004 Oleg Berngardt. All rights reserved.
Copyright (c) 2004 Alexander Djourik. All rights reserved.

FILE: Iron Butterfly - Butterfly Blues '71.flac
  Size: 230307578 Hash: 3DFC6501F1E7F9625B9E6A32E3669E40 Accuracy: -m0
  Conclusion: MPEG 93%
  Signature: 9624C2EEBB9C48DFB2E2D81F5651797958B724BD

#777Страна-производитель диска: Austria
Год издания диска:1975(1995)
Издатель (лейбл):Repertoire Records
Номер по каталогу:REP 4558-WY
Продолжительность:00:37:43
Трек лист:

1. 1975 Overture (4:19)
2. Hard Miseree (3:42)
3. High on a Mountain Top (4:02)
4. Am I Down (5:22)
5. People of the World (3:23)
6. Searchin' Circles (4:38)
7. Pearly Gates (3:25)
8. Lonely Hearts (3:14)
9. Before You Go (5:34)
Код:
Код: Выделить всё
REM GENRE "Psychedelic Rock"
REM DATE 1975
REM DISCID 6B08D709
REM COMMENT "ExactAudioCopy v1.0b3"
PERFORMER "Iron Butterfly"
TITLE "Scorching Beauty"
FILE "Iron Butterfly - Scorching Beauty.flac" WAVE
  TRACK 01 AUDIO
    TITLE "1975 Overture"
    PERFORMER "Iron Butterfly"
    ISRC 000000000000
    INDEX 01 00:00:00
  TRACK 02 AUDIO
    TITLE "Hard Miseree"
    PERFORMER "Iron Butterfly"
    ISRC 000000000000
    INDEX 01 04:19:00
  TRACK 03 AUDIO
    TITLE "High on a Mountain Top"
    PERFORMER "Iron Butterfly"
    ISRC 000000000000
    INDEX 01 08:01:12
  TRACK 04 AUDIO
    TITLE "Am I Down"
    PERFORMER "Iron Butterfly"
    ISRC 000000000000
    INDEX 01 12:03:55
  TRACK 05 AUDIO
    TITLE "People of the World"
    PERFORMER "Iron Butterfly"
    ISRC 000000000000
    INDEX 01 17:25:65
  TRACK 06 AUDIO
    TITLE "Searchin' Circles"
    PERFORMER "Iron Butterfly"
    ISRC 000000000000
    INDEX 01 20:49:52
  TRACK 07 AUDIO
    TITLE "Pearly Gates"
    PERFORMER "Iron Butterfly"
    ISRC 000000000000
    INDEX 01 25:27:67
  TRACK 08 AUDIO
    TITLE "Lonely Hearts"
    PERFORMER "Iron Butterfly"
    ISRC 000000000000
    INDEX 01 28:53:55
  TRACK 09 AUDIO
    TITLE "Before You Go"
    PERFORMER "Iron Butterfly"
    ISRC 000000000000
    INDEX 01 32:08:37
Код:
Код: Выделить всё
Exact Audio Copy V1.0 beta 3 from 29. August 2011

EAC extraction logfile from 22. May 2013, 2:28

Iron Butterfly / Scorching Beauty

Used drive  : PIONEER BD-RW   BDR-206   Adapter: 1  ID: 0

Read mode               : Secure
Utilize accurate stream : Yes
Defeat audio cache      : Yes
Make use of C2 pointers : No

Read offset correction                      : 667
Overread into Lead-In and Lead-Out          : No
Fill up missing offset samples with silence : Yes
Delete leading and trailing silent blocks   : No
Null samples used in CRC calculations       : Yes
Used interface                              : Native Win32 interface for Win NT & 2000

Used output format              : User Defined Encoder
Selected bitrate                : 768 kBit/s
Quality                         : High
Add ID3 tag                     : No
Command line compressor         : C:\Program Files\Exact Audio Copy\FLAC\FLAC.EXE
Additional command line options : -6 -V -T "ARTIST=%artist%" -T "TITLE=%title%" -T "ALBUM=%albumtitle%" -T "DATE=%year%" -T "TRACKNUMBER=%tracknr%" -T "GENRE=%genre%" -T "COMMENT=%comment%" -T "BAND=%albuminterpret%" -T "ALBUMARTIST=%albuminterpret%" -T "COMPOSER=%composer%" %haslyrics%--tag-from-file=LYRICS="%lyricsfile%"%haslyrics% -T "DISCNUMBER=%cdnumber%" -T "TOTALDISCS=%totalcds%" -T "TOTALTRACKS=%numtracks%" %hascover%--picture="%coverfile%"%hascover% %source% -o %dest%

TOC of the extracted CD

     Track |   Start  |  Length  | Start sector | End sector
    ---------------------------------------------------------
        1  |  0:00.00 |  4:19.00 |         0    |    19424
        2  |  4:19.00 |  3:42.12 |     19425    |    36086
        3  |  8:01.12 |  4:02.43 |     36087    |    54279
        4  | 12:03.55 |  5:22.10 |     54280    |    78439
        5  | 17:25.65 |  3:23.62 |     78440    |    93726
        6  | 20:49.52 |  4:38.15 |     93727    |   114591
        7  | 25:27.67 |  3:25.63 |    114592    |   130029
        8  | 28:53.55 |  3:14.57 |    130030    |   144636
        9  | 32:08.37 |  5:34.38 |    144637    |   169724

Range status and errors

Selected range

     Filename D:\Music\Iron.Butterfly-Discography.1968-1993.FLAC.CUE.Lossless\1975 - Scorching Beauty (REP 4558-WY)\Iron Butterfly - Scorching Beauty.wav

     Peak level 99.2 %
     Extraction speed 1.7 X
     Range quality 100.0 %
     Test CRC 9D67C2A0
     Copy CRC 9D67C2A0
     Copy OK

No errors occurred

AccurateRip summary

Track  1  cannot be verified as accurate (confidence 5)  [DE589AE5], AccurateRip returned [2C5AA793]  (AR v2)
Track  2  cannot be verified as accurate (confidence 5)  [26F2178D], AccurateRip returned [56B2333B]  (AR v2)
Track  3  cannot be verified as accurate (confidence 5)  [4C1FA992], AccurateRip returned [DD33CBFB]  (AR v2)
Track  4  cannot be verified as accurate (confidence 5)  [38190877], AccurateRip returned [0869FF13]  (AR v2)
Track  5  cannot be verified as accurate (confidence 5)  [147ECCF9], AccurateRip returned [13EC3894]  (AR v2)
Track  6  cannot be verified as accurate (confidence 5)  [EE878AD5], AccurateRip returned [2577AF0D]  (AR v2)
Track  7  cannot be verified as accurate (confidence 4)  [0F7C497C], AccurateRip returned [342EFF38]  (AR v2)
Track  8  cannot be verified as accurate (confidence 4)  [DD90B7F9], AccurateRip returned [43595AC1]  (AR v2)
Track  9  cannot be verified as accurate (confidence 4)  [33C19A96], AccurateRip returned [5691E769]  (AR v2)

No tracks could be verified as accurate
You may have a different pressing from the one(s) in the database

End of status report

==== Log checksum E7E519D93FEB9C81AB57FBFCD6BCC722CC4FB96EF530C0043B27E71D7AD65F3F ====

Код:
Код: Выделить всё
-----------------------

DON'T MODIFY THIS FILE

-----------------------

PERFORMER: auCDtect Task Manager, ver. 1.5.1RC6 build 1.5.1.7
Copyright (c) 2008-2010 y-soft. All rights reserved
http:/y-soft.org

ANALYZER: auCDtect: CD records authenticity detector, version 0.8.2
Copyright (c) 2004 Oleg Berngardt. All rights reserved.
Copyright (c) 2004 Alexander Djourik. All rights reserved.

FILE: Iron Butterfly - Scorching Beauty.flac
  Size: 240365721 Hash: BA8DDE1262EF61042B11EBADEE720D7B Accuracy: -m0
  Conclusion: CDDA 100%
  Signature: 4A5FD0D41BE7066BE890B5895320E08EE3FDAE02

#777Страна-производитель диска: Germany
Год издания диска:1993
Издатель (лейбл):RHINO
Номер по каталогу:8122-71166-2
Продолжительность:01:15:01
Трек лист:

1 Iron Butterfly Theme 04:36
2 Possession 02:46
3 Unconscious Power 02:32
4 You Can’t Win 02:41
5 So-Lo 04:04
6 In-A-Gadda-Da-Vida (Single Version) 02:55
7 Most Anything You Want 03:45
8 Flowers And Beads 03:09
9 My Mirage 04:54
10 Termination 02:52
11 In The Time Of Our Lives 04:52
12 Soul Experience 02:53
13 Real Fright 02:44
14 In The Crowds 02:12
15 It Must Be Love 04:25
16 Belda-Beast 05:49
17 I Can’t Help But Deceive You Little Girl 03:33
18 New Day 03:17
19 Stone Believer 04:25
20 Soldier In Our Town 03:19
Код:
Код: Выделить всё
REM GENRE Rock
REM DATE 1993
REM DISCID 37119415
REM COMMENT "ExactAudioCopy v0.99pb3"
CATALOG 8122711660204
PERFORMER "Iron Butterfly"
TITLE "Light And Heavy"
FILE "Iron Butterfly - Light And Heavy.flac" WAVE
  TRACK 01 AUDIO
    TITLE "Iron Butterfly Theme"
    PERFORMER "Iron Butterfly"
    ISRC 000000000000
    INDEX 01 00:00:00
  TRACK 02 AUDIO
    TITLE "Possession"
    PERFORMER "Iron Butterfly"
    ISRC 000000000000
    INDEX 00 04:34:55
    INDEX 01 04:36:63
  TRACK 03 AUDIO
    TITLE "Unconscious Power"
    PERFORMER "Iron Butterfly"
    ISRC 000000000000
    INDEX 00 07:20:38
    INDEX 01 07:23:23
  TRACK 04 AUDIO
    TITLE "You Can't Win"
    PERFORMER "Iron Butterfly"
    ISRC 000000000000
    INDEX 00 09:52:60
    INDEX 01 09:55:70
  TRACK 05 AUDIO
    TITLE "So-Lo"
    PERFORMER "Iron Butterfly"
    ISRC 000000000000
    INDEX 00 12:34:58
    INDEX 01 12:37:03
  TRACK 06 AUDIO
    TITLE "In-A-Gadda-Da-Vida (Single Version)"
    PERFORMER "Iron Butterfly"
    ISRC 000000000000
    INDEX 00 16:39:08
    INDEX 01 16:41:53
  TRACK 07 AUDIO
    TITLE "Most Anything You Want"
    PERFORMER "Iron Butterfly"
    ISRC 000000000000
    INDEX 00 19:34:60
    INDEX 01 19:36:55
  TRACK 08 AUDIO
    TITLE "Flowers And Beads"
    PERFORMER "Iron Butterfly"
    ISRC 000000000000
    INDEX 00 23:18:70
    INDEX 01 23:21:60
  TRACK 09 AUDIO
    TITLE "My Mirage"
    PERFORMER "Iron Butterfly"
    ISRC 000000000000
    INDEX 00 26:28:03
    INDEX 01 26:31:00
  TRACK 10 AUDIO
    TITLE "Termination"
    PERFORMER "Iron Butterfly"
    ISRC 000000000000
    INDEX 00 31:23:10
    INDEX 01 31:25:58
  TRACK 11 AUDIO
    TITLE "In The Time Of Our Lives"
    PERFORMER "Iron Butterfly"
    ISRC 000000000000
    INDEX 00 34:16:30
    INDEX 01 34:18:40
  TRACK 12 AUDIO
    TITLE "Soul Experience"
    PERFORMER "Iron Butterfly"
    ISRC 000000000000
    INDEX 00 39:07:40
    INDEX 01 39:10:70
  TRACK 13 AUDIO
    TITLE "Real Fright"
    PERFORMER "Iron Butterfly"
    ISRC 000000000000
    INDEX 00 42:02:03
    INDEX 01 42:04:40
  TRACK 14 AUDIO
    TITLE "In The Crowds"
    PERFORMER "Iron Butterfly"
    ISRC 000000000000
    INDEX 00 44:46:55
    INDEX 01 44:49:35
  TRACK 15 AUDIO
    TITLE "It Must Be Love"
    PERFORMER "Iron Butterfly"
    ISRC 000000000000
    INDEX 00 46:59:58
    INDEX 01 47:02:10
  TRACK 16 AUDIO
    TITLE "Belda-Beast"
    PERFORMER "Iron Butterfly"
    ISRC 000000000000
    INDEX 00 51:25:53
    INDEX 01 51:27:63
  TRACK 17 AUDIO
    TITLE "I Can't Help But Deceive You Little Girl"
    PERFORMER "Iron Butterfly"
    ISRC 000000000000
    INDEX 00 57:14:73
    INDEX 01 57:17:45
  TRACK 18 AUDIO
    TITLE "New Day"
    PERFORMER "Iron Butterfly"
    ISRC 000000000000
    INDEX 00 60:48:73
    INDEX 01 60:51:08
  TRACK 19 AUDIO
    TITLE "Stone Believer"
    PERFORMER "Iron Butterfly"
    ISRC 000000000000
    INDEX 00 64:06:68
    INDEX 01 64:08:30
  TRACK 20 AUDIO
    TITLE "Soldier In Our Town"
    PERFORMER "Iron Butterfly"
    ISRC 000000000000
    INDEX 00 68:31:53
    INDEX 01 68:33:40
  TRACK 21 AUDIO
    TITLE "Easy Rider (Let The Wind Pay The Way)"
    PERFORMER "Iron Butterfly"
    ISRC 000000000000
    INDEX 00 71:51:05
    INDEX 01 71:53:25

Код:
Код: Выделить всё
Exact Audio Copy V0.99 prebeta 3 from 28. July 2007

Отчёт EAC об извлечении, выполненном 14. апреля 2008, 0:22

Iron Butterfly / Light And Heavy

Дисковод: Optiarc DVD RW AD-7543A   Adapter: 0  ID: 0

Режим чтения                 : Достоверность
Использование точного потока : Да
Отключение кэша аудио        : Да
Использование указателей C2  : Нет

Коррекция смещения при чтении                     : 48
Способность читать области Lead-in и Lead-out     : Нет
Заполнение пропущенных сэмплов тишиной            : Да
Удаление блоков с тишиной в начале и конце        : Нет
При вычислениях CRC использовались нулевые сэмплы : Нет
Интерфейс                                         : Установленный внешний ASPI-интерфейс

Выходной формат          : Пользовательский кодировщик
Выбранный битрейт        : 1024 kBit/s
Качество                 : Высокий
Добавление ID3-тэга      : Да
Утилита сжатия           : C:\Program Files\Wavpack\wavpack.exe
Дополнительные параметры : -w "Cuesheet=@*.cue" -w "Artist=%a" -w "Title=%t" -w "Album=%g" -w "Year=%y" -w "Track=%n" -w "Genre=%m" -h %s %d

TOC извлечённого CD

     Трек |   Старт  | Длительность | Начальный сектор | Конечный сектор
    ---------------------------------------------------------------------
       1  |  0:00.00 |    4:36.63   |           0      |      20762
       2  |  4:36.63 |    2:46.35   |       20763      |      33247
       3  |  7:23.23 |    2:32.47   |       33248      |      44694
       4  |  9:55.70 |    2:41.08   |       44695      |      56777
       5  | 12:37.03 |    4:04.50   |       56778      |      75127
       6  | 16:41.53 |    2:55.02   |       75128      |      88254
       7  | 19:36.55 |    3:45.05   |       88255      |     105134
       8  | 23:21.60 |    3:09.15   |      105135      |     119324
       9  | 26:31.00 |    4:54.58   |      119325      |     141432
      10  | 31:25.58 |    2:52.57   |      141433      |     154389
      11  | 34:18.40 |    4:52.30   |      154390      |     176319
      12  | 39:10.70 |    2:53.45   |      176320      |     189339
      13  | 42:04.40 |    2:44.70   |      189340      |     201709
      14  | 44:49.35 |    2:12.50   |      201710      |     211659
      15  | 47:02.10 |    4:25.53   |      211660      |     231587
      16  | 51:27.63 |    5:49.57   |      231588      |     257819
      17  | 57:17.45 |    3:33.38   |      257820      |     273832
      18  | 60:51.08 |    3:17.22   |      273833      |     288629
      19  | 64:08.30 |    4:25.10   |      288630      |     308514
      20  | 68:33.40 |    3:19.60   |      308515      |     323499
      21  | 71:53.25 |    3:07.20   |      323500      |     337544

Характеристики диапазона извлечения и сообщения об ошибках

Выбранный диапазон

     Имя файла C:\Downloads\Iron Butterfly\Light And Heavy\Iron Butterfly - Light And Heavy.wav

     Пиковый уровень 100.0 %
     Качество диапазона 100.0 %
     CRC теста 5DB1FBE8
     CRC копии 5DB1FBE8
     Копирование... OK

Ошибок не произошло

AccurateRip: сводка

Трек  1  нет в базе данных
Трек  2  нет в базе данных
Трек  3  нет в базе данных
Трек  4  нет в базе данных
Трек  5  нет в базе данных
Трек  6  нет в базе данных
Трек  7  нет в базе данных
Трек  8  нет в базе данных
Трек  9  нет в базе данных
Трек 10  нет в базе данных
Трек 11  нет в базе данных
Трек 12  нет в базе данных
Трек 13  нет в базе данных
Трек 14  нет в базе данных
Трек 15  нет в базе данных
Трек 16  нет в базе данных
Трек 17  нет в базе данных
Трек 18  нет в базе данных
Трек 19  нет в базе данных
Трек 20  нет в базе данных
Трек 21  нет в базе данных

Ни одного трека нет в базе AccurateRip

Конец отчёта

Код:
Код: Выделить всё
-----------------------

DON'T MODIFY THIS FILE

-----------------------

PERFORMER: auCDtect Task Manager, ver. 1.5.1RC6 build 1.5.1.7
Copyright (c) 2008-2010 y-soft. All rights reserved
http:/y-soft.org

ANALYZER: auCDtect: CD records authenticity detector, version 0.8.2
Copyright (c) 2004 Oleg Berngardt. All rights reserved.
Copyright (c) 2004 Alexander Djourik. All rights reserved.

FILE: Iron Butterfly - Light And Heavy.flac
  Size: 475849199 Hash: 0A1B7C28FD4FADAB70375D4316C62E24 Accuracy: -m0
  Conclusion: CDDA 100%
  Signature: D7CCEF27E36EA0DDBF7AD9781DC0CFA6A86A4671

#777Страна-производитель диска: GB
Год издания диска:1974-1975(2009)
Издатель (лейбл):BGORecords
Номер по каталогу:BGOCD821
Продолжительность:01:13:54
Трек лист:

01. 1975 Overture (73:54)
02. Hard Miseree (0:00)
03. High on a Mountain Top (0:00)
04. Am I Down (0:00)
05. People of the World (0:00)
06. Searchin' Circles (0:00)
07. Pearly Gates (0:00)
08. Lonely Hearts (0:00)
09. Before You Go (0:00)
10. Sun and Steel (0:00)
11. Lightnin' (0:00)
12. Beyond the Milky Way (0:00)
13. Free (0:00)
14. Scion (0:00)
15. Get It Out (0:00)
16. I'm Right, I'm Wrong (0:00)
17. Watch the World Goin' By (0:00)
18. Scorching Beauty (0:00)
Код:
Код: Выделить всё
REM GENRE "Classic Rock"
REM DATE 2008
REM DISCID 02115112
REM COMMENT "ExactAudioCopy v0.99pb5"
PERFORMER "Iron Butterfly"
TITLE "Scorching Beauty/Sun & Steel"
FILE "Iron Butterfly - Scorching Beauty Sun & Steel.flac" WAVE
  TRACK 01 AUDIO
    TITLE "1975 Overture"
    PERFORMER "Iron Butterfly"
    INDEX 01 00:00:00
  TRACK 02 AUDIO
    TITLE "Hard Miseree "
    PERFORMER "Iron Butterfly"
    INDEX 00 04:14:49
    INDEX 01 04:15:18
  TRACK 03 AUDIO
    TITLE "High on a Mountain Top "
    PERFORMER "Iron Butterfly"
    INDEX 00 07:55:44
    INDEX 01 07:56:72
  TRACK 04 AUDIO
    TITLE "Am I Down"
    PERFORMER "Iron Butterfly"
    INDEX 00 11:54:15
    INDEX 01 11:55:20
  TRACK 05 AUDIO
    TITLE "People of the World "
    PERFORMER "Iron Butterfly"
    INDEX 00 17:13:39
    INDEX 01 17:14:72
  TRACK 06 AUDIO
    TITLE "Searchin' Circles"
    PERFORMER "Iron Butterfly"
    INDEX 00 20:36:04
    INDEX 01 20:37:65
  TRACK 07 AUDIO
    TITLE "Pearly Gates"
    PERFORMER "Iron Butterfly"
    INDEX 00 25:11:31
    INDEX 01 25:13:41
  TRACK 08 AUDIO
    TITLE "Lonely Hearts"
    PERFORMER "Iron Butterfly"
    INDEX 00 28:38:51
    INDEX 01 28:39:62
  TRACK 09 AUDIO
    TITLE "Before You Go "
    PERFORMER "Iron Butterfly"
    INDEX 00 31:50:45
    INDEX 01 31:52:18
  TRACK 10 AUDIO
    TITLE "Sun and Steel"
    PERFORMER "Iron Butterfly"
    INDEX 00 37:23:50
    INDEX 01 37:25:26
  TRACK 11 AUDIO
    TITLE "Lightnin' "
    PERFORMER "Iron Butterfly"
    INDEX 00 41:25:02
    INDEX 01 41:27:09
  TRACK 12 AUDIO
    TITLE "Beyond the Milky Way "
    PERFORMER "Iron Butterfly"
    INDEX 00 44:28:12
    INDEX 01 44:29:45
  TRACK 13 AUDIO
    TITLE "Free "
    PERFORMER "Iron Butterfly"
    INDEX 00 48:05:72
    INDEX 01 48:07:67
  TRACK 14 AUDIO
    TITLE "Scion"
    PERFORMER "Iron Butterfly"
    INDEX 00 50:46:24
    INDEX 01 50:48:38
  TRACK 15 AUDIO
    TITLE "Get It Out "
    PERFORMER "Iron Butterfly"
    INDEX 00 55:49:28
    INDEX 01 55:51:31
  TRACK 16 AUDIO
    TITLE "I'm Right, I'm Wrong "
    PERFORMER "Iron Butterfly"
    INDEX 00 58:43:01
    INDEX 01 58:44:35
  TRACK 17 AUDIO
    TITLE "Watch the World Goin' By"
    PERFORMER "Iron Butterfly"
    INDEX 00 64:09:21
    INDEX 01 64:10:22
  TRACK 18 AUDIO
    TITLE "Scorching Beauty"
    PERFORMER "Iron Butterfly"
    INDEX 00 67:07:01
    INDEX 01 67:08:26

Код:
Код: Выделить всё
Exact Audio Copy V0.99 prebeta 5 from 4. May 2009

Отчёт EAC об извлечении, выполненном 18. января 2012, 19:41

Iron Butterfly / Scorching Beauty/Sun & Steel

Дисковод: Optiarc DVD RW AD-7200A   Adapter: 1  ID: 0

Режим чтения                 : Достоверность
Использование точного потока : Да
Отключение кэша аудио        : Да
Использование указателей C2  : Нет

Коррекция смещения при чтении                     : 48
Способность читать области Lead-in и Lead-out     : Нет
Заполнение пропущенных сэмплов тишиной            : Да
Удаление блоков с тишиной в начале и конце        : Нет
При вычислениях CRC использовались нулевые сэмплы : Да
Интерфейс                                         : Установленный внешний ASPI-интерфейс

Выходной формат : Внутренние WAV-операции
Формат сэмплов  : 44.100 Гц; 16 бит; стерео

TOC извлечённого CD

     Трек |   Старт  | Длительность | Начальный сектор | Конечный сектор
    ---------------------------------------------------------------------
       1  |  0:00.00 |    4:15.18   |           0      |      19142
       2  |  4:15.18 |    3:41.54   |       19143      |      35771
       3  |  7:56.72 |    3:58.23   |       35772      |      53644
       4  | 11:55.20 |    5:19.52   |       53645      |      77621
       5  | 17:14.72 |    3:22.68   |       77622      |      92839
       6  | 20:37.65 |    4:35.51   |       92840      |     113515
       7  | 25:13.41 |    3:26.21   |      113516      |     128986
       8  | 28:39.62 |    3:12.31   |      128987      |     143417
       9  | 31:52.18 |    5:33.08   |      143418      |     168400
      10  | 37:25.26 |    4:01.58   |      168401      |     186533
      11  | 41:27.09 |    3:02.36   |      186534      |     200219
      12  | 44:29.45 |    3:38.22   |      200220      |     216591
      13  | 48:07.67 |    2:40.46   |      216592      |     228637
      14  | 50:48.38 |    5:02.68   |      228638      |     251355
      15  | 55:51.31 |    2:53.04   |      251356      |     264334
      16  | 58:44.35 |    5:25.62   |      264335      |     288771
      17  | 64:10.22 |    2:58.04   |      288772      |     302125
      18  | 67:08.26 |    6:45.47   |      302126      |     332547

Характеристики диапазона извлечения и сообщения об ошибках

Выбранный диапазон

     Имя файла H:\Раздачи\Iron Butterfly - Scorching Beauty 1974, Sun And Steel 1975 - 2008\Iron Butterfly - Scorching Beauty Sun & Steel.wav

     Пиковый уровень 100.0 %
     Качество диапазона 100.0 %
     CRC теста EFF8D5A8
     CRC копии EFF8D5A8
     Копирование... OK

Ошибок не произошло

AccurateRip: сводка

Трек  1  точное извлечение (доверие 2)  [4E1F7B7E]
Трек  2  точное извлечение (доверие 2)  [B4AC1801]
Трек  3  точное извлечение (доверие 2)  [E729259C]
Трек  4  точное извлечение (доверие 2)  [8425DC06]
Трек  5  точное извлечение (доверие 2)  [26D0A281]
Трек  6  точное извлечение (доверие 2)  [A07D21C0]
Трек  7  точное извлечение (доверие 2)  [26A59A29]
Трек  8  точное извлечение (доверие 2)  [E1334578]
Трек  9  точное извлечение (доверие 2)  [11E1E9C1]
Трек 10  точное извлечение (доверие 2)  [D8C9CCD0]
Трек 11  точное извлечение (доверие 2)  [F7588D6F]
Трек 12  точное извлечение (доверие 2)  [0BF58A8F]
Трек 13  точное извлечение (доверие 2)  [AFC5EC01]
Трек 14  точное извлечение (доверие 2)  [D72C8B02]
Трек 15  точное извлечение (доверие 2)  [E7D38A28]
Трек 16  точное извлечение (доверие 2)  [8132A23C]
Трек 17  точное извлечение (доверие 2)  [E370F27B]
Трек 18  точное извлечение (доверие 2)  [03ED5338]

Все треки извлечены точно

Конец отчёта

Код:
Код: Выделить всё
-----------------------

DON'T MODIFY THIS FILE

-----------------------

PERFORMER: auCDtect Task Manager, ver. 1.5.1RC6 build 1.5.1.7
Copyright (c) 2008-2010 y-soft. All rights reserved
http:/y-soft.org

ANALYZER: auCDtect: CD records authenticity detector, version 0.8.2
Copyright (c) 2004 Oleg Berngardt. All rights reserved.
Copyright (c) 2004 Alexander Djourik. All rights reserved.

FILE: Iron Butterfly - Scorching Beauty Sun & Steel.flac
  Size: 498431781 Hash: 32454E77A19317ED8B2AD46B38DD9407 Accuracy: -m0
  Conclusion: CDDA 100%
  Signature: B032A48119141E96C849EC5B25661A3F1DEF085C

Правила, инструкции, FAQ!!!
Торрент  Добавлен [30 май 2014, 00:22] Скачать торрент Магнет ссылка
Скачать торрент
35.77 КБ

Статус
Проверен 
 
Размер  3.77 ГБ
Приватный: Нет (DHT включён)
.torrent скачан  4
Как залить торрент? | Как скачать Torrent? | Как смотреть и слушать онлайн?  
Гость
 



Вернуться в Дискографии (Зарубежные)

Кто сейчас на конференции

Сейчас этот форум просматривают: нет зарегистрированных пользователей и гости: 0