Ирина Гришина | Фотограф и визажист. Работа в команде (2015) CamRip


Статистика раздачи
Размер: 1.13 ГБ | Добавлен: 10 фев 2019, 00:51 | Скачали: 0
Сидеров: 20  [0 байт/сек]    Личеров: 3  [0 байт/сек]

Сообщение Гость » 08 окт 2017, 01:55

Ирина Гришина | Фотограф и визажист. Работа в команде (2015) CamRip

Автор (режиссер): Ирина Гришина
Жанр: Фото, визаж, макияж
Продолжительность: 01:41:53
Качество видео: CamRip
Видеокодек: Н.264
Битрейт видео: ~ 1483kbps, 25fps
Размер кадра: 1280x720
Аудиокодек: AAC
Битрейт аудио: 160kbps (VBR), 48000Hz, 2 channels

Описание:
Если перед или во время съемки вы, разговаривая с визажистом, впадаете в анабиоз, от осознания всего масштаба языкового барьера между вами. Если вы устали подчищать неаккуратный мэйк на посте, сводить все оттенки кожи модели к одному и верите, что можно избавиться от этих проблем, но не знаете как, то визажист Ирина Гришина в сотрудничестве с фотографом Полиной Твёрдой записали курс именно для вас.

Здесь вы узнаете, как расставлять приоритеты до и во время фотосессии, чтобы работать на результат, а не аренду студии. Выясните, куда смотреть фотографу, чтобы понять хороший макияж или нет. Разберётесь, зачем для одной съёмки нужен мудборд, а для другой можно отделаться фразой "стрелки в стиле Chanel", а также почему даже самый крутой ретушер не может заменить визажиста. Но и это ещё не всё.
ведущие курса - известные практики;
к участию привлечены модели мирового уровня;
вы узнаете секреты модной съемки, которыми обычно профессионалы не делятся;
материалы курса созданы на основе 7 разных съемок;
вы станете свидетелем сразу двух точек зрения: фотографа и визажиста;
вы увидите новые тренды в работе фотографа и визажиста;
вас ждет незабываемая атмосфера.

P.S. а еще Рене Декарт говорил, что "определив точно значения слов, вы избавите человечество от половины заблуждений". Кажется, на сессии это тоже должно помочь.
General
Complete name : D:\Ирина Гришина - Фотограф и визажист. Работа в команде (2015)\01 ОПРЕДЕЛЕНИЕ ЗАДАЧ\1 Вступление.mp4
Format : MPEG-4
Format profile : Base Media / Version 2
Codec ID : mp42
File size : 42.3 MiB
Duration : 3mn 35s
Overall bit rate mode : Variable
Overall bit rate : 1 647 Kbps
Encoded date : UTC 2015-01-29 12:58:38
Tagged date : UTC 2015-01-29 12:58:38

Video
ID : 1
Format : AVC
Format/Info : Advanced Video Codec
Format profile :
Format settings, CABAC : Yes
Format settings, ReFrames : 4 frames
Codec ID : avc1
Codec ID/Info : Advanced Video Coding
Duration : 3mn 35s
Bit rate : 1 483 Kbps
Width : 1 280 pixels
Height : 720 pixels
Display aspect ratio : 16:9
Frame rate mode : Constant
Frame rate : 25.000 fps
Color space : YUV
Chroma subsampling : 4:2:0
Bit depth : 8 bits
Scan type : Progressive
Bits/(Pixel*Frame) : 0.064
Stream size : 38.1 MiB (90%)
Writing library : x264 core 142 r11 24e4fed
Encoding settings : cabac=1 / ref=3 / deblock=1:0:0 / analyse=0x3:0x113 / me=hex / subme=7 / psy=1 / psy_rd=1.00:0.00 / mixed_ref=1 / me_range=16 / chroma_me=1 / trellis=1 / 8x8dct=1 / cqm=0 / deadzone=21,11 / fast_pskip=1 / chroma_qp_offset=-2 / threads=48 / lookahead_threads=5 / sliced_threads=0 / nr=0 / decimate=1 / interlaced=0 / bluray_compat=0 / stitchable=1 / constrained_intra=0 / bframes=3 / b_pyramid=2 / b_adapt=1 / b_bias=0 / direct=1 / weightb=1 / open_gop=0 / weightp=2 / keyint=infinite / keyint_min=25 / scenecut=40 / intra_refresh=0 / rc_lookahead=40 / rc=crf / mbtree=1 / crf=20.0 / qcomp=0.60 / qpmin=5 / qpmax=69 / qpstep=4 / vbv_maxrate=2750 / vbv_bufsize=7500 / crf_max=0.0 / nal_hrd=none / filler=0 / ip_ratio=1.40 / aq=1:1.00
Encoded date : UTC 2015-01-29 12:58:38
Tagged date : UTC 2015-01-29 12:58:38
Color primaries : BT.709
Transfer characteristics : BT.709
Matrix coefficients : BT.709

Audio
ID : 2
Format : AAC
Format/Info : Advanced Audio Codec
Format profile : LC
Codec ID : 40
Duration : 3mn 35s
Bit rate mode : Variable
Bit rate : 160 Kbps
Channel count : 2 channels
Channel positions : Front: L R
Sampling rate : 48.0 KHz
Compression mode : Lossy
Stream size : 4.11 MiB (10%)
Encoded date : UTC 2015-01-29 12:58:38
Tagged date : UTC 2015-01-29 12:58:38
Скриншоты:


Время раздачи: С 10:00 до 00:00
Правила, инструкции, FAQ!!!
Торрент  Добавлен [10 фев 2019, 00:51] Скачать торрент Магнет ссылка
Скачать торрент
27.34 КБ

Статус
Обновлён Admin (10 фев 2019, 00:51)
 
Размер  1.13 ГБ
Приватный: Нет (DHT включён)
.torrent скачан  0
Как залить торрент? | Как скачать Torrent? | Как смотреть и слушать онлайн?  
Гость
 



Сообщение tasandra_09 » 09 фев 2019, 14:38

Добрый день.
Пишет,что торрент не правильно закодирован.
...это можно как-то исправить?
Спасибо.
tasandra_09
Зарегистрированные пользователи
 
Раздал: 0 байт
Скачал: 15.81 ГБ
Ратио: Leech.
Сообщения: 2
Стаж: 09 фев 2019, 14:21


Сообщение Admin » 10 фев 2019, 00:53

Приветствую, обновил торрент-файл, такое бывает часто при переездах на новые сервера, спасибо за сообщение.
Admin
Администратор
 
Раздал: 277.92 ГБ
Скачал: 159.04 ГБ
Ратио: 1.747
Сообщения: 18
Стаж: 15 окт 2012, 22:09




Вернуться в Фотография, Видео

Кто сейчас на конференции

Сейчас этот форум просматривают: нет зарегистрированных пользователей и гости: 0