IQ - Дискография (1983-2009) [FLAC|Lossless]<Neo-Prog Rock>


Статистика раздачи
Размер: 4.61 ГБ | Добавлен: 16 мар 2014, 00:03 | Скачали: 0
Сидеров: 0  [0 байт/сек]    Личеров: 215  [0 байт/сек]

Сообщение Гость » 16 мар 2014, 00:03

IQ - Дискография (1983-2009)

Год: 1983-2009
Жанр: Neo-Prog Rock
Продолжительность: 12:01:28 (11CD)

Кодек: FLAC (tracks+.cue)
Битрейт: Lossless
#777Giant Electric Pea
GEPCD1010 CD Album Reissue
UK 1994
Tracklist:
1 - The Last Human Gateway (19:59)
2 - Through The Corridors (02:37)
3 - Awake And Nervous (07:45)
4 - My Baby Treats Me Right 'Cos I'm A Hard-Lovin' Man All Night Long (01:46)
5 - The Enemy Smacks (13:52)
6 - Just Changing Hands (10:17)
Total time:00:56:18
EAC extraction logfile from 10. August 2006, 19:47 for CD
IQ / Tales from the Lush Attic

Used drive : TOSHIBA DVD-ROM SD-M1912 Adapter: 3 ID: 1
Read mode : Secure with NO C2, accurate stream, disable cache
Read offset correction : 12
Overread into Lead-In and Lead-Out : No

Used output format : Internal WAV Routines
44.100 Hz; 16 Bit; Stereo

Other options :
Fill up missing offset samples with silence : Yes
Delete leading and trailing silent blocks : No
Installed external ASPI interface

Range status and errors
Selected range
Filename CDImage.wav

Peak level 99.6 %
Range quality 100.0 %
CRC DB5067CF
Copy OK

No errors occured

End of status report
AUDIOCHECKER v2.0 beta (build 457) - by Dester -
~~~~~~~~~~~~~~~~~~~~~~~~~~~~~~~~~~
-=== DO NOT EDIT THIS FILE! ===-

Path: ...\1983 - Tales From The Lush Attic

001 -=- 01 The Last Human Gateway.flac -=- CDDA (100%)
002 -=- 02 Through The Corridors.flac -=- CDDA (100%)
003 -=- 03 Awake And Nervous.flac -=- CDDA (100%)
004 -=- 04 My Baby Treats Me Right 'Cos I'm A Hard-Lovin' Man All Night Long.flac -=- CDDA (100%)
005 -=- 05 The Enemy Smacks.flac -=- CDDA (100%)
006 -=- 06 Just Changing Hands.flac -=- CDDA (100%)

Summary 100,00% CDDA

98423348
#777Giant Electric Pea
GEPCD1011 CD Album Reissue
UK 1994
Tracklist:
1 - Outer Limits (08:14)
2 - The Wake (04:11)
3 - The Magic Roundabout (08:19)
4 - Corners (06:21)
5 - Widow's Peak (09:13)
6 - The Thousand Days (05:12)
7 - Headlong (07:30)
8 - Dans Le Parc Du Chateau Noir (Bonus Track) (07:40)
9 - The Thousand Days (Demo, Bonus Track) (03:57)
10 - The Magic Roundabout (Demo, Bonus Track) (06:27)
Total time:01:07:08
Exact Audio Copy V0.99 prebeta 4 from 23. January 2008

Отчёт EAC об извлечении, выполненном 26. июня 2008, 0:10

IQ / The Wake

Дисковод: SONY CD-RW CRX230E Adapter: 1 ID: 0

Режим чтения : Достоверность
Использование точного потока : Да
Отключение кэша аудио : Да
Использование указателей C2 : Нет

Коррекция смещения при чтении : 6
Способность читать области Lead-in и Lead-out : Нет
Заполнение пропущенных сэмплов тишиной : Да
Удаление блоков с тишиной в начале и конце : Нет
При вычислениях CRC использовались нулевые сэмплы : Нет
Интерфейс : Встроенный Win32-интерфейс для Win NT/2000

Выходной формат : Пользовательский кодировщик
Выбранный битрейт : 768 kBit/s
Качество : Высокий
Добавление ID3-тэга : Нет
Утилита сжатия : C:\Program Files\Exact Audio Copy\FLAC\FLAC.EXE
Дополнительные параметры : -6 -V -T "ARTIST=%a" -T "TITLE=%t" -T "ALBUM=%g" -T "DATE=%y" -T "TRACKNUMBER=%n" -T "GENRE=%m" -T "COMMENT=%e" %s -o %d

TOC извлечённого CD

Трек | Старт | Длительность | Начальный сектор | Конечный сектор
---------------------------------------------------------------------
1 | 0:00.32 | 8:14.08 | 32 | 37089
2 | 8:14.40 | 4:11.70 | 37090 | 55984
3 | 12:26.35 | 8:19.50 | 55985 | 93459
4 | 20:46.10 | 6:21.22 | 93460 | 122056
5 | 27:07.32 | 9:13.15 | 122057 | 163546
6 | 36:20.47 | 5:12.28 | 163547 | 186974
7 | 41:33.00 | 7:30.40 | 186975 | 220764
8 | 49:03.40 | 7:40.12 | 220765 | 255276
9 | 56:43.52 | 3:57.40 | 255277 | 273091
10 | 60:41.17 | 6:27.58 | 273092 | 302174

Характеристики диапазона извлечения и сообщения об ошибках

Выбранный диапазон

Имя файла D:\Arhiv Music\Wav Converter\IQ - The Wake.wav

Пиковый уровень 99.3 %
Качество диапазона 100.0 %
CRC копии E71E70D2
Копирование... OK

Ошибок не произошло

Конец отчёта
AUDIOCHECKER v2.0 beta (build 457) - by Dester -
~~~~~~~~~~~~~~~~~~~~~~~~~~~~~~~~~~
-=== DO NOT EDIT THIS FILE! ===-

Path: ...\1985 - The Wake

001 -=- 01 Outer Limits.flac -=- CDDA (100%)
002 -=- 02 The Wake.flac -=- CDDA (99%)
003 -=- 03 The Magic Roundabout.flac -=- CDDA (100%)
004 -=- 04 Corners.flac -=- CDDA (100%)
005 -=- 05 Widow's Peak.flac -=- CDDA (100%)
006 -=- 06 The Thousand Days.flac -=- CDDA (100%)
007 -=- 07 Headlong.flac -=- CDDA (100%)
008 -=- 08 Dans Le Parc Du Chateau Noir (Bonus Track).flac -=- CDDA (100%)
009 -=- 09 The Thousand Days (Demo, Bonus Track).flac -=- CDDA (100%)
010 -=- 10 The Magic Roundabout (Demo, Bonus Track).flac -=- CDDA (100%)

Summary 99,90% CDDA

46015652
#777Mercury
832 141-2 CD Album
Netherlands 1987
Tracklist:
1 - No Love Lost (06:02)
2 - Promises (As The Years Go By) (04:34)
3 - Nomzamo (07:00)
4 - Still Life (05:57)
5 - Passing Strangers (03:47)
6 - Human Nature (09:41)
7 - Screaming (04:07)
8 - Common Ground (06:59)
9 - Colurflow (05:26)
10 - No Love Lost (Piano/Vocal Version) (04:12)
11 - Common Ground (Live) (06:34)
Total time:01:04:26
Exact Audio Copy V0.99 prebeta 3 from 28. July 2007

EAC extraction logfile from 27. December 2007, 12:28

IQ / Nomzamo

Used drive : LITE-ON DVD SOHD-167T Adapter: 0 ID: 0

Read mode : Secure
Utilize accurate stream : Yes
Defeat audio cache : Yes
Make use of C2 pointers : No

Read offset correction : 12
Overread into Lead-In and Lead-Out : No
Fill up missing offset samples with silence : Yes
Delete leading and trailing silent blocks : No
Null samples used in CRC calculations : Yes
Used interface : Installed external ASPI interface

Used output format : Internal WAV Routines
Sample format : 44.100 Hz; 16 Bit; Stereo

TOC of the extracted CD

Track | Start | Length | Start sector | End sector
---------------------------------------------------------
1 | 0:00.00 | 6:02.60 | 0 | 27209
2 | 6:02.60 | 4:34.35 | 27210 | 47794
3 | 10:37.20 | 7:00.55 | 47795 | 79349
4 | 17:38.00 | 5:57.72 | 79350 | 106196
5 | 23:35.72 | 3:47.55 | 106197 | 123276
6 | 27:23.52 | 9:41.48 | 123277 | 166899
7 | 37:05.25 | 4:07.35 | 166900 | 185459
8 | 41:12.60 | 6:59.65 | 185460 | 216949
9 | 48:12.50 | 5:26.60 | 216950 | 241459
10 | 53:39.35 | 4:12.20 | 241460 | 260379
11 | 57:51.55 | 6:34.30 | 260380 | 289959

Range status and errors

Selected range

Filename D:\IQ\1987 - Nomzamo\IQ - Nomzamo.wav

Peak level 98.0 %
Range quality 100.0 %
Copy CRC F8F306A6
Copy OK

No errors occurred

AccurateRip summary

Track 1 not present in database
Track 2 not present in database
Track 3 not present in database
Track 4 not present in database
Track 5 not present in database
Track 6 not present in database
Track 7 not present in database
Track 8 not present in database
Track 9 not present in database
Track 10 not present in database
Track 11 not present in database

None of the tracks are present in the AccurateRip database

End of status report
AUDIOCHECKER v2.0 beta (build 457) - by Dester -
~~~~~~~~~~~~~~~~~~~~~~~~~~~~~~~~~~
-=== DO NOT EDIT THIS FILE! ===-

Path: ...\1987 - Nomzamo

001 -=- 01 No Love Lost.flac -=- CDDA (100%)
002 -=- 02 Promises (As The Years Go By).flac -=- CDDA (99%)
003 -=- 03 Nomzamo.flac -=- CDDA (100%)
004 -=- 04 Still Life.flac -=- CDDA (100%)
005 -=- 05 Passing Strangers.flac -=- CDDA (100%)
006 -=- 06 Human Nature.flac -=- CDDA (100%)
007 -=- 07 Screaming.flac -=- CDDA (100%)
008 -=- 08 Common Ground.flac -=- CDDA (100%)
009 -=- 09 Colurflow.flac -=- CDDA (100%)
010 -=- 10 No Love Lost (Piano-Vocal Version).flac -=- CDDA (100%)
011 -=- 11 Common Ground (Live).flac -=- CDDA (100%)

Summary 99,91% CDDA

218353492
#777CD Squawk Records / Vertigo
836 429-2 (1989) (only 8 tracks)
CD Giant Electric Pea
GEPCD 1013 (1995) (with bonus-track 9)
Tracklist:
1 - War Heroes (06:26)
2 - Drive On (04:57)
3 - Nostalgia (02:22)
4 - Falling Apart At The Seams (07:47)
5 - Sold On You (04:40)
6 - Through My Fingers (05:30)
7 - Wurensh (09:37)
8 - Nothing At All (04:46)
9 - Nothing At All (Live) 04:43)
Total time:00:50:52
EAC extraction logfile from 10. August 2006, 20:03 for CD
IQ / Are You Sitting Comfortably?

Used drive : TOSHIBA DVD-ROM SD-M1912 Adapter: 3 ID: 1
Read mode : Secure with NO C2, accurate stream, disable cache
Read offset correction : 12
Overread into Lead-In and Lead-Out : No

Used output format : Internal WAV Routines
44.100 Hz; 16 Bit; Stereo

Other options :
Fill up missing offset samples with silence : Yes
Delete leading and trailing silent blocks : No
Installed external ASPI interface

Range status and errors
Selected range
Filename CDImage.wav

Peak level 100.0 %
Range quality 100.0 %
CRC 71C0D919
Copy OK

No errors occured

End of status report
AUDIOCHECKER v2.0 beta (build 457) - by Dester -
~~~~~~~~~~~~~~~~~~~~~~~~~~~~~~~~~~
-=== DO NOT EDIT THIS FILE! ===-

Path: ...\1989 - Are You Sitting Comfortably

001 -=- 01 War Heroes.flac -=- CDDA (100%)
002 -=- 02 Drive On.flac -=- CDDA (99%)
003 -=- 03 Nostalgia.flac -=- CDDA (100%)
004 -=- 04 Falling Apart At The Seams.flac -=- CDDA (100%)
005 -=- 05 Sold On You.flac -=- CDDA (100%)
006 -=- 06 Through My Fingers.flac -=- CDDA (100%)
007 -=- 07 Wurensh.flac -=- CDDA (100%)
008 -=- 08 Nothing At All.flac -=- CDDA (100%)
009 -=- 09 Nothing At All (Live).flac -=- CDDA (100%)

Summary 99,89% CDDA

229022420
#777iqcd 091201/01
Tracklist:
1 - It All Stops Here (07:41)
2 - Sera Sera (02:44)
3 - Intelligence Quotient (07:33)
4 - Dans Le Parc Du Chateau Noir (07:40)
5 - Medley (14:27)
6 - Common Ground (06:58)
7 - Promises (07:07)
8 - Wurensh (08:35)
Total time:01:02:49
Exact Audio Copy V0.99 prebeta 4 from 23. January 2008

EAC extraction logfile from 31. March 2008, 13:21

IQ / J'ai Pollette D'arnu

Used drive : TEAC DV-W518GM Adapter: 0 ID: 1

Read mode : Secure
Utilize accurate stream : Yes
Defeat audio cache : Yes
Make use of C2 pointers : No

Read offset correction : 6
Overread into Lead-In and Lead-Out : No
Fill up missing offset samples with silence : Yes
Delete leading and trailing silent blocks : No
Null samples used in CRC calculations : No
Used interface : Native Win32 interface for Win NT & 2000

Used output format : Internal WAV Routines
Sample format : 44.100 Hz; 16 Bit; Stereo

TOC of the extracted CD

Track | Start | Length | Start sector | End sector
---------------------------------------------------------
1 | 0:00.32 | 7:41.60 | 32 | 34666
2 | 7:42.17 | 2:44.63 | 34667 | 47029
3 | 10:27.05 | 7:33.52 | 47030 | 81056
4 | 18:00.57 | 7:40.25 | 81057 | 115581
5 | 25:41.07 | 14:27.13 | 115582 | 180619
6 | 40:08.20 | 6:58.55 | 180620 | 212024
7 | 47:07.00 | 7:07.00 | 212025 | 244049
8 | 54:14.00 | 8:35.67 | 244050 | 282741

Range status and errors

Selected range

Filename C:\EAC\IQ - J'ai Pollette D'arnu.wav

Peak level 100.0 %
Range quality 100.0 %
Copy CRC 9F037EB1
Copy OK

No errors occurred

End of status report
AUDIOCHECKER v2.0 beta (build 457) - by Dester -
~~~~~~~~~~~~~~~~~~~~~~~~~~~~~~~~~~
-=== DO NOT EDIT THIS FILE! ===-

Path: ...\1991 - J'ai Pollette D'arnu

001 -=- 01 It All Stops Here.flac -=- CDDA (100%)
002 -=- 02 Sera Sera.flac -=- CDDA (100%)
003 -=- 03 Intelligence Quotient.flac -=- CDDA (100%)
004 -=- 04 Dans Le Parc Du Chateau Noir.flac -=- CDDA (100%)
005 -=- 05 Medley.flac -=- CDDA (100%)
006 -=- 06 Common Ground.flac -=- CDDA (100%)
007 -=- 07 Promises.flac -=- CDDA (100%)
008 -=- 08 Wurensh.flac -=- CDDA (100%)

Summary 100,00% CDDA

171015204
#777Giant Electric Pea
GEPCD 1006 CD Album
UK 1993
Tracklist:
1 - The Darkest Hour (10:52)
2 - Fading Senses (06:35)
3 - Out of Nowhere (05:09)
4 - Further Away (14:30)
5 - Leap of Faith (07:21)
6 - Came Down (05:56)
Total time:00:50:26
EAC extraction logfile from 11. September 2007, 11:31 for CD
IQ / Ever

Used drive : PIONEER DVD-RW DVR-112D Adapter: 0 ID: 0
Read mode : Secure with NO C2, accurate stream, disable cache
Read offset correction : 48
Overread into Lead-In and Lead-Out : No

Used output format : C:\Program Files\Exact Audio Copy\flac-1.1.4-win\bin\flac.exe (User Defined Encoder)
128 kBit/s
Additional command line options : -8 -V -T "ARTIST=%a" -T "TITLE=%t" -T "ALBUM=%g" -T "DATE=%y" -T "TRACKNUMBER=%n" -T "GENRE=%m" -T "COMMENT=EAC Flac 1.1.4 -8" %s

Other options :
Fill up missing offset samples with silence : Yes
Delete leading and trailing silent blocks : No
Installed external ASPI interface

Track 1
Filename C:\Program Files\Exact Audio Copy\IQ - 1993 - Ever\01 - The Darkest Hour.wav

Pre-gap length 0:00:02.44

Peak level 99.6 %
Track quality 99.9 %
Test CRC C618E1FD
Copy CRC C618E1FD
Copy OK

Track 2
Filename C:\Program Files\Exact Audio Copy\IQ - 1993 - Ever\02 - Fading Senses.wav

Pre-gap length 0:00:00.96

Peak level 100.0 %
Track quality 100.0 %
Test CRC 05F65096
Copy CRC 05F65096
Copy OK

Track 3
Filename C:\Program Files\Exact Audio Copy\IQ - 1993 - Ever\03 - Out of Nowhere.wav

Peak level 99.2 %
Track quality 100.0 %
Test CRC D285146C
Copy CRC D285146C
Copy OK

Track 4
Filename C:\Program Files\Exact Audio Copy\IQ - 1993 - Ever\04 - Further Away.wav

Pre-gap length 0:00:01.53

Peak level 97.9 %
Track quality 99.9 %
Test CRC D738D95C
Copy CRC D738D95C
Copy OK

Track 5
Filename C:\Program Files\Exact Audio Copy\IQ - 1993 - Ever\05 - Leap of Faith.wav

Pre-gap length 0:00:01.46

Peak level 85.5 %
Track quality 100.0 %
Test CRC 423EF4A3
Copy CRC 423EF4A3
Copy OK

Track 6
Filename C:\Program Files\Exact Audio Copy\IQ - 1993 - Ever\06 - Came Down.wav

Peak level 84.3 %
Track quality 100.0 %
Test CRC E09646CD
Copy CRC E09646CD
Copy OK

No errors occured

End of status report
AUDIOCHECKER v2.0 beta (build 457) - by Dester -
~~~~~~~~~~~~~~~~~~~~~~~~~~~~~~~~~~
-=== DO NOT EDIT THIS FILE! ===-

Path: ...\1993 - Ever

001 -=- 01 - The Darkest Hour.flac -=- CDDA (100%)
002 -=- 02 - Fading Senses.flac -=- CDDA (100%)
003 -=- 03 - Out of Nowhere.flac -=- CDDA (100%)
004 -=- 04 - Further Away.flac -=- CDDA (100%)
005 -=- 05 - Leap of Faith.flac -=- CDDA (100%)
006 -=- 06 - Came Down.flac -=- CDDA (100%)

Summary 100,00% CDDA

196194292
#777Giant Electric Pea
GEPCD 1021 SPV GmbH GER-SPV 095 28532CD CD
UK 1997
Tracklist:
CD1:
1 - Overture (04:38)
2 - Provider (01:36)
3 - Subterranea (05:53)
4 - Sleepless Incidental (06:23)
5 - Failsafe (08:57)
6 - Speak My Name (03:35)
7 - Tunnel Vision (07:24)
8 - Infernal Chorus (05:10)
9 - King of Fools (02:02)
10 - The Sense in Sanity (04:48)
11 - State of Mine (01:59)
Total time:00:52:28
CD2:
1 - Laid Low (01:29)
2 - Breathtaker (06:04)
3 - Capricorn (05:16)
4 - The Other Side (02:22)
5 - Unsolid Ground (05:04)
6 - Somewhere in Time (07:11)
7 - High Waters (02:43)
8 - The Narrow Margin (20:00)
Total time:00:50:11
Exact Audio Copy V0.99 prebeta 3 from 28. July 2007

Отчёт EAC об извлечении, выполненном 27. июня 2008, 19:50

IQ / Subterranea (Disc 1)

Дисковод: _NEC DVD_RW ND-3550A Adapter: 1 ID: 0

Режим чтения : Достоверность
Использование точного потока : Да
Отключение кэша аудио : Да
Использование указателей C2 : Нет

Коррекция смещения при чтении : 48
Способность читать области Lead-in и Lead-out : Нет
Заполнение пропущенных сэмплов тишиной : Да
Удаление блоков с тишиной в начале и конце : Нет
При вычислениях CRC использовались нулевые сэмплы : Да
Интерфейс : Встроенный Win32-интерфейс для Win NT/2000

Выходной формат : Внутренние WAV-операции
Формат сэмплов : 44.100 Гц; 16 бит; стерео

TOC извлечённого CD

Трек | Старт | Длительность | Начальный сектор | Конечный сектор
---------------------------------------------------------------------
1 | 0:00.00 | 4:38.45 | 0 | 20894
2 | 4:38.45 | 1:36.37 | 20895 | 28131
3 | 6:15.07 | 5:53.20 | 28132 | 54626
4 | 12:08.27 | 6:23.20 | 54627 | 83371
5 | 18:31.47 | 8:57.43 | 83372 | 123689
6 | 27:29.15 | 3:35.00 | 123690 | 139814
7 | 31:04.15 | 7:24.40 | 139815 | 173154
8 | 38:28.55 | 5:10.00 | 173155 | 196404
9 | 43:38.55 | 2:02.62 | 196405 | 205616
10 | 45:41.42 | 4:48.00 | 205617 | 227216
11 | 50:29.42 | 1:59.20 | 227217 | 236161

Характеристики диапазона извлечения и сообщения об ошибках

Выбранный диапазон

Имя файла M:\Users\MusiKc\Desktop\IQ - Subterranea (Disc 1).wav

Пиковый уровень 97.9 %
Качество диапазона 100.0 %
CRC копии 8AC98920
Копирование... OK

Ошибок не произошло

AccurateRip: сводка

Трек 1 точность не определена (достоверность 6) [58240FDC], AccurateRip вернул [C80E514F]
Трек 2 точность не определена (достоверность 6) [C899B7B6], AccurateRip вернул [73A38800]
Трек 3 точность не определена (достоверность 6) [A67E91A4], AccurateRip вернул [A526366E]
Трек 4 точность не определена (достоверность 6) [A7B1EA5B], AccurateRip вернул [ED10C909]
Трек 5 точность не определена (достоверность 6) [30D2ADD2], AccurateRip вернул [6BCA1983]
Трек 6 точность не определена (достоверность 6) [251817BA], AccurateRip вернул [96729630]
Трек 7 точность не определена (достоверность 6) [B533EF0F], AccurateRip вернул [E47B8453]
Трек 8 точность не определена (достоверность 6) [964AD2B5], AccurateRip вернул [4626BF69]
Трек 9 точность не определена (достоверность 6) [D745403B], AccurateRip вернул [F203BED6]
Трек 10 точность не определена (достоверность 6) [21BE6A09], AccurateRip вернул [EC549E44]
Трек 11 точность не определена (достоверность 6) [2B38D19D], AccurateRip вернул [AFA717F5]

Ни один трек не прошёл проверки на точность
В вашей базе может быть иной вариант штамповки диска

Конец отчёта
AUDIOCHECKER v2.0 beta (build 457) - by Dester -
~~~~~~~~~~~~~~~~~~~~~~~~~~~~~~~~~~
-=== DO NOT EDIT THIS FILE! ===-

Path: ...\Disc 1

001 -=- 01 Overture.flac -=- CDDA (100%)
002 -=- 02 Provider.flac -=- CDDA (100%)
003 -=- 03 Subterranea.flac -=- CDDA (100%)
004 -=- 04 Sleepless Incidental.flac -=- CDDA (100%)
005 -=- 05 Failsafe.flac -=- CDDA (100%)
006 -=- 06 Speak My Name.flac -=- CDDA (43%)
007 -=- 07 Tunnel Vision.flac -=- CDDA (100%)
008 -=- 08 Infernal Chorus.flac -=- CDDA (100%)
009 -=- 09 King of Fools.flac -=- CDDA (100%)
010 -=- 10 The Sense in Sanity.flac -=- CDDA (100%)
011 -=- 11 State of Mine.flac -=- CDDA (100%)

Summary 94,82% CDDA

168350436
Exact Audio Copy V0.99 prebeta 3 from 28. July 2007

Отчёт EAC об извлечении, выполненном 27. июня 2008, 20:10

IQ / Subterranea (Disc 2)

Дисковод: _NEC DVD_RW ND-3550A Adapter: 1 ID: 0

Режим чтения : Достоверность
Использование точного потока : Да
Отключение кэша аудио : Да
Использование указателей C2 : Нет

Коррекция смещения при чтении : 48
Способность читать области Lead-in и Lead-out : Нет
Заполнение пропущенных сэмплов тишиной : Да
Удаление блоков с тишиной в начале и конце : Нет
При вычислениях CRC использовались нулевые сэмплы : Да
Интерфейс : Встроенный Win32-интерфейс для Win NT/2000

Выходной формат : Внутренние WAV-операции
Формат сэмплов : 44.100 Гц; 16 бит; стерео

TOC извлечённого CD

Трек | Старт | Длительность | Начальный сектор | Конечный сектор
---------------------------------------------------------------------
1 | 0:00.00 | 1:29.40 | 0 | 6714
2 | 1:29.40 | 6:04.32 | 6715 | 34046
3 | 7:33.72 | 5:16.40 | 34047 | 57786
4 | 12:50.37 | 2:22.13 | 57787 | 68449
5 | 15:12.50 | 5:04.12 | 68450 | 91261
6 | 20:16.62 | 7:11.20 | 91262 | 123606
7 | 27:28.07 | 2:43.23 | 123607 | 135854
8 | 30:11.30 | 20:00.32 | 135855 | 225886

Характеристики диапазона извлечения и сообщения об ошибках

Выбранный диапазон

Имя файла M:\Users\MusiKc\Desktop\IQ - Subterranea (Disc 2).wav

Пиковый уровень 97.9 %
Качество диапазона 99.9 %
CRC копии 6B9B754E
Копирование... OK

Ошибок не произошло

AccurateRip: сводка

Трек 1 точность не определена (достоверность 6) [263B979E], AccurateRip вернул [EC845EB9]
Трек 2 точность не определена (достоверность 6) [342E5073], AccurateRip вернул [5FDB1593]
Трек 3 точность не определена (достоверность 6) [F7933026], AccurateRip вернул [9F23A9A7]
Трек 4 точность не определена (достоверность 6) [A2731BC1], AccurateRip вернул [0EB9F76E]
Трек 5 точность не определена (достоверность 6) [3EDBAFAD], AccurateRip вернул [7A1B3EF9]
Трек 6 точность не определена (достоверность 6) [5E482745], AccurateRip вернул [64B6DF5F]
Трек 7 точность не определена (достоверность 6) [4EFFC998], AccurateRip вернул [CE32DA0D]
Трек 8 точность не определена (достоверность 6) [1CA9A5AF], AccurateRip вернул [E3AB3F9F]

Ни один трек не прошёл проверки на точность
В вашей базе может быть иной вариант штамповки диска

Конец отчёта
AUDIOCHECKER v2.0 beta (build 457) - by Dester -
~~~~~~~~~~~~~~~~~~~~~~~~~~~~~~~~~~
-=== DO NOT EDIT THIS FILE! ===-

Path: ...\Disc 2

001 -=- 01 Laid Low.flac -=- MPEG (90%)
002 -=- 02 Breathtaker.flac -=- CDDA (100%)
003 -=- 03 Capricorn.flac -=- CDDA (100%)
004 -=- 04 The Other Side.flac -=- CDDA (100%)
005 -=- 05 Unsolid Ground.flac -=- CDDA (100%)
006 -=- 06 Somewhere in Time.flac -=- CDDA (100%)
007 -=- 07 High Waters.flac -=- CDDA (100%)
008 -=- 08 The Narrow Margin.flac -=- CDDA (100%)

Summary 88,75% CDDA

77824788
#777IQ Self production
MIMP00000002
1998 UK
Tracklist:
CD1:
1 - Capital Letters (In Surgical Spirit Land) (03:49)
2 - About Lake Five (05:26)
3 - Intelligence Quotient (08:18)
4 - For Christ's Sake (05:17)
5 - Barbell Is In (04:53)
6 - Fascination (07:03)
7 - For The Taking (04:33)
8 - It All Stops Here (07:53)
9 - Eloko Bella Neechi (05:16)
Total time:00:52:31
CD2:
1 - Capital Letters (In Surgical Spirit Land) (3:46)
2 - About Lake Five [5:01)
3 - Intelligent Quotient (6:55)
4 - For Christ's Sake (5:05)
5 - Barbell Is In (5:31)
6 - Fascination (5:56)
7 - For The Taking (4:17)
8 - It All Stops Here (6:57)
Total time:00:43:31
Exact Audio Copy V0.99 prebeta 4 from 23. January 2008

Отчёт EAC об извлечении, выполненном 15. января 2009, 22:05

IQ / Seven Stories Into Ninety Eight

Дисковод: ASUS DRW-1814BLT Adapter: 0 ID: 1

Режим чтения : Достоверность
Использование точного потока : Да
Отключение кэша аудио : Да
Использование указателей C2 : Нет

Коррекция смещения при чтении : 6
Способность читать области Lead-in и Lead-out : Нет
Заполнение пропущенных сэмплов тишиной : Да
Удаление блоков с тишиной в начале и конце : Нет
При вычислениях CRC использовались нулевые сэмплы : Нет
Интерфейс : Встроенный Win32-интерфейс для Win NT/2000

Выходной формат : Внутренние WAV-операции
Формат сэмплов : 44.100 Гц; 16 бит; стерео
Смещение при сжатии : 0

TOC извлечённого CD

Трек | Старт | Длительность | Начальный сектор | Конечный сектор
---------------------------------------------------------------------
1 | 0:00.07 | 3:49.10 | 7 | 17191
2 | 3:49.17 | 5:26.70 | 17192 | 41711
3 | 9:16.12 | 8:18.23 | 41712 | 79084
4 | 17:34.35 | 5:17.25 | 79085 | 102884
5 | 22:51.60 | 4:53.27 | 102885 | 124886
6 | 27:45.12 | 7:03.30 | 124887 | 156641
7 | 34:48.42 | 4:33.38 | 156642 | 177154
8 | 39:22.05 | 7:53.50 | 177155 | 212679
9 | 47:15.55 | 5:16.10 | 212680 | 236389

Характеристики диапазона извлечения и сообщения об ошибках

Выбранный диапазон

Имя файла D:\Documents and Settings\wamp-d\Рабочий стол\IQ - Seven Stories Into Ninety Eight cd 1\IQ - Seven Stories Into Ninety Eight.wav

Пиковый уровень 99.7 %
Качество диапазона 100.0 %
CRC копии AC0D47A4
Копирование... OK

Ошибок не произошло

Конец отчёта
AUDIOCHECKER v2.0 beta (build 457) - by Dester -
~~~~~~~~~~~~~~~~~~~~~~~~~~~~~~~~~~
-=== DO NOT EDIT THIS FILE! ===-

Path: ...\IQ - Seven Stories Into Ninety Eight cd 1

001 -=- 01 Capital Letters (In Surgical Spirit Land).flac -=- CDDA (100%)
002 -=- 02 About Lake Five.flac -=- CDDA (100%)
003 -=- 03 Intelligence Quotient.flac -=- CDDA (100%)
004 -=- 04 For Christ's Sake.flac -=- CDDA (100%)
005 -=- 05 Barbell Is In.flac -=- CDDA (100%)
006 -=- 06 Fascination.flac -=- CDDA (100%)
007 -=- 07 For The Taking.flac -=- CDDA (100%)
008 -=- 08 It All Stops Here.flac -=- CDDA (100%)
009 -=- 09 Eloko Bella Neechi.flac -=- CDDA (99%)

Summary 99,89% CDDA

95883700
Exact Audio Copy V0.99 prebeta 4 from 23. January 2008

Отчёт EAC об извлечении, выполненном 15. января 2009, 22:24

IQ / Seven Stories Into Eight

Дисковод: ASUS DRW-1814BLT Adapter: 0 ID: 1

Режим чтения : Достоверность
Использование точного потока : Да
Отключение кэша аудио : Да
Использование указателей C2 : Нет

Коррекция смещения при чтении : 6
Способность читать области Lead-in и Lead-out : Нет
Заполнение пропущенных сэмплов тишиной : Да
Удаление блоков с тишиной в начале и конце : Нет
При вычислениях CRC использовались нулевые сэмплы : Нет
Интерфейс : Встроенный Win32-интерфейс для Win NT/2000

Выходной формат : Внутренние WAV-операции
Формат сэмплов : 44.100 Гц; 16 бит; стерео
Смещение при сжатии : 0

TOC извлечённого CD

Трек | Старт | Длительность | Начальный сектор | Конечный сектор
---------------------------------------------------------------------
1 | 0:00.00 | 3:46.20 | 0 | 16969
2 | 3:46.20 | 5:01.62 | 16970 | 39606
3 | 8:48.07 | 6:55.55 | 39607 | 70786
4 | 15:43.62 | 5:05.05 | 70787 | 93666
5 | 20:48.67 | 5:31.28 | 93667 | 118519
6 | 26:20.20 | 5:56.25 | 118520 | 145244
7 | 32:16.45 | 4:17.07 | 145245 | 164526
8 | 36:33.52 | 6:57.60 | 164527 | 195861

Характеристики диапазона извлечения и сообщения об ошибках

Выбранный диапазон

Имя файла D:\Documents and Settings\wamp-d\Рабочий стол\IQ - Seven Stories Into Eight 2\IQ - Seven Stories Into Eight.wav

Пиковый уровень 100.0 %
Качество диапазона 100.0 %
CRC копии 294750DA
Копирование... OK

Ошибок не произошло

Конец отчёта
AUDIOCHECKER v2.0 beta (build 457) - by Dester -
~~~~~~~~~~~~~~~~~~~~~~~~~~~~~~~~~~
-=== DO NOT EDIT THIS FILE! ===-

Path: ...\IQ - Seven Stories Into Eight cd2

001 -=- 01 Capital Letters (In Surgical Spirit Land).flac -=- CDDA (100%)
002 -=- 02 About Lake Five.flac -=- MPEG (80%)
003 -=- 03 Intelligent Quotient.flac -=- CDDA (100%)
004 -=- 04 For Christ's Sake.flac -=- CDDA (100%)
005 -=- 05 Barbell Is In.flac -=- MPEG (95%)
006 -=- 06 Fascination.flac -=- CDDA (99%)
007 -=- 07 For The Taking.flac -=- CDDA (100%)
008 -=- 08 It All Stops Here.flac -=- CDDA (86%)

Summary 76,25% CDDA

182081956
#777Giant Electric Pea
GEPCD 1028 CD
UK 2000
Tracklist:
1 - The Wrong Side Of Weird (12:21)
2 - Erosion (05:40)
3 - The Seventh House (14:18)
4 - Zero Hour (06:52)
5 - Shooting Angels (07:18)
6 - Guiding Light (09:52)
Total time:00:56:24
Exact Audio Copy V0.99 prebeta 4 from 23. January 2008

Отчёт EAC об извлечении, выполненном 27. июня 2008, 20:49

Iq / The Seventh House

Дисковод: SONY CD-RW CRX230E Adapter: 1 ID: 0

Режим чтения : Достоверность
Использование точного потока : Да
Отключение кэша аудио : Да
Использование указателей C2 : Нет

Коррекция смещения при чтении : 6
Способность читать области Lead-in и Lead-out : Нет
Заполнение пропущенных сэмплов тишиной : Да
Удаление блоков с тишиной в начале и конце : Нет
При вычислениях CRC использовались нулевые сэмплы : Нет
Интерфейс : Встроенный Win32-интерфейс для Win NT/2000

Выходной формат : Пользовательский кодировщик
Выбранный битрейт : 768 kBit/s
Качество : Высокий
Добавление ID3-тэга : Нет
Утилита сжатия : C:\Program Files\Exact Audio Copy\FLAC\FLAC.EXE
Дополнительные параметры : -6 -V -T "ARTIST=%a" -T "TITLE=%t" -T "ALBUM=%g" -T "DATE=%y" -T "TRACKNUMBER=%n" -T "GENRE=%m" -T "COMMENT=%e" %s -o %d

TOC извлечённого CD

Трек | Старт | Длительность | Начальный сектор | Конечный сектор
---------------------------------------------------------------------
1 | 0:00.00 | 12:21.21 | 0 | 55595
2 | 12:21.21 | 5:40.62 | 55596 | 81157
3 | 18:02.08 | 14:18.74 | 81158 | 145581
4 | 32:21.07 | 6:52.26 | 145582 | 176507
5 | 39:13.33 | 7:18.54 | 176508 | 209411
6 | 46:32.12 | 9:52.34 | 209412 | 253845

Характеристики диапазона извлечения и сообщения об ошибках

Выбранный диапазон

Имя файла D:\Arhiv Music\Wav Converter\Iq - The Seventh House.wav

Пиковый уровень 100.0 %
Качество диапазона 100.0 %
CRC теста BE1FAC09
CRC копии BE1FAC09
Копирование... OK

Ошибок не произошло

Конец отчёта
AUDIOCHECKER v2.0 beta (build 457) - by Dester -
~~~~~~~~~~~~~~~~~~~~~~~~~~~~~~~~~~
-=== DO NOT EDIT THIS FILE! ===-

Path: ...\2000 - The Seventh House

001 -=- 01 The Wrong Side Of Weird.flac -=- CDDA (100%)
002 -=- 02 Erosion.flac -=- CDDA (100%)
003 -=- 03 The Seventh House.flac -=- CDDA (100%)
004 -=- 04 Zero Hour.flac -=- CDDA (100%)
005 -=- 05 Shooting Angels.flac -=- CDDA (100%)
006 -=- 06 Guiding Light.flac -=- ERROR

Summary 100,00% CDDA

54987220
#777Giant Electric Pea
GEPCD 1034 SPV GmbH GER SPV 085-60802 CD CD Album
UK 2004
Tracklist:
1. IQ - Sacred Sound (11:40)
2. IQ - Red Dust Shadow (05:53)
3. IQ - You Never Will (04:54)
4. IQ - Born Brilliant (05:20)
5. IQ - Harvest Of Souls (24:29)
Total time:00:52:18
Exact Audio Copy V0.99 prebeta 4 from 23. January 2008

Отчёт EAC об извлечении, выполненном 13. июля 2008, 11:55

IQ / Dark Matter

Дисковод: TEAC CD-W552E Adapter: 1 ID: 0

Режим чтения : Достоверность
Использование точного потока : Да
Отключение кэша аудио : Да
Использование указателей C2 : Нет

Коррекция смещения при чтении : 6
Способность читать области Lead-in и Lead-out : Нет
Заполнение пропущенных сэмплов тишиной : Да
Удаление блоков с тишиной в начале и конце : Нет
При вычислениях CRC использовались нулевые сэмплы : Да
Интерфейс : Встроенный Win32-интерфейс для Win NT/2000

Выходной формат : Внутренние WAV-операции
Формат сэмплов : 44.100 Гц; 16 бит; стерео

TOC извлечённого CD

Трек | Старт | Длительность | Начальный сектор | Конечный сектор
---------------------------------------------------------------------
1 | 0:00.00 | 11:40.37 | 0 | 52536
2 | 11:40.37 | 5:53.09 | 52537 | 79020
3 | 17:33.46 | 4:54.20 | 79021 | 101090
4 | 22:27.66 | 5:20.57 | 101091 | 125147
5 | 27:48.48 | 24:29.55 | 125148 | 235377

Характеристики диапазона извлечения и сообщения об ошибках

Выбранный диапазон

Имя файла C:\Users\Rolands\Desktop\IQ - Dark Matter\IQ - Dark Matter.wav

Пиковый уровень 99.1 %
Качество диапазона 99.9 %
CRC копии 1A98EEFB
Копирование... OK

Ошибок не произошло

Конец отчёта
AUDIOCHECKER v2.0 beta (build 457) - by Dester -
~~~~~~~~~~~~~~~~~~~~~~~~~~~~~~~~~~
-=== DO NOT EDIT THIS FILE! ===-

Path: ...\2000 - The Seventh House

001 -=- 01 The Wrong Side Of Weird.flac -=- CDDA (100%)
002 -=- 02 Erosion.flac -=- CDDA (100%)
003 -=- 03 The Seventh House.flac -=- CDDA (100%)
004 -=- 04 Zero Hour.flac -=- CDDA (100%)
005 -=- 05 Shooting Angels.flac -=- CDDA (100%)
006 -=- 06 Guiding Light.flac -=- ERROR

Summary 100,00% CDDA

54987220
#777Giant Electric Pea
SPV 28240
Germany
Tracklist:
1 - Frequency (08:29)
2 - Life Support (06:27)
3 - Stronger Than Friction (10:31)
4 - One Fatal Mistake (04:53)
5 - Ryker Skies (09:45)
6 - The Province (13:42)
7 - Closer (08:10)
Total time:01:02:00
Exact Audio Copy V0.99 prebeta 5 from 4. May 2009

Отчёт EAC об извлечении, выполненном 8. июня 2009, 14:47

IQ / Frequency

Дисковод: TEAC CD-W552E Adapter: 0 ID: 0

Режим чтения : Достоверность
Использование точного потока : Да
Отключение кэша аудио : Да
Использование указателей C2 : Нет

Коррекция смещения при чтении : 6
Способность читать области Lead-in и Lead-out : Нет
Заполнение пропущенных сэмплов тишиной : Да
Удаление блоков с тишиной в начале и конце : Нет
При вычислениях CRC использовались нулевые сэмплы : Да
Интерфейс : Установленный внешний ASPI-интерфейс

Выходной формат : Внутренние WAV-операции
Формат сэмплов : 44.100 Гц; 16 бит; стерео

TOC извлечённого CD

Трек | Старт | Длительность | Начальный сектор | Конечный сектор
---------------------------------------------------------------------
1 | 0:00.00 | 8:29.18 | 0 | 38192
2 | 8:29.18 | 6:27.57 | 38193 | 67274
3 | 14:57.00 | 10:31.44 | 67275 | 114643
4 | 25:28.44 | 4:53.43 | 114644 | 136661
5 | 30:22.12 | 9:45.03 | 136662 | 180539
6 | 40:07.15 | 13:42.31 | 180540 | 242220
7 | 53:49.46 | 8:10.36 | 242221 | 279006

Характеристики диапазона извлечения и сообщения об ошибках

Выбранный диапазон

Имя файла E:\Muzons\IQ - Frequency (2009)\IQ - Frequency.wav

Пиковый уровень 99.9 %
Качество диапазона 99.9 %
CRC копии F1FD71AC
Копирование... OK

Ошибок не произошло

AccurateRip: сводка

Трек 1 точное извлечение (доверие 1) [3FF7300C]
Трек 2 точное извлечение (доверие 1) [7DAD8009]
Трек 3 точное извлечение (доверие 1) [51DC4BCB]
Трек 4 точное извлечение (доверие 1) [1F9B1FB1]
Трек 5 точное извлечение (доверие 1) [A594EA9A]
Трек 6 точное извлечение (доверие 1) [2D178002]
Трек 7 точное извлечение (доверие 1) [6B7BFB79]

Все треки извлечены точно

Конец отчёта
AUDIOCHECKER v2.0 beta (build 457) - by Dester -
~~~~~~~~~~~~~~~~~~~~~~~~~~~~~~~~~~
-=== DO NOT EDIT THIS FILE! ===-

Path: ...\2009 - Frequency

1 -=- 01 Frequency.flac -=- CDDA (100%)
2 -=- 02 Life Support.flac -=- CDDA (100%)
3 -=- 03 Stronger Than Friction.flac -=- CDDA (100%)
4 -=- 04 One Fatal Mistake.flac -=- CDDA (100%)
5 -=- 05 Ryker Skies.flac -=- CDDA (100%)
6 -=- 06 The Province.flac -=- CDDA (100%)
7 -=- 07 Closer.flac -=- CDDA (99%)

Summary 99,86% CDDA

44071252
Огромное спасибо оригинальному релизеру Va_Dis (НетЛаб)
Правила, инструкции, FAQ!!!
Торрент  Добавлен [16 мар 2014, 00:03] Скачать торрент Магнет ссылка
Скачать торрент
44.18 КБ

Статус
Проверен 
 
Размер  4.61 ГБ
Приватный: Нет (DHT включён)
.torrent скачан  0
Как залить торрент? | Как скачать Torrent? | Как смотреть и слушать онлайн?  
Гость
 



Вернуться в Дискографии (Зарубежные)

Кто сейчас на конференции

Сейчас этот форум просматривают: нет зарегистрированных пользователей и гости: 0