Хроники Нарнии: Трилогия / The Chronicles of Narnia: Trilogy (2005-2010) BDRip 720p


Статистика раздачи
Размер: 17.27 ГБ | Добавлен: 05 сен 2013, 22:43 | Скачали: 17
Сидеров: 92  [0 байт/сек]    Личеров: 10  [0 байт/сек]

Сообщение Гость » 05 сен 2013, 22:43

Хроники Нарнии: Лев, колдунья и волшебный шкаф / The Chronicles of Narnia: The Lion, the Witch and the Wardrobe (2005)



Информация о фильме
Название: Хроники Нарнии: Лев, колдунья и волшебный шкаф
Оригинальное название: The Chronicles of Narnia: The Lion, the Witch and the Wardrobe
Год выхода: 2005
Жанр: фэнтези, приключения, семейный
Режиссер: Эндрю Адамсон
В ролях: Джорджи Хенли, Скандар Кейнс, Уильям Моусли, Анна Попплуэлл, Тильда Суинтон, Джеймс МакЭвой, Джим Бродбент, Киран Шах, Джеймс Космо, Джуди МакИнтош

О фильме: Четверых детей родители отправляют из Лондона в деревню, к старому профессору — другу семьи. В его доме дети обнаруживают таинственный платяной шкаф, посредством которого они попадают в сказочную страну Нарнию, где обитают фантастические люди, животные и существа.

Оказывается, что эта мирная страна находится под властью злой Колдуньи, из-за которой там — вечная зима. Дети должны помочь царю Аслану (Великому Льву, который много столетий назад основал Нарнию) победить Колдунью, разрушить заклинания и освободить жителей Нарнии…



Выпущено: Walt Disney Pictures
Продолжительность: 02:22:52
Перевод: Дублированный

Файл
Кодек: x264
Качество: BDRip (источник: Blu-ray Disc)
Видео: 1280x544 (2,35:1), 23.976 fps, 3830 kbps
Аудио #1: AC-3, 6 ch, 640 kbps (Rus)
Аудио #2: AC-3, 6 ch, 640 kbps (Eng)
Субтитры: Русские, Английские

Скриншоты

Общее
Уникальный идентификатор : 230789094251160560444090284354397033688 (0xADA05CDCE5D16E26AFA56C03400C54D8)
Полное имя : The.Chronicles.of.Narnia.The.Lion.the.Witch.and.the.Wardrobe.2005.BDRip.720p.Rus.Eng.mkv
Формат : Matroska
Версия формата : Version 2
Размер файла : 5,10 Гбайт
Продолжительность : 2 ч. 22 м.
Общий поток : 5111 Кбит/сек
Название фильма : Хроники Нарнии: Лев, колдунья и волшебный шкаф / The Chronicles of Narnia: The Lion, the Witch and the Wardrobe (2005)
Дата кодирования : UTC 2013-09-02 04:46:26
Программа кодирования : mkvmerge v5.8.0 ('No Sleep / Pillow') built on Sep 2 2012 15:37:04
Библиотека кодирования : libebml v1.2.3 + libmatroska v1.3.0

Видео
Идентификатор : 1
Формат : AVC
Формат/Информация : Advanced Video Codec
Профиль формата : High@L4.1
Параметр CABAC формата : Да
Параметр ReFrames формата : 10 кадров
Идентификатор кодека : V_MPEG4/ISO/AVC
Продолжительность : 2 ч. 22 м.
Битрейт : 3829 Кбит/сек
Ширина : 1280 пикселей
Высота : 544 пикселя
Соотношение сторон : 2,35:1
Частота кадров : 23,976 кадра/сек
Цветовое пространство : YUV
Субдискретизация насыщенности : 4:2:0
Битовая глубина : 8 бит
Тип развёртки : Прогрессивная
Бит/(Пиксели*Кадры) : 0.229
Размер потока : 3,72 Гбайт (73%)
Заголовок : Release by AlexKa
Библиотека кодирования : x264 core 138 r2358 9e941d1
Настройки программы : cabac=1 / ref=10 / deblock=1:-3:-3 / analyse=0x3:0x133 / me=umh / subme=11 / psy=1 / psy_rd=1.00:0.00 / mixed_ref=1 / me_range=32 / chroma_me=1 / trellis=2 / 8x8dct=1 / cqm=0 / deadzone=21,11 / fast_pskip=0 / chroma_qp_offset=-2 / threads=12 / lookahead_threads=1 / sliced_threads=0 / nr=0 / decimate=1 / interlaced=0 / bluray_compat=0 / constrained_intra=0 / bframes=6 / b_pyramid=2 / b_adapt=2 / b_bias=0 / direct=3 / weightb=1 / open_gop=0 / weightp=2 / keyint=240 / keyint_min=23 / scenecut=40 / intra_refresh=0 / rc=2pass / mbtree=0 / bitrate=3829 / ratetol=1.0 / qcomp=0.60 / qpmin=0 / qpmax=69 / qpstep=4 / cplxblur=20.0 / qblur=0.5 / ip_ratio=1.40 / pb_ratio=1.30 / aq=1:0.80
Язык : English

Аудио #1
Идентификатор : 2
Формат : AC-3
Формат/Информация : Audio Coding 3
Расширение режима : CM (complete main)
Идентификатор кодека : A_AC3
Продолжительность : 2 ч. 22 м.
Вид битрейта : Постоянный
Битрейт : 640 Кбит/сек
Каналы : 6 каналов
Расположение каналов : Front: L C R, Side: L R, LFE
Частота : 48,0 КГц
Битовая глубина : 16 бит
Метод сжатия : С потерями
Размер потока : 654 Мбайт (13%)
Заголовок : Rus
Язык : Russian

Аудио #2
Идентификатор : 3
Формат : AC-3
Формат/Информация : Audio Coding 3
Расширение режима : CM (complete main)
Идентификатор кодека : A_AC3
Продолжительность : 2 ч. 22 м.
Вид битрейта : Постоянный
Битрейт : 640 Кбит/сек
Каналы : 6 каналов
Расположение каналов : Front: L C R, Side: L R, LFE
Частота : 48,0 КГц
Битовая глубина : 16 бит
Метод сжатия : С потерями
Размер потока : 654 Мбайт (13%)
Заголовок : Eng
Язык : English

Текст #1
Идентификатор : 4
Формат : UTF-8
Идентификатор кодека : S_TEXT/UTF8
Идентификатор кодека/Информация : UTF-8 Plain Text
Заголовок : Rus
Язык : Russian

Текст #2
Идентификатор : 5
Формат : UTF-8
Идентификатор кодека : S_TEXT/UTF8
Идентификатор кодека/Информация : UTF-8 Plain Text
Заголовок : Eng
Язык : English

Меню
00:00:00.000 : :Chapter 01
00:07:07.635 : :Chapter 02
00:11:15.049 : :Chapter 03
00:18:23.143 : :Chapter 04
00:24:34.222 : :Chapter 05
00:29:45.784 : :Chapter 06
00:34:55.760 : :Chapter 07
00:39:29.825 : :Chapter 08
00:46:50.974 : :Chapter 09
00:50:23.353 : :Chapter 10
00:56:43.149 : :Chapter 11
01:01:15.505 : :Chapter 12
01:12:16.749 : :Chapter 13
01:18:57.232 : :Chapter 14
01:24:36.404 : :Chapter 15
01:31:49.879 : :Chapter 16
01:37:41.605 : :Chapter 17
01:46:13.617 : :Chapter 18
01:49:13.880 : :Chapter 19
01:52:39.169 : :Chapter 20
01:55:00.727 : :Chapter 21
01:59:29.078 : :Chapter 22
02:05:30.022 : :Chapter 23
02:11:34.052 : :Chapter 24
02:22:51.437 : :Chapter 25


Хроники Нарнии: Принц Каспиан / The Chronicles of Narnia: Prince Caspian (2008)



Информация о фильме
Название: Хроники Нарнии: Принц Каспиан
Оригинальное название: The Chronicles of Narnia: Prince Caspian
Год выхода: 2008
Жанр: фэнтези, боевик, приключения, семейный
Режиссер: Эндрю Адамсон
В ролях: Бен Барнс, Джорджи Хенли, Скандар Кейнс, Уильям Моусли, Анна Попплуэлл, Серджо Кастеллитто, Питер Динклэйдж, Тильда Суинтон, Уорвик Дэвис, Винсент Грасс

О фильме: Люси, Сьюзен, Эдмунд и Питер Пэванси возвращаются в Нарнию. В Англии прошло совсем немного времени, а в Нарнии — века. Страна находится под гнетом зловещего короля Мираза. Но у волшебного королевства есть надежда — юный принц Каспиан. Чтобы помочь Каспиану отвоевать трон, четверо героев собирают армию мифических существ во главе с Асланом — основателем и покровителем Нарнии…



Выпущено: Walt Disney Pictures
Продолжительность: 02:29:59
Перевод: Дублированный

Файл
Кодек: x264
Качество: BDRip (источник: Blu-ray Disc)
Видео: 1280x532 (2,40:1), 23.976 fps, 4600 kbps
Аудио #1: AC-3, 6 ch, 640 kbps (Rus)
Аудио #2: AC-3, 6 ch, 640 kbps (Eng)
Субтитры: Русские, Английские

Скриншоты

Общее
Уникальный идентификатор : 210344745027758362831197146353162695620 (0x9E3EEC9F898B95B6B1D0AFD4E6E2B3C4)
Полное имя : The.Chronicles.of.Narnia.Prince.Caspian.2008.BDRip.720p.Rus.Eng.mkv
Формат : Matroska
Версия формата : Version 2
Размер файла : 6,15 Гбайт
Продолжительность : 2 ч. 29 м.
Общий поток : 5875 Кбит/сек
Название фильма : Хроники Нарнии: Принц Каспиан / The Chronicles of Narnia: Prince Caspian (2008)
Дата кодирования : UTC 2013-09-04 11:28:34
Программа кодирования : mkvmerge v5.8.0 ('No Sleep / Pillow') built on Sep 2 2012 15:37:04
Библиотека кодирования : libebml v1.2.3 + libmatroska v1.3.0

Видео
Идентификатор : 1
Формат : AVC
Формат/Информация : Advanced Video Codec
Профиль формата : High@L4.1
Параметр CABAC формата : Да
Параметр ReFrames формата : 10 кадров
Идентификатор кодека : V_MPEG4/ISO/AVC
Продолжительность : 2 ч. 29 м.
Битрейт : 4593 Кбит/сек
Ширина : 1280 пикселей
Высота : 532 пикселя
Соотношение сторон : 2,40:1
Частота кадров : 23,976 кадра/сек
Цветовое пространство : YUV
Субдискретизация насыщенности : 4:2:0
Битовая глубина : 8 бит
Тип развёртки : Прогрессивная
Бит/(Пиксели*Кадры) : 0.281
Размер потока : 4,69 Гбайт (76%)
Заголовок : Release by AlexKa
Библиотека кодирования : x264 core 138 r2358 9e941d1
Настройки программы : cabac=1 / ref=10 / deblock=1:-3:-3 / analyse=0x3:0x133 / me=umh / subme=11 / psy=1 / psy_rd=1.00:0.00 / mixed_ref=1 / me_range=32 / chroma_me=1 / trellis=2 / 8x8dct=1 / cqm=0 / deadzone=21,11 / fast_pskip=0 / chroma_qp_offset=-2 / threads=12 / lookahead_threads=1 / sliced_threads=0 / nr=0 / decimate=1 / interlaced=0 / bluray_compat=0 / constrained_intra=0 / bframes=6 / b_pyramid=2 / b_adapt=2 / b_bias=0 / direct=3 / weightb=1 / open_gop=0 / weightp=2 / keyint=240 / keyint_min=23 / scenecut=40 / intra_refresh=0 / rc=2pass / mbtree=0 / bitrate=4593 / ratetol=1.0 / qcomp=0.60 / qpmin=0 / qpmax=69 / qpstep=4 / cplxblur=20.0 / qblur=0.5 / ip_ratio=1.40 / pb_ratio=1.30 / aq=1:0.80
Язык : English

Аудио #1
Идентификатор : 2
Формат : AC-3
Формат/Информация : Audio Coding 3
Расширение режима : CM (complete main)
Идентификатор кодека : A_AC3
Продолжительность : 2 ч. 29 м.
Вид битрейта : Постоянный
Битрейт : 640 Кбит/сек
Каналы : 6 каналов
Расположение каналов : Front: L C R, Side: L R, LFE
Частота : 48,0 КГц
Битовая глубина : 16 бит
Метод сжатия : С потерями
Размер потока : 687 Мбайт (11%)
Заголовок : Rus
Язык : Russian

Аудио #2
Идентификатор : 3
Формат : AC-3
Формат/Информация : Audio Coding 3
Расширение режима : CM (complete main)
Идентификатор кодека : A_AC3
Продолжительность : 2 ч. 29 м.
Вид битрейта : Постоянный
Битрейт : 640 Кбит/сек
Каналы : 6 каналов
Расположение каналов : Front: L C R, Side: L R, LFE
Частота : 48,0 КГц
Битовая глубина : 16 бит
Метод сжатия : С потерями
Размер потока : 687 Мбайт (11%)
Заголовок : Eng
Язык : English

Текст #1
Идентификатор : 4
Формат : UTF-8
Идентификатор кодека : S_TEXT/UTF8
Идентификатор кодека/Информация : UTF-8 Plain Text
Заголовок : Rus
Язык : Russian

Текст #2
Идентификатор : 5
Формат : UTF-8
Идентификатор кодека : S_TEXT/UTF8
Идентификатор кодека/Информация : UTF-8 Plain Text
Заголовок : Eng
Язык : English

Меню
00:00:00.000 : :Chapter 01
00:08:32.512 : :Chapter 02
00:15:51.283 : :Chapter 03
00:19:54.568 : :Chapter 04
00:27:04.414 : :Chapter 05
00:32:57.475 : :Chapter 06
00:43:08.919 : :Chapter 07
00:46:19.777 : :Chapter 08
00:56:13.036 : :Chapter 09
01:01:00.198 : :Chapter 10
01:04:50.845 : :Chapter 11
01:21:40.103 : :Chapter 12
01:24:03.496 : :Chapter 13
01:25:20.115 : :Chapter 14
01:33:54.879 : :Chapter 15
01:39:12.613 : :Chapter 16
01:51:48.868 : :Chapter 17
01:58:46.953 : :Chapter 18
02:03:54.343 : :Chapter 19
02:06:27.746 : :Chapter 20
02:11:15.450 : :Chapter 21
02:17:46.383 : :Chapter 22
02:29:58.406 : :Chapter 23


Хроники Нарнии: Покоритель Зари / The Chronicles of Narnia: The Voyage of the Dawn Treader (2010)



Информация о фильме
Название: Хроники Нарнии: Покоритель Зари
Оригинальное название: The Chronicles of Narnia: The Voyage of the Dawn Treader
Год выхода: 2010
Жанр: фэнтези, приключения, семейный
Режиссер: Майкл Эптед
В ролях: Бен Барнс, Скандар Кейнс, Джорджи Хенли, Уилл Поултер, Гари Свит, Тильда Суинтон, Анна Попплуэлл, Уильям Моусли, Лиам Нисон, Саймон Пегг

О фильме: Эдмунд, Люси, их кузен Юстас и король Каспиан отплывают на корабле «Покоритель Зари» на поиски друзей отца Каспиана — семи лордов: Ревелиана, Берна, Аргоза, Мавроморна, Октезиана, Рестимара и Рупа, изгнанных во время недолгого правления тирана Мираза.



Выпущено: Fox 2000 Pictures
Продолжительность: 01:52:41
Перевод: Дублированный

Файл
Кодек: x264
Качество: BDRip (источник: Blu-ray Disc)
Видео: 1280x720 (16:9), 23.976 fps, 6370 kbps
Аудио #1: AC-3, 6 ch, 640 kbps (Rus)
Аудио #2: AC-3, 6 ch, 640 kbps (Eng)
Субтитры: Русские, Английские

Скриншоты

Общее
Уникальный идентификатор : 225761827577090357713905180560613902247 (0xA9D8257AAB449E2B994C1E91799F07A7)
Полное имя : The.Chronicles.of.Narnia.The.Voyage.of.the.Dawn.Treader.2010.BDRip.720p.Rus.Eng.mkv
Формат : Matroska
Версия формата : Version 2
Размер файла : 6,02 Гбайт
Продолжительность : 1 ч. 52 м.
Общий поток : 7647 Кбит/сек
Название фильма : Хроники Нарнии: Покоритель Зари / The Chronicles of Narnia: The Voyage of the Dawn Treader (2010)
Дата кодирования : UTC 2013-09-05 06:25:11
Программа кодирования : mkvmerge v5.8.0 ('No Sleep / Pillow') built on Sep 2 2012 15:37:04
Библиотека кодирования : libebml v1.2.3 + libmatroska v1.3.0

Видео
Идентификатор : 1
Формат : AVC
Формат/Информация : Advanced Video Codec
Профиль формата : High@L4.1
Параметр CABAC формата : Да
Параметр ReFrames формата : 8 кадров
Идентификатор кодека : V_MPEG4/ISO/AVC
Продолжительность : 1 ч. 52 м.
Битрейт : 6365 Кбит/сек
Ширина : 1280 пикселей
Высота : 720 пикселей
Соотношение сторон : 16:9
Частота кадров : 23,976 кадра/сек
Цветовое пространство : YUV
Субдискретизация насыщенности : 4:2:0
Битовая глубина : 8 бит
Тип развёртки : Прогрессивная
Бит/(Пиксели*Кадры) : 0.288
Размер потока : 4,89 Гбайт (81%)
Заголовок : Release by AlexKa
Библиотека кодирования : x264 core 138 r2358 9e941d1
Настройки программы : cabac=1 / ref=8 / deblock=1:-3:-3 / analyse=0x3:0x133 / me=umh / subme=11 / psy=1 / psy_rd=1.00:0.00 / mixed_ref=1 / me_range=32 / chroma_me=1 / trellis=2 / 8x8dct=1 / cqm=0 / deadzone=21,11 / fast_pskip=0 / chroma_qp_offset=-2 / threads=12 / lookahead_threads=1 / sliced_threads=0 / nr=0 / decimate=1 / interlaced=0 / bluray_compat=0 / constrained_intra=0 / bframes=6 / b_pyramid=2 / b_adapt=2 / b_bias=0 / direct=3 / weightb=1 / open_gop=0 / weightp=2 / keyint=240 / keyint_min=23 / scenecut=40 / intra_refresh=0 / rc=2pass / mbtree=0 / bitrate=6365 / ratetol=1.0 / qcomp=0.60 / qpmin=0 / qpmax=69 / qpstep=4 / cplxblur=20.0 / qblur=0.5 / ip_ratio=1.40 / pb_ratio=1.30 / aq=1:0.80
Язык : English

Аудио #1
Идентификатор : 2
Формат : AC-3
Формат/Информация : Audio Coding 3
Расширение режима : CM (complete main)
Идентификатор кодека : A_AC3
Продолжительность : 1 ч. 52 м.
Вид битрейта : Постоянный
Битрейт : 640 Кбит/сек
Каналы : 6 каналов
Расположение каналов : Front: L C R, Side: L R, LFE
Частота : 48,0 КГц
Битовая глубина : 16 бит
Метод сжатия : С потерями
Размер потока : 516 Мбайт (8%)
Заголовок : Rus
Язык : Russian

Аудио #2
Идентификатор : 3
Формат : AC-3
Формат/Информация : Audio Coding 3
Расширение режима : CM (complete main)
Идентификатор кодека : A_AC3
Продолжительность : 1 ч. 52 м.
Вид битрейта : Постоянный
Битрейт : 640 Кбит/сек
Каналы : 6 каналов
Расположение каналов : Front: L C R, Side: L R, LFE
Частота : 48,0 КГц
Битовая глубина : 16 бит
Метод сжатия : С потерями
Размер потока : 516 Мбайт (8%)
Заголовок : Eng
Язык : English

Текст #1
Идентификатор : 4
Формат : UTF-8
Идентификатор кодека : S_TEXT/UTF8
Идентификатор кодека/Информация : UTF-8 Plain Text
Заголовок : Rus
Язык : Russian

Текст #2
Идентификатор : 5
Формат : UTF-8
Идентификатор кодека : S_TEXT/UTF8
Идентификатор кодека/Информация : UTF-8 Plain Text
Заголовок : Eng
Язык : English

Меню
00:00:00.000 : :Chapter 01
00:04:28.476 : :Chapter 02
00:07:37.039 : :Chapter 03
00:11:58.259 : :Chapter 04
00:15:22.463 : :Chapter 05
00:20:06.288 : :Chapter 06
00:27:14.507 : :Chapter 07
00:32:20.688 : :Chapter 08
00:36:46.370 : :Chapter 09
00:39:51.597 : :Chapter 10
00:41:56.388 : :Chapter 11
00:45:21.927 : :Chapter 12
00:47:51.493 : :Chapter 13
00:52:52.544 : :Chapter 14
00:58:04.939 : :Chapter 15
01:01:51.332 : :Chapter 16
01:05:43.731 : :Chapter 17
01:08:20.805 : :Chapter 18
01:10:49.912 : :Chapter 19
01:16:55.027 : :Chapter 20
01:20:23.568 : :Chapter 21
01:23:48.314 : :Chapter 22
01:28:23.506 : :Chapter 23
01:32:30.461 : :Chapter 24
01:35:58.753 : :Chapter 25
01:38:07.464 : :Chapter 26
01:40:55.549 : :Chapter 27
01:45:06.967 : :Chapter 28
01:52:40.503 : :Chapter 29
Правила, инструкции, FAQ!!!
Торрент  Добавлен [05 сен 2013, 22:43] Скачать торрент Магнет ссылка
Скачать торрент
87.16 КБ

Статус
Проверен 
 
Размер  17.27 ГБ
Приватный: Нет (DHT включён)
.torrent скачан  17
Как залить торрент? | Как скачать Torrent? | Как смотреть и слушать онлайн?  
Гость
 



Вернуться в Трилогии

Кто сейчас на конференции

Сейчас этот форум просматривают: нет зарегистрированных пользователей и гости: 0