Hinder - 5 альбомов (2003-2012) Дискография [FLAC|Losless] <Hard-rock, Alternative, Post-Grunge>


Статистика раздачи
Размер: 1.7 ГБ | Добавлен: 01 май 2014, 23:48 | Скачали: 1
Сидеров: 1  [0 байт/сек]    Личеров: 1  [0 байт/сек]

Сообщение Гость » 01 май 2014, 23:48


Hinder - Дискография (2003-2012)



Год: 2003-2012
Жанр: Hard-rock, Alternative, Post-Grunge
Продолжительность: 04:01:24

Кодек: FLAC
Битрейт: Lossless
Тип рипа: tracks
Тип битрейта: VBR


О группе:
Hinder — американская рок-группа из Оклахомы, сформированная в 2001 году барабанщиком Коди Хэнсоном, гитаристом Джои Гэрвеем и солистом Остином Винклером. Группа является членом «Оклахомского музыкального музея славы» (англ. Oklahoma Music Hall of Fame) с 2007 года. По мнению американских критиков, Hinder, как и Chevelle, Buckcherry и Papa Roach, является одной из ярчайшиx примеров групп так называемого — «нового старого рока», и принадлежит к волне музыкантов, которые возрождают изначальное понятие «рок-группа».


Welcome To The Freakshow


Трек лист:

01 - Save Me
02 - Ladies Come First
03 - Should Have Known Better
04 - Freakshow
05 - Talk To Me
06 - Get Me Away From You
07 - Is It Just Me
08 - I Don't Wanna Believe
09 - See You In Hell
10 - Anyone But You
11 - Wanna Be Rich
12 - Get Me Away From You (Acoustic Version)
13 - Ladies Come First (Alternative Version)
14 - Save Me (Acoustic Version)
15 - See You In Hell (Acoustic Version)
16 - Talk To Me (Acoustic Version)
Продолжительность: 00:52:04
Источник (релизер): Morgue
Код:
Код: Выделить всё
Exact Audio Copy V1.0 beta 3 from 29. August 2011

EAC extraction logfile from 4. December 2012, 18:35

Hinder / Welcome To The Freakshow (Best Buy Exclusive Edition)

Used drive  : PLEXTOR DVDR   PX-L890SA   Adapter: 1  ID: 0

Read mode               : Secure
Utilize accurate stream : Yes
Defeat audio cache      : Yes
Make use of C2 pointers : No

Read offset correction                      : 6
Overread into Lead-In and Lead-Out          : No
Fill up missing offset samples with silence : Yes
Delete leading and trailing silent blocks   : No
Null samples used in CRC calculations       : Yes
Used interface                              : Native Win32 interface for Win NT & 2000
Gap handling                                : Appended to previous track

Used output format              : User Defined Encoder
Selected bitrate                : 1024 kBit/s
Quality                         : High
Add ID3 tag                     : No
Command line compressor         : C:\Program Files (x86)\Exact Audio Copy\Flac\flac.exe
Additional command line options : -8 -V -T "ARTIST=%artist%" -T "TITLE=%title%" -T "ALBUM=%albumtitle%" -T "DATE=%year%" -T "TRACKNUMBER=%tracknr%" -T "GENRE=%genre%" -T "PERFORMER=%albuminterpret%" -T "COMPOSER=%composer%" %haslyrics%--tag-from-file=LYRICS="%lyricsfile%"%haslyrics% -T "ALBUMARTIST=%albumartist%" -T "DISCNUMBER=%cdnumber%" -T "TOTALDISCS=%totalcds%" -T "TOTALTRACKS=%numtracks%" -T "COMMENT=%comment%" %source% -o %dest%

TOC of the extracted CD

     Track |   Start  |  Length  | Start sector | End sector
    ---------------------------------------------------------
        1  |  0:00.00 |  2:46.15 |         0    |    12464
        2  |  2:46.15 |  3:03.57 |     12465    |    26246
        3  |  5:49.72 |  3:28.53 |     26247    |    41899
        4  |  9:18.50 |  3:05.15 |     41900    |    55789
        5  | 12:23.65 |  3:10.72 |     55790    |    70111
        6  | 15:34.62 |  3:10.58 |     70112    |    84419
        7  | 18:45.45 |  3:20.67 |     84420    |    99486
        8  | 22:06.37 |  3:30.74 |     99487    |   115310
        9  | 25:37.36 |  3:19.52 |    115311    |   130287
       10  | 28:57.13 |  4:10.74 |    130288    |   149111
       11  | 33:08.12 |  3:47.03 |    149112    |   166139
       12  | 36:55.15 |  3:13.52 |    166140    |   180666
       13  | 40:08.67 |  3:09.38 |    180667    |   194879
       14  | 43:18.30 |  2:37.52 |    194880    |   206706
       15  | 45:56.07 |  2:52.30 |    206707    |   219636
       16  | 48:48.37 |  3:12.57 |    219637    |   234093

Track  1

     Filename E:\My Music\Hinder - 2012 - Welcome To The Freakshow (Best Buy Exclusive Edition) [FLAC]\01 - Save Me.wav

     Pre-gap length  0:00:02.00

     Peak level 99.7 %
     Extraction speed 3.5 X
     Track quality 100.0 %
     Test CRC 9536EFDA
     Copy CRC 9536EFDA
     Track not present in AccurateRip database
     Copy OK

Track  2

     Filename E:\My Music\Hinder - 2012 - Welcome To The Freakshow (Best Buy Exclusive Edition) [FLAC]\02 - Ladies Come First.wav

     Peak level 99.6 %
     Extraction speed 3.9 X
     Track quality 100.0 %
     Test CRC CCD17D06
     Copy CRC CCD17D06
     Track not present in AccurateRip database
     Copy OK

Track  3

     Filename E:\My Music\Hinder - 2012 - Welcome To The Freakshow (Best Buy Exclusive Edition) [FLAC]\03 - Should Have Known Better.wav

     Pre-gap length  0:00:01.61

     Peak level 99.4 %
     Extraction speed 4.3 X
     Track quality 100.0 %
     Test CRC 43FFAC11
     Copy CRC 43FFAC11
     Track not present in AccurateRip database
     Copy OK

Track  4

     Filename E:\My Music\Hinder - 2012 - Welcome To The Freakshow (Best Buy Exclusive Edition) [FLAC]\04 - Freakshow.wav

     Pre-gap length  0:00:00.81

     Peak level 99.5 %
     Extraction speed 4.4 X
     Track quality 100.0 %
     Test CRC F120C2C5
     Copy CRC F120C2C5
     Track not present in AccurateRip database
     Copy OK

Track  5

     Filename E:\My Music\Hinder - 2012 - Welcome To The Freakshow (Best Buy Exclusive Edition) [FLAC]\05 - Talk To Me.wav

     Peak level 100.0 %
     Extraction speed 4.7 X
     Track quality 100.0 %
     Test CRC 25DF4ED1
     Copy CRC 25DF4ED1
     Track not present in AccurateRip database
     Copy OK

Track  6

     Filename E:\My Music\Hinder - 2012 - Welcome To The Freakshow (Best Buy Exclusive Edition) [FLAC]\06 - Get Me Away From You.wav

     Pre-gap length  0:00:00.82

     Peak level 100.0 %
     Extraction speed 4.9 X
     Track quality 100.0 %
     Test CRC A045305F
     Copy CRC A045305F
     Track not present in AccurateRip database
     Copy OK

Track  7

     Filename E:\My Music\Hinder - 2012 - Welcome To The Freakshow (Best Buy Exclusive Edition) [FLAC]\07 - Is It Just Me.wav

     Peak level 100.0 %
     Extraction speed 5.1 X
     Track quality 100.0 %
     Test CRC 7C18DE51
     Copy CRC 7C18DE51
     Track not present in AccurateRip database
     Copy OK

Track  8

     Filename E:\My Music\Hinder - 2012 - Welcome To The Freakshow (Best Buy Exclusive Edition) [FLAC]\08 - I Don't Wanna Believe.wav

     Pre-gap length  0:00:01.28

     Peak level 99.5 %
     Extraction speed 5.4 X
     Track quality 100.0 %
     Test CRC 50E8B78B
     Copy CRC 50E8B78B
     Track not present in AccurateRip database
     Copy OK

Track  9

     Filename E:\My Music\Hinder - 2012 - Welcome To The Freakshow (Best Buy Exclusive Edition) [FLAC]\09 - See You In Hell.wav

     Peak level 100.0 %
     Extraction speed 5.5 X
     Track quality 100.0 %
     Test CRC 32BBF184
     Copy CRC 32BBF184
     Track not present in AccurateRip database
     Copy OK

Track 10

     Filename E:\My Music\Hinder - 2012 - Welcome To The Freakshow (Best Buy Exclusive Edition) [FLAC]\10 - Anyone But You.wav

     Pre-gap length  0:00:02.73

     Peak level 100.0 %
     Extraction speed 4.8 X
     Track quality 99.9 %
     Test CRC C27E40FC
     Copy CRC C27E40FC
     Track not present in AccurateRip database
     Copy OK

Track 11

     Filename E:\My Music\Hinder - 2012 - Welcome To The Freakshow (Best Buy Exclusive Edition) [FLAC]\11 - Wanna Be Rich.wav

     Peak level 99.3 %
     Extraction speed 4.8 X
     Track quality 99.9 %
     Test CRC B8D0D315
     Copy CRC B8D0D315
     Track not present in AccurateRip database
     Copy OK

Track 12

     Filename E:\My Music\Hinder - 2012 - Welcome To The Freakshow (Best Buy Exclusive Edition) [FLAC]\12 - Get Me Away From You (Acoustic Version) (Bonus Track).wav

     Pre-gap length  0:00:01.86

     Peak level 100.0 %
     Extraction speed 6.1 X
     Track quality 100.0 %
     Test CRC 1F5D7304
     Copy CRC 1F5D7304
     Track not present in AccurateRip database
     Copy OK

Track 13

     Filename E:\My Music\Hinder - 2012 - Welcome To The Freakshow (Best Buy Exclusive Edition) [FLAC]\13 - Ladies Come First (Alternative Version) (Bonus Track).wav

     Pre-gap length  0:00:00.78

     Peak level 100.0 %
     Extraction speed 6.2 X
     Track quality 100.0 %
     Test CRC 29D9B6AC
     Copy CRC 29D9B6AC
     Track not present in AccurateRip database
     Copy OK

Track 14

     Filename E:\My Music\Hinder - 2012 - Welcome To The Freakshow (Best Buy Exclusive Edition) [FLAC]\14 - Save Me (Acoustic Version) (Bonus Track).wav

     Pre-gap length  0:00:01.18

     Peak level 100.0 %
     Extraction speed 4.6 X
     Track quality 99.9 %
     Test CRC 7C689CE0
     Copy CRC 7C689CE0
     Track not present in AccurateRip database
     Copy OK

Track 15

     Filename E:\My Music\Hinder - 2012 - Welcome To The Freakshow (Best Buy Exclusive Edition) [FLAC]\15 - See You In Hell (Acoustic Version) (Bonus Track).wav

     Pre-gap length  0:00:01.36

     Peak level 100.0 %
     Extraction speed 6.5 X
     Track quality 100.0 %
     Test CRC 9429024B
     Copy CRC 9429024B
     Track not present in AccurateRip database
     Copy OK

Track 16

     Filename E:\My Music\Hinder - 2012 - Welcome To The Freakshow (Best Buy Exclusive Edition) [FLAC]\16 - Talk To Me (Acoustic Version) (Bonus Track).wav

     Pre-gap length  0:00:00.86

     Peak level 99.4 %
     Extraction speed 6.7 X
     Track quality 100.0 %
     Test CRC 5A5653D6
     Copy CRC 5A5653D6
     Track not present in AccurateRip database
     Copy OK

None of the tracks are present in the AccurateRip database

No errors occurred

End of status report

---- CUETools DB Plugin V2.1.4

[CTDB TOCID: n2.NtTFYjzgKsRVWB4DBNhfSelQ-] disk not present in database
Submit result: n2.NtTFYjzgKsRVWB4DBNhfSelQ- has been uploaded

==== Log checksum 2982AAC789D09D69CFFB135A5E109F5650A96CCA4D4EFC2CADDE384D81BDE131 ====

Код:
Код: Выделить всё
-----------------------

DON'T MODIFY THIS FILE

-----------------------

PERFORMER: auCDtect Task Manager, ver. 1.5.1RC6 build 1.5.1.7
Copyright (c) 2008-2010 y-soft. All rights reserved
http:/y-soft.org

ANALYZER: auCDtect: CD records authenticity detector, version 0.8.2
Copyright (c) 2004 Oleg Berngardt. All rights reserved.
Copyright (c) 2004 Alexander Djourik. All rights reserved.

FILE: 16 - Talk To Me (Acoustic Version) (Bonus Track).flac
  Size: 22465336 Hash: F70EB9B5B9FE1E9C9321E31F49E27CFB Accuracy: -m0
  Conclusion: CDDA 100%
  Signature: 3BE67C80EA77A075E93CCF5712E7BC05AC8ACF19
FILE: 15 - See You In Hell (Acoustic Version) (Bonus Track).flac
  Size: 21463896 Hash: F8A5ECE9165C469362804C6DF6CFAC41 Accuracy: -m0
  Conclusion: CDDA 100%
  Signature: 4CB71C230099DE6BD3CE81C07FE2B5B04A887EDD
FILE: 14 - Save Me (Acoustic Version) (Bonus Track).flac
  Size: 20319753 Hash: 39B4024B369310E0BD4E6061DC2449FE Accuracy: -m0
  Conclusion: CDDA 100%
  Signature: F993BE2DB963741BDE4D5FAE4769DD5945A32E17
FILE: 13 - Ladies Come First (Alternative Version) (Bonus Track).flac
  Size: 23418111 Hash: 0A439F3E3FBFBE5FD6D6D474CD546D2C Accuracy: -m0
  Conclusion: CDDA 100%
  Signature: 4845269C6ADB02A4551EFFF338EDF075801B00DD
FILE: 12 - Get Me Away From You (Acoustic Version) (Bonus Track).flac
  Size: 22920606 Hash: BA67A2D600FE2DC1CA5E932F7DE2C159 Accuracy: -m0
  Conclusion: CDDA 100%
  Signature: 2BCD31C80AE279A8FC9CEA5F8373E066A1F6BD66
FILE: 11 - Wanna Be Rich.flac
  Size: 28346828 Hash: B5C633815C2B50634D9A642E5481A87A Accuracy: -m0
  Conclusion: CDDA 100%
  Signature: 0234C533BD6B12FD0ED063ED820C80F274A71E54
FILE: 10 - Anyone But You.flac
  Size: 31952359 Hash: C30C17E1A3CA8D0CF2EBE0D4BF760A06 Accuracy: -m0
  Conclusion: CDDA 100%
  Signature: E869983F481770E76FF45FE85E6F06C2F41A5BFB
FILE: 09 - See You In Hell.flac
  Size: 25919837 Hash: BAF725BA5ADECD1C271AE568183CA3F6 Accuracy: -m0
  Conclusion: CDDA 100%
  Signature: 834FAF3B32923B521D6D888D8F052BCC7852CEDA
FILE: 08 - I Don't Wanna Believe.flac
  Size: 26139283 Hash: E610465FC98BC6AA3556E23DCBECD63A Accuracy: -m0
  Conclusion: CDDA 100%
  Signature: CE7AD23BB1B340049276270B2D931DA6F20FC4F2
FILE: 07 - Is It Just Me.flac
  Size: 24231104 Hash: C99D1569D315210281BF3D373114221B Accuracy: -m0
  Conclusion: CDDA 100%
  Signature: BCAEFE9B4DC228E9D9E133AA825949315AECE136
FILE: 06 - Get Me Away From You.flac
  Size: 23700547 Hash: 88CACB6B1A0C3BEFCD9886DB6C2CE623 Accuracy: -m0
  Conclusion: CDDA 100%
  Signature: 99E355FD5E32DE74B3A8B57680FAED026483BAB8
FILE: 05 - Talk To Me.flac
  Size: 23944097 Hash: 5BF677C96D4B094DB90FA8EAC7D7E722 Accuracy: -m0
  Conclusion: CDDA 100%
  Signature: 66373F0D194FDF13167AA6667845AD160F06AC03
FILE: 04 - Freakshow.flac
  Size: 24812858 Hash: D292738A716FB4084A250906FB2F098A Accuracy: -m0
  Conclusion: CDDA 100%
  Signature: B762C97137DC289984146636412B2B63B497FBAF
FILE: 03 - Should Have Known Better.flac
  Size: 26352524 Hash: 86433F2F6072ADFD4EE93F991A8DF3B0 Accuracy: -m0
  Conclusion: CDDA 100%
  Signature: F70D792A8F9215E1DE841666B89707E52C143073
FILE: 02 - Ladies Come First.flac
  Size: 22958582 Hash: E19E4CBC2C33769FD27C944C75777D09 Accuracy: -m0
  Conclusion: CDDA 100%
  Signature: 4A70A2067A07A5D6274346CF777B2C11059FA3CE
FILE: 01 - Save Me.flac
  Size: 21986492 Hash: ACFDCB121DE5B6AE628B4259145790B1 Accuracy: -m0
  Conclusion: CDDA 100%
  Signature: 1BC37FC6B1E81D5246894787F62CB1BEF0B133EC

All American Nightmare


Трек лист:

01 - 2 Sides Of Me
02 - All American Nightmare
03 - What Ya Gonna Do
04 - Hey Ho
05 - The Life
06 - Waking Up The Devil
07 - Red Tail Lights
08 - Striptease
09 - Everybody's Wrong
10 - Put That Record On
Продолжительность: 00:36:56
Источник (релизер): jiqwenn
Код:
Код: Выделить всё
Exact Audio Copy V1.0 beta 1 from 15. November 2010

EAC extraction logfile from 17. April 2011, 10:11

Hinder / All American Nightmare

Used drive  : Optiarc DVD RW AD-7263S   Adapter: 5  ID: 0

Read mode               : Secure
Utilize accurate stream : Yes
Defeat audio cache      : Yes
Make use of C2 pointers : No

Read offset correction                      : 48
Overread into Lead-In and Lead-Out          : No
Fill up missing offset samples with silence : Yes
Delete leading and trailing silent blocks   : No
Null samples used in CRC calculations       : Yes
Used interface                              : Native Win32 interface for Win NT & 2000
Gap handling                                : Appended to previous track

Used output format              : User Defined Encoder
Selected bitrate                : 1024 kBit/s
Quality                         : High
Add ID3 tag                     : No
Command line compressor         : C:\Program Files\Exact Audio Copy\Flac\flac.exe
Additional command line options : -6 -V -T "ARTIST=%a" -T "TITLE=%t" -T "ALBUM=%g" -T "DATE=%y" -T "TRACKNUMBER=%n" -T "GENRE=%m" -T "COMMENT=%e" %j--picture="%i"%j %s -o %d

TOC of the extracted CD

     Track |   Start  |  Length  | Start sector | End sector
    ---------------------------------------------------------
        1  |  0:00.00 |  3:24.50 |         0    |    15349
        2  |  3:24.50 |  3:17.71 |     15350    |    30195
        3  |  6:42.46 |  4:07.50 |     30196    |    48770
        4  | 10:50.21 |  3:35.58 |     48771    |    64953
        5  | 14:26.04 |  3:38.30 |     64954    |    81333
        6  | 18:04.34 |  4:12.62 |     81334    |   100295
        7  | 22:17.21 |  3:48.72 |    100296    |   117467
        8  | 26:06.18 |  3:29.30 |    117468    |   133172
        9  | 29:35.48 |  3:42.23 |    133173    |   149845
       10  | 33:17.71 |  3:38.62 |    149846    |   166257

Track  1

     Filename C:\Rips\01 - 2 Sides of me.wav

     Pre-gap length  0:00:02.00

     Peak level 100.0 %
     Extraction speed 2.3 X
     Track quality 100.0 %
     Test CRC 88E94BD5
     Copy CRC 88E94BD5
     Cannot be verified as accurate (confidence 2)  [4D19A3A9], AccurateRip returned [1C84A28B]
     Copy OK

Track  2

     Filename C:\Rips\02 - All american nightmare.wav

     Peak level 100.0 %
     Extraction speed 2.5 X
     Track quality 100.0 %
     Test CRC FC430215
     Copy CRC FC430215
     Cannot be verified as accurate (confidence 2)  [85631B3B], AccurateRip returned [A290B96D]
     Copy OK

Track  3

     Filename C:\Rips\03 - What ya gonna do.wav

     Peak level 100.0 %
     Extraction speed 2.8 X
     Track quality 100.0 %
     Test CRC E01C5347
     Copy CRC E01C5347
     Cannot be verified as accurate (confidence 2)  [FE1C51D7], AccurateRip returned [AA6C8B4B]
     Copy OK

Track  4

     Filename C:\Rips\04 - Hey Ho.wav

     Peak level 100.0 %
     Extraction speed 3.0 X
     Track quality 100.0 %
     Test CRC C537EC7C
     Copy CRC C537EC7C
     Cannot be verified as accurate (confidence 2)  [A3E3B7F0], AccurateRip returned [9A8C83D6]
     Copy OK

Track  5

     Filename C:\Rips\05 - The Life.wav

     Pre-gap length  0:00:01.48

     Peak level 100.0 %
     Extraction speed 3.2 X
     Track quality 100.0 %
     Test CRC 25B535D4
     Copy CRC 25B535D4
     Cannot be verified as accurate (confidence 2)  [747F4B24], AccurateRip returned [7593293E]
     Copy OK

Track  6

     Filename C:\Rips\06 - Waking up the devil.wav

     Peak level 100.0 %
     Extraction speed 3.4 X
     Track quality 100.0 %
     Test CRC CE93026A
     Copy CRC CE93026A
     Cannot be verified as accurate (confidence 2)  [F0113FE7], AccurateRip returned [1A915607]
     Copy OK

Track  7

     Filename C:\Rips\07 - Red tail light.wav

     Peak level 100.0 %
     Extraction speed 3.6 X
     Track quality 100.0 %
     Test CRC A112497F
     Copy CRC A112497F
     Cannot be verified as accurate (confidence 2)  [2BAA4CD7], AccurateRip returned [C4E8D98F]
     Copy OK

Track  8

     Filename C:\Rips\08 - Striptease.wav

     Peak level 100.0 %
     Extraction speed 3.7 X
     Track quality 100.0 %
     Test CRC 9605F31C
     Copy CRC 9605F31C
     Cannot be verified as accurate (confidence 2)  [7B98E411], AccurateRip returned [738C9CED]
     Copy OK

Track  9

     Filename C:\Rips\09 - Everybody's wrong.wav

     Peak level 100.0 %
     Extraction speed 3.9 X
     Track quality 100.0 %
     Test CRC 03BF5696
     Copy CRC 03BF5696
     Cannot be verified as accurate (confidence 2)  [3CE8C3A6], AccurateRip returned [1645905C]
     Copy OK

Track 10

     Filename C:\Rips\10 - Put that record on.wav

     Peak level 100.0 %
     Extraction speed 3.5 X
     Track quality 99.9 %
     Test CRC 7DF996E0
     Copy CRC 7DF996E0
     Cannot be verified as accurate (confidence 2)  [8A4D52F0], AccurateRip returned [E4B0951C]
     Copy OK

No tracks could be verified as accurate
You may have a different pressing from the one(s) in the database

No errors occurred

End of status report

==== Log checksum 71DA07EE66B53D19E5E1246824D81115636EF235B04B4EC4B5E3F31E28888B4F ====
Код:
Код: Выделить всё
-----------------------

DON'T MODIFY THIS FILE

-----------------------

PERFORMER: auCDtect Task Manager, ver. 1.5.1RC6 build 1.5.1.7
Copyright (c) 2008-2010 y-soft. All rights reserved
http:/y-soft.org

ANALYZER: auCDtect: CD records authenticity detector, version 0.8.2
Copyright (c) 2004 Oleg Berngardt. All rights reserved.
Copyright (c) 2004 Alexander Djourik. All rights reserved.

FILE: 10 - Put that record on.flac
  Size: 28696464 Hash: FAB1A48D25F2B27246227F0C9C516540 Accuracy: -m0
  Conclusion: CDDA 100%
  Signature: 775B8237BD5D465683D271C2B8BAF78767AB3629
FILE: 09 - Everybody's wrong.flac
  Size: 27893687 Hash: 5E743EDFE920266A6A2A260AE0795B55 Accuracy: -m0
  Conclusion: CDDA 100%
  Signature: 39C5F5869E2303EB0C8394E26BF6D694BD8F499A
FILE: 08 - Striptease.flac
  Size: 28235383 Hash: AF4875BDE0F68227CBB4201998B117D2 Accuracy: -m0
  Conclusion: CDDA 100%
  Signature: 86D33E853A9BE58596695A11D31A4D76215DA0F1
FILE: 07 - Red tail light.flac
  Size: 30355843 Hash: E65A367B490204783CC4B575E56C92D4 Accuracy: -m0
  Conclusion: CDDA 100%
  Signature: 9DCDB15E75F6E5AC26F490364035B67B53ACA971
FILE: 06 - Waking up the devil.flac
  Size: 33032931 Hash: 73998294635BF45FD78692BA4BF283BD Accuracy: -m0
  Conclusion: CDDA 100%
  Signature: F6DB0E976745CA2AB1CED59E7F2EE75C88EBD955
FILE: 05 - The Life.flac
  Size: 28124380 Hash: 596FB9696F1F33A5EBA48C494915963E Accuracy: -m0
  Conclusion: CDDA 100%
  Signature: 3425CBCE0D99595D6F8B80196B2B7B4A971B16C6
FILE: 04 - Hey Ho.flac
  Size: 27907530 Hash: 4C5F221A901FD25A5E085F5D866BF4D1 Accuracy: -m0
  Conclusion: CDDA 100%
  Signature: 67A240B02C890FC2BBE28C5877B12950F0A9FC8F
FILE: 03 - What ya gonna do.flac
  Size: 32534296 Hash: CA5AC5123185FAEED28F24244D01261A Accuracy: -m0
  Conclusion: CDDA 99%
  Signature: 542F9A92F0DAF82185488D15AA57DC984A419A5F
FILE: 02 - All american nightmare.flac
  Size: 26086797 Hash: D28A7576A97BBCDD5949D3E07F8D298A Accuracy: -m0
  Conclusion: CDDA 100%
  Signature: EAA1908D1507F598326E99667BC23C77F20E9258
FILE: 01 - 2 Sides of me.flac
  Size: 26309263 Hash: AE421DB1D5FB1B7060FB3CB99C3F2AE6 Accuracy: -m0
  Conclusion: CDDA 100%
  Signature: 04A343238CD4C15897F465BAE00CB9B44471B412

Take It To The Limit


Трек лист:

01 - Use Me
02 - Loaded And Alone
03 - Last Kiss Goodbye
04 - Up All Night (feat. Crispin Earl and Eric Schraeder of The Veer Union)
05 - Without You
06 - Take It To The Limit (feat. Mick Mars of Motley Crue)
07 - The Best Is Yet To Come
08 - Heaven Sent
09 - Thing For You
10 - Lost In The Sun
11 - Far From Home
12 - Heaven Sent (Live) (Bonus Track)
13 - Loaded And Alone (Acoustic) (Bonus Track)
14 - Lost In The Sun (Live) (Bonus Track)
15 - The Best Is Yet To Come (Acoustic) (Bonus Track)
16 - Without You (Acoustic) (Bonus Track)
17 - Use Me (Live) (Bonus Track)
Продолжительность: 01:04:09
Источник (релизер): waffles.fm
Код:
Код: Выделить всё
Exact Audio Copy V0.99 prebeta 5 from 4. May 2009

EAC extraction logfile from 22. April 2010, 20:39

Hinder / Take It To The Limit (Best Buy Exclusive Edition)

Used drive  : PLEXTOR CD-R   PX-W2410A   Adapter: 1  ID: 0

Read mode               : Secure
Utilize accurate stream : Yes
Defeat audio cache      : Yes
Make use of C2 pointers : No

Read offset correction                      : 98
Overread into Lead-In and Lead-Out          : Yes
Fill up missing offset samples with silence : Yes
Delete leading and trailing silent blocks   : No
Null samples used in CRC calculations       : Yes
Used interface                              : Native Win32 interface for Win NT & 2000
Gap handling                                : Appended to previous track

Used output format              : User Defined Encoder
Selected bitrate                : 1024 kBit/s
Quality                         : High
Add ID3 tag                     : No
Command line compressor         : C:\Program Files\Exact Audio Copy\Flac\flac.exe
Additional command line options : -V -8 -T "artist=%a" -T "title=%t" -T "album=%g" -T "date=%y" -T "tracknumber=%n" -T "genre=%m" %s

TOC of the extracted CD

     Track |   Start  |  Length  | Start sector | End sector
    ---------------------------------------------------------
        1  |  0:00.00 |  3:49.55 |         0    |    17229
        2  |  3:49.55 |  4:06.11 |     17230    |    35690
        3  |  7:55.66 |  3:48.59 |     35691    |    52849
        4  | 11:44.50 |  3:33.50 |     52850    |    68874
        5  | 15:18.25 |  3:52.20 |     68875    |    86294
        6  | 19:10.45 |  3:11.20 |     86295    |   100639
        7  | 22:21.65 |  3:22.55 |    100640    |   115844
        8  | 25:44.45 |  3:41.17 |    115845    |   132436
        9  | 29:25.62 |  3:59.29 |    132437    |   150390
       10  | 33:25.16 |  3:52.68 |    150391    |   167858
       11  | 37:18.09 |  4:03.65 |    167859    |   186148
       12  | 41:21.74 |  3:42.38 |    186149    |   202836
       13  | 45:04.37 |  3:34.26 |    202837    |   218912
       14  | 48:38.63 |  3:46.42 |    218913    |   235904
       15  | 52:25.30 |  3:21.01 |    235905    |   250980
       16  | 55:46.31 |  3:52.13 |    250981    |   268393
       17  | 59:38.44 |  4:30.50 |    268394    |   288693

Track  1

     Filename E:\EACRips\Hinder - Take It To The Limit (Best Buy Exclusive Edition) - 2008\01 - Use Me.wav

     Pre-gap length  0:00:02.00

     Peak level 100.0 %
     Track quality 100.0 %
     Test CRC 97EEAD8A
     Copy CRC 97EEAD8A
     Accurately ripped (confidence 18)  [21C7BCCF]
     Copy OK

Track  2

     Filename E:\EACRips\Hinder - Take It To The Limit (Best Buy Exclusive Edition) - 2008\02 - Loaded And Alone.wav

     Peak level 100.0 %
     Track quality 100.0 %
     Test CRC B83661D1
     Copy CRC B83661D1
     Accurately ripped (confidence 18)  [98926355]
     Copy OK

Track  3

     Filename E:\EACRips\Hinder - Take It To The Limit (Best Buy Exclusive Edition) - 2008\03 - Last Kiss Goodbye.wav

     Peak level 100.0 %
     Track quality 99.9 %
     Test CRC 2E42B627
     Copy CRC 2E42B627
     Accurately ripped (confidence 18)  [602B86F3]
     Copy OK

Track  4

     Filename E:\EACRips\Hinder - Take It To The Limit (Best Buy Exclusive Edition) - 2008\04 - Up All Night (feat. Crispin Earl and Eric Schraeder of The Veer Union).wav

     Peak level 100.0 %
     Track quality 100.0 %
     Test CRC E7DF0DA6
     Copy CRC E7DF0DA6
     Accurately ripped (confidence 18)  [A6A3D695]
     Copy OK

Track  5

     Filename E:\EACRips\Hinder - Take It To The Limit (Best Buy Exclusive Edition) - 2008\05 - Without You.wav

     Peak level 100.0 %
     Track quality 100.0 %
     Test CRC 9A998244
     Copy CRC 9A998244
     Accurately ripped (confidence 18)  [25C5B537]
     Copy OK

Track  6

     Filename E:\EACRips\Hinder - Take It To The Limit (Best Buy Exclusive Edition) - 2008\06 - Take It To The Limit (feat. Mick Mars of Mцtley Crьe).wav

     Peak level 100.0 %
     Track quality 99.9 %
     Test CRC C699036B
     Copy CRC C699036B
     Accurately ripped (confidence 18)  [2142EE4A]
     Copy OK

Track  7

     Filename E:\EACRips\Hinder - Take It To The Limit (Best Buy Exclusive Edition) - 2008\07 - The Best Is Yet To Come.wav

     Peak level 100.0 %
     Track quality 100.0 %
     Test CRC 8709B620
     Copy CRC 8709B620
     Accurately ripped (confidence 18)  [DB2B7306]
     Copy OK

Track  8

     Filename E:\EACRips\Hinder - Take It To The Limit (Best Buy Exclusive Edition) - 2008\08 - Heaven Sent.wav

     Peak level 100.0 %
     Track quality 100.0 %
     Test CRC 7AE026AD
     Copy CRC 7AE026AD
     Accurately ripped (confidence 18)  [A55145E0]
     Copy OK

Track  9

     Filename E:\EACRips\Hinder - Take It To The Limit (Best Buy Exclusive Edition) - 2008\09 - Thing For You.wav

     Peak level 100.0 %
     Track quality 99.9 %
     Test CRC A0F492BF
     Copy CRC A0F492BF
     Accurately ripped (confidence 18)  [CC72EBAD]
     Copy OK

Track 10

     Filename E:\EACRips\Hinder - Take It To The Limit (Best Buy Exclusive Edition) - 2008\10 - Lost In The Sun.wav

     Peak level 100.0 %
     Track quality 100.0 %
     Test CRC F325BF05
     Copy CRC F325BF05
     Accurately ripped (confidence 18)  [21DC9106]
     Copy OK

Track 11

     Filename E:\EACRips\Hinder - Take It To The Limit (Best Buy Exclusive Edition) - 2008\11 - Far From Home.wav

     Peak level 100.0 %
     Track quality 100.0 %
     Test CRC 034BA6C6
     Copy CRC 034BA6C6
     Accurately ripped (confidence 18)  [7D35514B]
     Copy OK

Track 12

     Filename E:\EACRips\Hinder - Take It To The Limit (Best Buy Exclusive Edition) - 2008\12 - Heaven Sent (Live) (Bonus Track).wav

     Peak level 89.6 %
     Track quality 99.9 %
     Test CRC 6A9CBD51
     Copy CRC 6A9CBD51
     Accurately ripped (confidence 18)  [AB5B7640]
     Copy OK

Track 13

     Filename E:\EACRips\Hinder - Take It To The Limit (Best Buy Exclusive Edition) - 2008\13 - Loaded And Alone (Acoustic) (Bonus Track).wav

     Peak level 91.2 %
     Track quality 100.0 %
     Test CRC 9192A1B7
     Copy CRC 9192A1B7
     Accurately ripped (confidence 18)  [1281EB76]
     Copy OK

Track 14

     Filename E:\EACRips\Hinder - Take It To The Limit (Best Buy Exclusive Edition) - 2008\14 - Lost In The Sun (Live) (Bonus Track).wav

     Peak level 84.6 %
     Track quality 100.0 %
     Test CRC 648F7B21
     Copy CRC 648F7B21
     Accurately ripped (confidence 18)  [70EBC1A6]
     Copy OK

Track 15

     Filename E:\EACRips\Hinder - Take It To The Limit (Best Buy Exclusive Edition) - 2008\15 - The Best Is Yet To Come (Acoustic) (Bonus Track).wav

     Peak level 90.1 %
     Track quality 100.0 %
     Test CRC 3162AED4
     Copy CRC 3162AED4
     Accurately ripped (confidence 18)  [4C4BA97F]
     Copy OK

Track 16

     Filename E:\EACRips\Hinder - Take It To The Limit (Best Buy Exclusive Edition) - 2008\16 - Without You (Acoustic) (Bonus Track).wav

     Peak level 89.1 %
     Track quality 100.0 %
     Test CRC F75E25F2
     Copy CRC F75E25F2
     Accurately ripped (confidence 17)  [90FD8DBA]
     Copy OK

Track 17

     Filename E:\EACRips\Hinder - Take It To The Limit (Best Buy Exclusive Edition) - 2008\17 - Use Me (Live) (Bonus Track).wav

     Peak level 87.6 %
     Track quality 100.0 %
     Test CRC 34D0A8A9
     Copy CRC 34D0A8A9
     Accurately ripped (confidence 17)  [D869D6AC]
     Copy OK

All tracks accurately ripped

No errors occurred

End of status report

Код:
Код: Выделить всё
-----------------------

DON'T MODIFY THIS FILE

-----------------------

PERFORMER: auCDtect Task Manager, ver. 1.5.1RC6 build 1.5.1.7
Copyright (c) 2008-2010 y-soft. All rights reserved
http:/y-soft.org

ANALYZER: auCDtect: CD records authenticity detector, version 0.8.2
Copyright (c) 2004 Oleg Berngardt. All rights reserved.
Copyright (c) 2004 Alexander Djourik. All rights reserved.

FILE: 17 - Use Me (Live) (Bonus Track).flac
  Size: 36880946 Hash: F91BBC6BD0C36D87255A8094B17D0AFA Accuracy: -m0
  Conclusion: CDDA 99%
  Signature: 48B7FEE7C8B8278B1D4EB1FACF93AEEE31241B42
FILE: 16 - Without You (Acoustic) (Bonus Track).flac
  Size: 28268603 Hash: 393E9D4E624C107CAB2B9F4AACBAEA80 Accuracy: -m0
  Conclusion: CDDA 100%
  Signature: 9D1A62E985A85806345FE1927B1E7E07B7443625
FILE: 15 - The Best Is Yet To Come (Acoustic) (Bonus Track).flac
  Size: 24801670 Hash: 58A12239CB016AA28DBE1E94E2B7D630 Accuracy: -m0
  Conclusion: CDDA 100%
  Signature: 8684EDFE5C6CCF370D6B780BE5BECC7BBB0ABAFB
FILE: 14 - Lost In The Sun (Live) (Bonus Track).flac
  Size: 29854194 Hash: 44EBCC73671A79EEB6431B4DAD1A3B9A Accuracy: -m0
  Conclusion: CDDA 100%
  Signature: 6A53D3D34EF4C6D2659F04AA0C7A21D6BA3FF0BB
FILE: 13 - Loaded And Alone (Acoustic) (Bonus Track).flac
  Size: 26834551 Hash: CFBEB6BE8A602FA83DFB18107FE4C995 Accuracy: -m0
  Conclusion: CDDA 100%
  Signature: EB519E3E30B2B5BCD4CCCCA933D38F3A860DA00B
FILE: 12 - Heaven Sent (Live) (Bonus Track).flac
  Size: 29427087 Hash: 2CC38999CE11C91CF163B797388DED7C Accuracy: -m0
  Conclusion: CDDA 99%
  Signature: 0E2DE86DC0E69D8FB554FEF6B742E3366EF7E93C
FILE: 11 - Far From Home.flac
  Size: 31537635 Hash: 1CBAB73801CBF35FD8A32AC2F49A5C91 Accuracy: -m0
  Conclusion: CDDA 100%
  Signature: 28C7666F39336DD050DC84D96714A67776FCE8E4
FILE: 10 - Lost In The Sun.flac
  Size: 30515146 Hash: 3AE425AFE76C625E168CBA8B7E75DBAB Accuracy: -m0
  Conclusion: CDDA 100%
  Signature: 4BFB5E593279637DEEDC2D15233173E7EA7F2A8E
FILE: 09 - Thing For You.flac
  Size: 32078541 Hash: 9797F99682FDF65B97D85FB3EAC2D7B6 Accuracy: -m0
  Conclusion: CDDA 100%
  Signature: BA9BB079B12D8046792DF3BD300137A1F80FB55D
FILE: 08 - Heaven Sent.flac
  Size: 27828577 Hash: 20AD29C46CDC82475A61664AEC837E2C Accuracy: -m0
  Conclusion: CDDA 100%
  Signature: 7216C65FD1CE4477191C918E61946B4E05891D57
FILE: 07 - The Best Is Yet To Come.flac
  Size: 25873267 Hash: ECA3E8A9018E21CA086E946E26468A10 Accuracy: -m0
  Conclusion: CDDA 100%
  Signature: E631E58F9CE93A7A0AA1056422446F362BD9CDD4
FILE: 06 - Take It To The Limit (feat. Mick Mars of Mötley Crüe).flac
  Size: 26371030 Hash: 1F1C363D2BE61D5764F56902607A0D22 Accuracy: -m0
  Conclusion: CDDA 99%
  Signature: 5A21DFCC34E680B389BDA2B5D6F255BEA591BDAA
FILE: 05 - Without You.flac
  Size: 30714601 Hash: A661BF015C809470D0A86C121CCC9DDA Accuracy: -m0
  Conclusion: CDDA 100%
  Signature: 2623289A68072D970CE24CE475B1CA6D990C7582
FILE: 04 - Up All Night (feat. Crispin Earl and Eric Schraeder of The Veer Union).flac
  Size: 28144757 Hash: 2C45D0358B800D80E23D2D25C0FCF3CA Accuracy: -m0
  Conclusion: CDDA 99%
  Signature: 627471720E3CADA18AB484924F3AC93ED733F6D1
FILE: 03 - Last Kiss Goodbye.flac
  Size: 31303994 Hash: 50FBA575A2E826B07785ADB66AD63B2C Accuracy: -m0
  Conclusion: CDDA 100%
  Signature: EC5F2180082FC0AF3185C780EB34B0FA41F8905A
FILE: 02 - Loaded And Alone.flac
  Size: 33146556 Hash: 0F0403411BD3C8C062067B6DBA8816A6 Accuracy: -m0
  Conclusion: CDDA 99%
  Signature: B64F2FD1C2598CFFB547AF208195D9D033281145
FILE: 01 - Use Me.flac
  Size: 30922480 Hash: 61BD10C6DF4B9FE32A340268546136AD Accuracy: -m0
  Conclusion: CDDA 99%
  Signature: EBA7BB6AFDAAEAE00C12E07E6862ED4D38E343C4

Extreme Behavior


Трек лист:

01 - Get Stoned
02 - How Long
03 - By the Way
04 - Nothin' Good About Goodbye
05 - Bliss (I Don't Wanna Know)
06 - Better Than Me
07 - Room 21
08 - Lips of an Angel
09 - Homecoming Queen
10 - Shoulda
Продолжительность: 00:38:22
Код:
Код: Выделить всё
Exact Audio Copy V0.99 prebeta 4 from 23. January 2008
EAC extraction logfile from 5. May 2009, 8:54
Hinder / Extreme Behavior
Used drive : ASUS DVD-E616A Adapter: 2 ID: 0
Read mode : Secure
Utilize accurate stream : Yes
Defeat audio cache : Yes
Make use of C2 pointers : No
Read offset correction : 6
Overread into Lead-In and Lead-Out : No
Fill up missing offset samples with silence : Yes
Delete leading and trailing silent blocks : No
Null samples used in CRC calculations : Yes
Used interface : Native Win32 interface for Win NT & 2000
Gap handling : Appended to previous track
Used output format : User Defined Encoder
Selected bitrate : 128 kBit/s
Quality : High
Add ID3 tag : No
Command line compressor : C:\Program Files\Exact Audio Copy\Flac\flac.exe
Additional command line options : -V -8 -T "artist=%a" -T "title=%t" -T "album=%g" -T "date=%y" -T "tracknumber=%n" -T "genre=%m" %s
TOC of the extracted CD
Track | Start | Length | Start sector | End sector
---------------------------------------------------------
1 | 0:00.00 | 3:38.29 | 0 | 16378
2 | 3:38.29 | 3:24.56 | 16379 | 31734
3 | 7:03.10 | 3:51.51 | 31735 | 49110
4 | 10:54.61 | 3:52.46 | 49111 | 66556
5 | 14:47.32 | 3:50.18 | 66557 | 83824
6 | 18:37.50 | 3:43.40 | 83825 | 100589
7 | 22:21.15 | 3:43.35 | 100590 | 117349
8 | 26:04.50 | 4:21.64 | 117350 | 136988
9 | 30:26.39 | 4:38.64 | 136989 | 157902
10 | 35:05.28 | 3:16.70 | 157903 | 172672
Track 1
Filename C:\EACrips\Hinder - Extreme Behavior [FLAC]\01 - Get Stoned.wav
Pre-gap length 0:00:02.00
Peak level 99.9 %
Track quality 100.0 %
Test CRC 9F0DFF69
Copy CRC 9F0DFF69
Accurately ripped (confidence 89) [DAB3F1CA]
Copy OK
Track 2
Filename C:\EACrips\Hinder - Extreme Behavior [FLAC]\02 - How Long.wav
Peak level 99.9 %
Track quality 100.0 %
Test CRC 6F14A822
Copy CRC 6F14A822
Accurately ripped (confidence 88) [16F3227E]
Copy OK
Track 3
Filename C:\EACrips\Hinder - Extreme Behavior [FLAC]\03 - By The Way.wav
Peak level 99.9 %
Track quality 100.0 %
Test CRC E65E94EE
Copy CRC E65E94EE
Accurately ripped (confidence 87) [64452C6B]
Copy OK
Track 4
Filename C:\EACrips\Hinder - Extreme Behavior [FLAC]\04 - Nothin' Good About Goodbye.wav
Peak level 100.0 %
Track quality 100.0 %
Test CRC 32EFBDE7
Copy CRC 32EFBDE7
Accurately ripped (confidence 86) [82D3285B]
Copy OK
Track 5
Filename C:\EACrips\Hinder - Extreme Behavior [FLAC]\05 - Bliss (I Don't Wanna Know).wav
Peak level 99.9 %
Track quality 100.0 %
Test CRC 1EE7BE37
Copy CRC 1EE7BE37
Accurately ripped (confidence 88) [DAC11135]
Copy OK
Track 6
Filename C:\EACrips\Hinder - Extreme Behavior [FLAC]\06 - Better Than Me.wav
Peak level 99.9 %
Track quality 100.0 %
Test CRC E30CA050
Copy CRC E30CA050
Accurately ripped (confidence 87) [AB9DDAFA]
Copy OK
Track 7
Filename C:\EACrips\Hinder - Extreme Behavior [FLAC]\07 - Room 21.wav
Peak level 100.0 %
Track quality 99.9 %
Test CRC 4FBC386B
Copy CRC 4FBC386B
Accurately ripped (confidence 87) [C29D020A]
Copy OK
Track 8
Filename C:\EACrips\Hinder - Extreme Behavior [FLAC]\08 - Lips Of An Angel.wav
Peak level 99.9 %
Track quality 100.0 %
Test CRC 80D2D30D
Copy CRC 80D2D30D
Accurately ripped (confidence 90) [B551B83B]
Copy OK
Track 9
Filename C:\EACrips\Hinder - Extreme Behavior [FLAC]\09 - Homecoming Queen.wav
Peak level 99.9 %
Track quality 100.0 %
Test CRC 63D1488A
Copy CRC 63D1488A
Accurately ripped (confidence 89) [E6381018]
Copy OK
Track 10
Filename C:\EACrips\Hinder - Extreme Behavior [FLAC]\10 - Shoulda.wav
Peak level 99.9 %
Track quality 99.9 %
Test CRC A41FAE98
Copy CRC A41FAE98
Accurately ripped (confidence 86) [0A14EBC6]
Copy OK
All tracks accurately ripped
No errors occurred
End of status report
Код:
Код: Выделить всё
-----------------------

DON'T MODIFY THIS FILE

-----------------------

PERFORMER: auCDtect Task Manager, ver. 1.5.1RC6 build 1.5.1.7
Copyright (c) 2008-2010 y-soft. All rights reserved
http:/y-soft.org

ANALYZER: auCDtect: CD records authenticity detector, version 0.8.2
Copyright (c) 2004 Oleg Berngardt. All rights reserved.
Copyright (c) 2004 Alexander Djourik. All rights reserved.

FILE: 10 - Shoulda.flac
  Size: 25198526 Hash: 4648F04F36D2650E93D163A01E1FC37A Accuracy: -m0
  Conclusion: CDDA 100%
  Signature: 0B6FE871A02E0E2E82404D28A8531A2A8F4F088F
FILE: 09 - Homecoming Queen.flac
  Size: 34531948 Hash: 929D2952B580CC75584985B6378D11AE Accuracy: -m0
  Conclusion: CDDA 100%
  Signature: 4AD062C3E88FF80139865644215931DEDA13B0C2
FILE: 08 - Lips Of An Angel.flac
  Size: 32200300 Hash: 490E2F2770348B018B976FE10CFAC361 Accuracy: -m0
  Conclusion: CDDA 100%
  Signature: 2C620E024E891D68A7C2881FE12B15E589F5C144
FILE: 07 - Room 21.flac
  Size: 29524726 Hash: 2AAC39EDCB7B26F1C0254B69FF568D44 Accuracy: -m0
  Conclusion: CDDA 100%
  Signature: 471F4E8EB49BE2ACDC020AF4834A94607C1B03A9
FILE: 06 - Better Than Me.flac
  Size: 26382991 Hash: 133E094B3F86ECE74AB01F3D10A3BA1D Accuracy: -m0
  Conclusion: CDDA 100%
  Signature: F08FD1CD50F0000F1F328FF84602936F49DF8655
FILE: 05 - Bliss (I Don't Wanna Know).flac
  Size: 28942641 Hash: 32ECE63556E8F3413DD4FFC4274FD46C Accuracy: -m0
  Conclusion: CDDA 99%
  Signature: 5791F7D35DEBBE861ACC02FDD666C7AE5A783CCD
FILE: 04 - Nothin' Good About Goodbye.flac
  Size: 28489628 Hash: B58C8B417FAAE1F38465F2FE73E95A76 Accuracy: -m0
  Conclusion: CDDA 100%
  Signature: D31A13EFEE736412F7E5003575685B602BBE297D
FILE: 03 - By The Way.flac
  Size: 30591345 Hash: 82CDBEABD0BD1B3A9F03240AD3E7F763 Accuracy: -m0
  Conclusion: CDDA 100%
  Signature: AF036F176E7D1F45C355BF365C84623309944407
FILE: 02 - How Long.flac
  Size: 26964240 Hash: 2F23956C5F03995675C149E401E2661D Accuracy: -m0
  Conclusion: CDDA 100%
  Signature: 88295A08C7EFB28A511FE096AE6DD0286E7D8FB5
FILE: 01 - Get Stoned.flac
  Size: 28783943 Hash: 3F5E7C01BF2AE3A6348157F2ACB0F1E9 Accuracy: -m0
  Conclusion: CDDA 100%
  Signature: 958538DF821482F7A4E4152DB276E4E0F56766C8

Far From Close


Трек лист:

01 - Paste
02 - Lay Me Down
03 - Feelings
04 - Look Back
05 - End Of Me
06 - Stay The Same
07 - My Asylum
08 - Back And Forth
09 - Jealous Man
10 - Eternity
11 - Someday
12 - Broken
13 - Upside Down
Продолжительность: 00:49:54
Код:
Код: Выделить всё
Exact Audio Copy V0.99 prebeta 4 from 23. January 2008

EAC extraction logfile from 16. May 2009, 12:37

Hinder / Far From Close

Used drive  : _NEC    DVD_RW ND-3520A   Adapter: 2  ID: 0

Read mode               : Secure
Utilize accurate stream : Yes
Defeat audio cache      : Yes
Make use of C2 pointers : No

Read offset correction                      : 48
Overread into Lead-In and Lead-Out          : No
Fill up missing offset samples with silence : Yes
Delete leading and trailing silent blocks   : No
Null samples used in CRC calculations       : Yes
Used interface                              : Native Win32 interface for Win NT & 2000
Gap handling                                : Appended to previous track

Used output format              : User Defined Encoder
Selected bitrate                : 128 kBit/s
Quality                         : High
Add ID3 tag                     : No
Command line compressor         : C:\Program Files\Exact Audio Copy\Flac\flac.exe
Additional command line options : -V -8 -T "artist=%a" -T "title=%t" -T "album=%g" -T "date=%y" -T "tracknumber=%n" -T "genre=%m" %s

TOC of the extracted CD

     Track |   Start  |  Length  | Start sector | End sector
    ---------------------------------------------------------
        1  |  0:00.00 |  3:43.43 |         0    |    16767
        2  |  3:43.43 |  3:30.70 |     16768    |    32587
        3  |  7:14.38 |  4:10.71 |     32588    |    51408
        4  | 11:25.34 |  3:12.25 |     51409    |    65833
        5  | 14:37.59 |  3:31.72 |     65834    |    81730
        6  | 18:09.56 |  3:24.74 |     81731    |    97104
        7  | 21:34.55 |  3:52.38 |     97105    |   114542
        8  | 25:27.18 |  2:49.66 |    114543    |   127283
        9  | 28:17.09 |  3:49.63 |    127284    |   144521
       10  | 32:06.72 |  3:39.41 |    144522    |   160987
       11  | 35:46.38 |  4:44.14 |    160988    |   182301
       12  | 40:30.52 |  5:21.35 |    182302    |   206411
       13  | 45:52.12 |  4:02.53 |    206412    |   224614

Track  1

     Filename D:\мьюзиккк!\Hinder\Hinder - 2003 - Far From Close\01 - Paste.wav

     Pre-gap length  0:00:02.00

     Peak level 97.6 %
     Track quality 99.8 %
     Test CRC 63D86BA4
     Copy CRC 63D86BA4
     Track not present in AccurateRip database
     Copy OK

Track  2

     Filename D:\мьюзиккк!\Hinder\Hinder - 2003 - Far From Close\02 - Lay Me Down.wav

     Peak level 97.6 %
     Track quality 99.9 %
     Test CRC 17AFA753
     Copy CRC 17AFA753
     Track not present in AccurateRip database
     Copy OK

Track  3

     Filename D:\мьюзиккк!\Hinder\Hinder - 2003 - Far From Close\03 - Feelings.wav

     Peak level 97.6 %
     Track quality 100.0 %
     Test CRC 25E980AD
     Copy CRC 25E980AD
     Track not present in AccurateRip database
     Copy OK

Track  4

     Filename D:\мьюзиккк!\Hinder\Hinder - 2003 - Far From Close\04 - Look Back.wav

     Peak level 97.6 %
     Track quality 100.0 %
     Test CRC D4AF4DF4
     Copy CRC D4AF4DF4
     Track not present in AccurateRip database
     Copy OK

Track  5

     Filename D:\мьюзиккк!\Hinder\Hinder - 2003 - Far From Close\05 - End Of Me.wav

     Peak level 97.6 %
     Track quality 100.0 %
     Test CRC D4BEA577
     Copy CRC D4BEA577
     Track not present in AccurateRip database
     Copy OK

Track  6

     Filename D:\мьюзиккк!\Hinder\Hinder - 2003 - Far From Close\06 - Stay The Same.wav

     Peak level 97.6 %
     Track quality 100.0 %
     Test CRC C14BC554
     Copy CRC C14BC554
     Track not present in AccurateRip database
     Copy OK

Track  7

     Filename D:\мьюзиккк!\Hinder\Hinder - 2003 - Far From Close\07 - My Asylum.wav

     Peak level 97.6 %
     Track quality 100.0 %
     Test CRC 076334B5
     Copy CRC 076334B5
     Track not present in AccurateRip database
     Copy OK

Track  8

     Filename D:\мьюзиккк!\Hinder\Hinder - 2003 - Far From Close\08 - Back And Forth.wav

     Peak level 97.6 %
     Track quality 100.0 %
     Test CRC B7184B14
     Copy CRC B7184B14
     Track not present in AccurateRip database
     Copy OK

Track  9

     Filename D:\мьюзиккк!\Hinder\Hinder - 2003 - Far From Close\09 - Jealous Man.wav

     Peak level 97.6 %
     Track quality 100.0 %
     Test CRC D55DDA08
     Copy CRC D55DDA08
     Track not present in AccurateRip database
     Copy OK

Track 10

     Filename D:\мьюзиккк!\Hinder\Hinder - 2003 - Far From Close\10 - Eternity.wav

     Peak level 97.6 %
     Track quality 100.0 %
     Test CRC 291D5842
     Copy CRC 291D5842
     Track not present in AccurateRip database
     Copy OK

Track 11

     Filename D:\мьюзиккк!\Hinder\Hinder - 2003 - Far From Close\11 - Someday.wav

     Peak level 97.6 %
     Track quality 100.0 %
     Test CRC 5C24D04E
     Copy CRC 5C24D04E
     Track not present in AccurateRip database
     Copy OK

Track 12

     Filename D:\мьюзиккк!\Hinder\Hinder - 2003 - Far From Close\12 - Broken.wav

     Peak level 97.6 %
     Track quality 100.0 %
     Test CRC 3DAC7C82
     Copy CRC 3DAC7C82
     Track not present in AccurateRip database
     Copy OK

Track 13

     Filename D:\мьюзиккк!\Hinder\Hinder - 2003 - Far From Close\13 - Upside Down.wav

     Peak level 97.6 %
     Track quality 100.0 %
     Test CRC 81D86E9A
     Copy CRC 81D86E9A
     Track not present in AccurateRip database
     Copy OK

None of the tracks are present in the AccurateRip database

No errors occurred

End of status report
Код:
Код: Выделить всё
-----------------------

DON'T MODIFY THIS FILE

-----------------------

PERFORMER: auCDtect Task Manager, ver. 1.5.1RC6 build 1.5.1.7
Copyright (c) 2008-2010 y-soft. All rights reserved
http:/y-soft.org

ANALYZER: auCDtect: CD records authenticity detector, version 0.8.2
Copyright (c) 2004 Oleg Berngardt. All rights reserved.
Copyright (c) 2004 Alexander Djourik. All rights reserved.

FILE: 13 - Upside Down.flac
  Size: 25394779 Hash: 91F08478950F462CE5BFBA4C5A4D6D58 Accuracy: -m0
  Conclusion: CDDA 99%
  Signature: 8B66CA6526732D21787FC8573F25EB02D307A3B6
FILE: 12 - Broken.flac
  Size: 37228711 Hash: 55FB3DD55D2A0A9F14BD0B4F324B6E25 Accuracy: -m0
  Conclusion: CDDA 100%
  Signature: CE10B8872C8E552A3AE3D3F7FC629A10CD5F88E3
FILE: 11 - Someday.flac
  Size: 33145926 Hash: 8CE597ABBFB88E485E85F48EF540D140 Accuracy: -m0
  Conclusion: CDDA 100%
  Signature: F1C654C7893060E3E1D051E6FF435A66AB9868F1
FILE: 10 - Eternity.flac
  Size: 23645125 Hash: E0DB1933379825A90BBDF495199598BE Accuracy: -m0
  Conclusion: CDDA 100%
  Signature: 9998D590989F1B39AA3C529E27285E0E147A1937
FILE: 09 - Jealous Man.flac
  Size: 27590713 Hash: 6266F317341B34766B916FCF45F8DB21 Accuracy: -m0
  Conclusion: CDDA 100%
  Signature: 9D06CBAB822E058A7924F02003E2F3F74853BB0D
FILE: 08 - Back And Forth.flac
  Size: 20693697 Hash: 140118F7FCB8E8D8C633E8B6FADF66A3 Accuracy: -m0
  Conclusion: CDDA 100%
  Signature: FCAC33C13D2E22A8325D972596CADFA9E8FB468F
FILE: 07 - My Asylum.flac
  Size: 26003620 Hash: CCB16A8D7BB4604F693387D86D666058 Accuracy: -m0
  Conclusion: CDDA 100%
  Signature: 3A81B2128D006732EE472934E9B6438A8F514BDC
FILE: 06 - Stay The Same.flac
  Size: 24179120 Hash: F83EE273864176621AED76DBD6C6E78E Accuracy: -m0
  Conclusion: CDDA 100%
  Signature: A3D7DFED3E6F46BBEEF34B6CF405800337A66E58
FILE: 05 - End Of Me.flac
  Size: 25835243 Hash: 4511E64E2D0BA2A216DF059A06A58F0C Accuracy: -m0
  Conclusion: CDDA 100%
  Signature: 7A7E8EC014B6161435F56B96C3E3218DADBD93D1
FILE: 04 - Look Back.flac
  Size: 22298907 Hash: 54BDEF4012D765B2F1FE31A7A8DA08C9 Accuracy: -m0
  Conclusion: CDDA 100%
  Signature: FE740DDB0FA881DD7B9B6353B8655BDA3F39C07E
FILE: 03 - Feelings.flac
  Size: 30288298 Hash: 28EC4541D043A92A7722F833A934BD33 Accuracy: -m0
  Conclusion: CDDA 100%
  Signature: A6C190B1227DB95D963639A262318F57E1DB2D09
FILE: 02 - Lay Me Down.flac
  Size: 27717518 Hash: 11015665F69B47F1CAA6C5C2BDCD88FB Accuracy: -m0
  Conclusion: CDDA 100%
  Signature: D90320BCC80492789CF7F8E833D0593E8BD2B0B9
FILE: 01 - Paste.flac
  Size: 26929983 Hash: 50D0F942AF7101CD22CC9EB4F5EB7E0A Accuracy: -m0
  Conclusion: CDDA 100%
  Signature: 307A578F78D65FF1407ABBADCC3AAFA349E38000

Правила, инструкции, FAQ!!!
Торрент  Добавлен [01 май 2014, 23:48] Скачать торрент Магнет ссылка
Скачать торрент
25.99 КБ

Статус
Проверен 
 
Размер  1.7 ГБ
Приватный: Нет (DHT включён)
.torrent скачан  1
Как залить торрент? | Как скачать Torrent? | Как смотреть и слушать онлайн?  
Гость
 



Вернуться в Дискографии (Зарубежные)

Кто сейчас на конференции

Сейчас этот форум просматривают: нет зарегистрированных пользователей и гости: 0