(Hard Rock) [WEB] Whitesnake - Slide It In: The Ultimate Special Edition (35th Anniversary Remaster) - 1984/2019, FLAC (tracks), lossless


Статистика раздачи
Размер: 2.19 ГБ | Добавлен: 09 мар 2019, 10:40 | Скачали: 2
Сидеров: 49  [0 байт/сек]    Личеров: 11  [0 байт/сек]

Сообщение Гость » 09 мар 2019, 10:40

Whitesnake - Slide It In: The Ultimate Special Edition


Жанр: Hard Rock | Носитель: WEB | Год издания: 1984/2019
Издатель-лейбл: Rhino | Страна исполнителя: UK/USA
Аудиокодек: FLAC (*.flac) | Тип рипа: tracks | Битрейт аудио: lossless
Источник: deezer | Наличие сканов: нет
Продолжительность: 05:45:23
Треклист:
01. Gambler (US Mix, 2019 Remaster) (3:57)
02. Slide It In (US Mix, 2019 Remaster) (3:19)
03. Slow An' Easy (US Mix, 2019 Remaster) (6:01)
04. Love Ain't No Stranger (US Mix, 2019 Remaster) (4:14)
05. Give Me More Time (US Mix, 2019 Remaster) (3:42)
06. Standing in the Shadow (US Mix, 2019 Remaster) (3:39)
07. Hungry for Love (US Mix, 2019 Remaster) (3:29)
08. All or Nothing (US Mix, 2019 Remaster) (3:41)
09. Spit It Out (US Mix, 2019 Remaster) (4:28)
10. Guilty of Love (US Mix, 2019 Remaster) (3:25)
Код: Выделить всё
CUE Corrector v. 8.3.5 / b. 906 (Mar. 02, 2019)
————————————————————————————————————————————————————————————————————————
Whitesnake / Slide It In: The Ultimate Edition (2019 Remaster)
Folder: Disc 01
Audio files:
    01 Gambler (US Mix 2019 Remaster).flac [03:57.387; FLAC • 992 kbps • 16 bit \ 44100 Hz • stereo; 28.07 MB (29 436 599 B)]
    02 Slide It In (US Mix 2019 Remaster).flac [03:19.347; FLAC • 988 kbps • 16 bit \ 44100 Hz • stereo; 23.48 MB (24 624 522 B)]
    03 Slow An' Easy (US Mix 2019 Remaster).flac [06:00.773; FLAC • 881 kbps • 16 bit \ 44100 Hz • stereo; 37.93 MB (39 769 605 B)]
    04 Love Ain't No Stranger (US Mix 2019 Remaster).flac [04:14.480; FLAC • 951 kbps • 16 bit \ 44100 Hz • stereo; 28.85 MB (30 251 820 B)]
    05 Give Me More Time (US Mix 2019 Remaster).flac [03:42.133; FLAC • 1017 kbps • 16 bit \ 44100 Hz • stereo; 26.94 MB (28 253 303 B)]
    06 Standing in the Shadow (US Mix 2019 Remaster).flac [03:38.813; FLAC • 1062 kbps • 16 bit \ 44100 Hz • stereo; 27.71 MB (29 058 099 B)]
    07 Hungry for Love (US Mix 2019 Remaster).flac [03:29.213; FLAC • 1069 kbps • 16 bit \ 44100 Hz • stereo; 26.67 MB (27 968 974 B)]
    08 All or Nothing (US Mix 2019 Remaster).flac [03:40.947; FLAC • 980 kbps • 16 bit \ 44100 Hz • stereo; 25.83 MB (27 086 436 B)]
    09 Spit It Out (US Mix 2019 Remaster).flac [04:28.427; FLAC • 1029 kbps • 16 bit \ 44100 Hz • stereo; 32.96 MB (34 558 449 B)]
    10 Guilty of Love (US Mix 2019 Remaster).flac [03:24.747; FLAC • 1063 kbps • 16 bit \ 44100 Hz • stereo; 25.97 MB (27 227 818 B)]
Accuracy: -m0
File 01 Gambler (US Mix 2019 Remaster)                - 100% CDDA [03:57:29]
File 02 Slide It In (US Mix 2019 Remaster)            - 100% CDDA [03:19:26]
File 03 Slow An' Easy (US Mix 2019 Remaster)          - 100% CDDA [06:00:58]
File 04 Love Ain't No Stranger (US Mix 2019 Remaster) -  99% CDDA [04:14:36]
File 05 Give Me More Time (US Mix 2019 Remaster)      - 100% CDDA [03:42:10]
File 06 Standing in the Shadow (US Mix 2019 Remaster) - 100% CDDA [03:38:61]
File 07 Hungry for Love (US Mix 2019 Remaster)        -  99% CDDA [03:29:16]
File 08 All or Nothing (US Mix 2019 Remaster)         - 100% CDDA [03:40:71]
File 09 Spit It Out (US Mix 2019 Remaster)            - 100% CDDA [04:28:32]
File 10 Guilty of Love (US Mix 2019 Remaster)         - 100% CDDA [03:24:56]
————— Summary: —————
These tracks looks like CDDA with probability 100%.
————————————————————————————————————————————————————————————————————————
ANALYZER:
    auCDtect: CD records authenticity detector, version 0.8.2
    Copyright (c) 2004 Oleg Berngardt. All rights reserved.
    Copyright (c) 2004 Alexander Djourik. All rights reserved.
Time elapsed: 3 m 01 s
Log created at March 08, 2019 10:07:12
=== 4CA3CD085AD8E66920634F90C2E3A023A0008465B25378126B7EC83F6EB0E972 ===
Код: Выделить всё
[CUETools log; Date: 08.03.2019 9:57:35; Version: 2.1.6]
Padded some input files to a frame boundary.
[CTDB TOCID: TNCo24rgmBE2vHJV7u6Z5LAFCKM-] disk not present in database.
[AccurateRip ID: 000f7429-007b0ebd-8f095c0a] disk not present in database.
Track Peak [ CRC32  ] [W/O NULL]
 --   99,4 [1B1CFE76] [7F1868A8]
 01   99,4 [D47622A1] [94837A66]
 02   97,5 [FFD3F1D5] [30373397]
 03   98,5 [935FDF4F] [5A94A91F]
 04   97,8 [94639BE0] [118FEDAE]
 05   98,0 [9AE0FBB7] [6C0C2CD5]
 06   97,4 [475550BD] [D2FC6CA4]
 07   98,7 [C63C1E0B] [718463F4]
 08   97,8 [E0468F64] [853E71DE]
 09   98,0 [F241C01C] [62E20A28]
 10   97,6 [C8591FFB] [1B9142B7]
Код: Выделить всё
foobar2000 1.4.2 / Замер динамического диапазона (DR) 1.1.1
Дата отчёта:  2019-03-08 09:48:33
--------------------------------------------------------------------------------
Анализ:   Whitesnake / Slide It In: The Ultimate Edition (2019 Remaster)
--------------------------------------------------------------------------------
DR         Пики         RMS           Продолжительность трека
--------------------------------------------------------------------------------
DR10      -0.05 дБ   -11.34 дБ      3:57 01-Gambler (US Mix, 2019 Remaster)
DR10      -0.22 дБ   -11.35 дБ      3:19 02-Slide It In (US Mix, 2019 Remaster)
DR9       -0.13 дБ   -12.16 дБ      6:01 03-Slow An' Easy (US Mix, 2019 Remaster)
DR10      -0.19 дБ   -11.97 дБ      4:14 04-Love Ain't No Stranger (US Mix, 2019 Remaster)
DR10      -0.17 дБ   -10.86 дБ      3:42 05-Give Me More Time (US Mix, 2019 Remaster)
DR9       -0.22 дБ   -10.34 дБ      3:39 06-Standing in the Shadow (US Mix, 2019 Remaster)
DR9       -0.11 дБ   -10.36 дБ      3:29 07-Hungry for Love (US Mix, 2019 Remaster)
DR9       -0.19 дБ   -10.36 дБ      3:41 08-All or Nothing (US Mix, 2019 Remaster)
DR9       -0.17 дБ   -10.84 дБ      4:28 09-Spit It Out (US Mix, 2019 Remaster)
DR9       -0.21 дБ   -10.28 дБ      3:25 10-Guilty of Love (US Mix, 2019 Remaster)
--------------------------------------------------------------------------------
Количество треков: 10
Реальные значения DR: DR9
Частота:   44100 Гц
Каналов:   2
Разрядность:   16
Битрейт:   1054 кбит/с
Кодек:   FLAC
================================================================================
01. Gambler (UK Mix, 2019 Remaster) (3:59)
02. Slide It In (UK Mix, 2019 Remaster) (3:18)
03. Slow An' Easy (UK Mix, 2019 Remaster) (6:00)
04. Love Ain't No Stranger (UK Mix, 2019 Remaster) (4:07)
05. Give Me More Time (UK Mix, 2019 Remaster) (3:42)
06. Standing in the Shadow (UK Mix, 2019 Remaster) (3:35)
07. Hungry for Love (UK Mix, 2019 Remaster) (3:58)
08. All or Nothing (UK Mix, 2019 Remaster) (3:41)
09. Spit It Out (UK Mix, 2019 Remaster) (4:14)
10. Guilty of Love (UK Mix, 2019 Remaster) (3:24)
11. Need Your Love So Bad (Single B-Side, 2019 Remaster) (3:14)
12. Gambler (7" Eddie Kramer Mix 1983, 2019 Remaster) (4:01)
13. Guilty of Love (7" Eddie Kramer Mix 1983, 2019 Remaster) (3:24)
Код: Выделить всё
CUE Corrector v. 8.3.5 / b. 906 (Mar. 02, 2019)
————————————————————————————————————————————————————————————————————————
Whitesnake / Slide It In: The Ultimate Edition (2019 Remaster)
Folder: Disc 02
Audio files:
    01 Gambler (UK Mix 2019 Remaster).flac [03:59.373; FLAC • 927 kbps • 16 bit \ 44100 Hz • stereo; 26.46 MB (27 740 656 B)]
    02 Slide It In (UK Mix 2019 Remaster).flac [03:17.573; FLAC • 989 kbps • 16 bit \ 44100 Hz • stereo; 23.29 MB (24 425 359 B)]
    03 Slow An' Easy (UK Mix 2019 Remaster).flac [06:00.013; FLAC • 878 kbps • 16 bit \ 44100 Hz • stereo; 37.69 MB (39 518 890 B)]
    04 Love Ain't No Stranger (UK Mix 2019 Remaster).flac [04:06.880; FLAC • 923 kbps • 16 bit \ 44100 Hz • stereo; 27.17 MB (28 492 609 B)]
    05 Give Me More Time (UK Mix 2019 Remaster).flac [03:42.133; FLAC • 967 kbps • 16 bit \ 44100 Hz • stereo; 25.62 MB (26 863 074 B)]
    06 Standing in the Shadow (UK Mix 2019 Remaster).flac [03:34.640; FLAC • 998 kbps • 16 bit \ 44100 Hz • stereo; 25.55 MB (26 787 274 B)]
    07 Hungry for Love (UK Mix 2019 Remaster).flac [03:57.773; FLAC • 1018 kbps • 16 bit \ 44100 Hz • stereo; 28.86 MB (30 257 066 B)]
    08 All or Nothing (UK Mix 2019 Remaster).flac [03:40.653; FLAC • 938 kbps • 16 bit \ 44100 Hz • stereo; 24.68 MB (25 877 439 B)]
    09 Spit It Out (UK Mix 2019 Remaster).flac [04:14.133; FLAC • 979 kbps • 16 bit \ 44100 Hz • stereo; 29.68 MB (31 121 828 B)]
    10 Guilty of Love (UK Mix 2019 Remaster).flac [03:23.800; FLAC • 1025 kbps • 16 bit \ 44100 Hz • stereo; 24.90 MB (26 112 366 B)]
    11 Need Your Love So Bad (Single B-Side 2019 Remaster).flac [03:13.773; FLAC • 820 kbps • 16 bit \ 44100 Hz • stereo; 18.96 MB (19 881 998 B)]
    12 Gambler (7 Eddie Kramer Mix 1983 2019 Remaster).flac [04:00.733; FLAC • 967 kbps • 16 bit \ 44100 Hz • stereo; 27.78 MB (29 126 065 B)]
    13 Guilty of Love (7 Eddie Kramer Mix 1983 2019 Remaster).flac [03:24.333; FLAC • 1046 kbps • 16 bit \ 44100 Hz • stereo; 25.50 MB (26 736 210 B)]
Accuracy: -m0
File 01 Gambler (UK Mix 2019 Remaster)                         - 100% CDDA [03:59:28]
File 02 Slide It In (UK Mix 2019 Remaster)                     - 100% CDDA [03:17:43]
File 03 Slow An' Easy (UK Mix 2019 Remaster)                   - 100% CDDA [06:00:01]
File 04 Love Ain't No Stranger (UK Mix 2019 Remaster)          - 100% CDDA [04:06:66]
File 05 Give Me More Time (UK Mix 2019 Remaster)               - 100% CDDA [03:42:10]
File 06 Standing in the Shadow (UK Mix 2019 Remaster)          - 100% CDDA [03:34:48]
File 07 Hungry for Love (UK Mix 2019 Remaster)                 - 100% CDDA [03:57:58]
File 08 All or Nothing (UK Mix 2019 Remaster)                  - 100% CDDA [03:40:49]
File 09 Spit It Out (UK Mix 2019 Remaster)                     - 100% CDDA [04:14:10]
File 10 Guilty of Love (UK Mix 2019 Remaster)                  - 100% CDDA [03:23:60]
File 11 Need Your Love So Bad (Single B-Side 2019 Remaster)    - 100% CDDA [03:13:58]
File 12 Gambler (7 Eddie Kramer Mix 1983 2019 Remaster)        - 100% CDDA [04:00:55]
File 13 Guilty of Love (7 Eddie Kramer Mix 1983 2019 Remaster) -  99% CDDA [03:24:25]
————— Summary: —————
These tracks looks like CDDA with probability 100%.
————————————————————————————————————————————————————————————————————————
ANALYZER:
    auCDtect: CD records authenticity detector, version 0.8.2
    Copyright (c) 2004 Oleg Berngardt. All rights reserved.
    Copyright (c) 2004 Alexander Djourik. All rights reserved.
Time elapsed: 3 m 58 s
Log created at March 08, 2019 10:08:28
=== 7D952024C7F7966AFEE19315BBE76B8EF8D0C80D2214E3A4855695BF11603627 ===
Код: Выделить всё
[CUETools log; Date: 08.03.2019 9:57:54; Version: 2.1.6]
Padded some input files to a frame boundary.
[CTDB TOCID: XfiT_HbIMtDud1F3ZDXh_rmRYEM-] disk not present in database.
[AccurateRip ID: 00192453-00f98aca-bb0bdb0d] disk not present in database.
Track Peak [ CRC32  ] [W/O NULL]
 --   98,1 [E2592069] [65BF07EF]
 01   97,6 [B3F30CD8] [CB30B3F4]
 02   97,6 [5AA446BA] [AA4A72DA]
 03   97,8 [90E4D9DE] [1BE72E50]
 04   97,6 [07C3E063] [DEE947A3]
 05   97,4 [8336ECD6] [136D2E28]
 06   97,5 [6AC05A5E] [20D811BA]
 07   97,6 [0B565CC8] [B7C90256]
 08   97,5 [448D06D7] [3B1C57E9]
 09   97,8 [F2292F3E] [A5FE47B0]
 10   97,6 [C851802E] [5D28C402]
 11   97,4 [4264BAE4] [55CA669E]
 12   98,0 [15815E66] [F1EEC841]
 13   98,1 [57CCA408] [BEE6081F]
Код: Выделить всё
foobar2000 1.4.2 / Замер динамического диапазона (DR) 1.1.1
Дата отчёта:  2019-03-08 09:48:44
--------------------------------------------------------------------------------
Анализ:   Whitesnake / Slide It In: The Ultimate Edition (2019 Remaster)
--------------------------------------------------------------------------------
DR         Пики         RMS           Продолжительность трека
--------------------------------------------------------------------------------
DR9       -0.21 дБ   -10.85 дБ      3:59 01-Gambler (UK Mix, 2019 Remaster)
DR9       -0.20 дБ   -10.16 дБ      3:18 02-Slide It In (UK Mix, 2019 Remaster)
DR9       -0.19 дБ   -11.67 дБ      6:00 03-Slow An' Easy (UK Mix, 2019 Remaster)
DR9       -0.21 дБ   -10.99 дБ      4:07 04-Love Ain't No Stranger (UK Mix, 2019 Remaster)
DR9       -0.22 дБ   -10.04 дБ      3:42 05-Give Me More Time (UK Mix, 2019 Remaster)
DR8       -0.22 дБ   -10.04 дБ      3:35 06-Standing in the Shadow (UK Mix, 2019 Remaster)
DR9       -0.21 дБ   -10.23 дБ      3:58 07-Hungry for Love (UK Mix, 2019 Remaster)
DR9       -0.22 дБ   -10.69 дБ      3:41 08-All or Nothing (UK Mix, 2019 Remaster)
DR9       -0.19 дБ   -10.66 дБ      4:14 09-Spit It Out (UK Mix, 2019 Remaster)
DR8       -0.20 дБ    -9.16 дБ      3:24 10-Guilty of Love (UK Mix, 2019 Remaster)
DR8       -0.23 дБ   -13.00 дБ      3:14 11-Need Your Love So Bad (Single B-Side, 2019 Remaster)
DR8       -0.18 дБ    -9.63 дБ      4:01 12-Gambler (7" Eddie Kramer Mix 1983, 2019 Remaster)
DR8       -0.17 дБ    -9.05 дБ      3:24 13-Guilty of Love (7" Eddie Kramer Mix 1983, 2019 Remaster)
--------------------------------------------------------------------------------
Количество треков: 13
Реальные значения DR: DR9
Частота:   44100 Гц
Каналов:   2
Разрядность:   16
Битрейт:   1037 кбит/с
Кодек:   FLAC
================================================================================
01. Slide It In (2019 Remix) (3:20)
02. Slow An' Easy (2019 Remix) (6:07)
03. Love Ain't No Stranger (2019 Remix) (4:19)
04. Give Me More Time (2019 Remix) (3:40)
05. Guilty of Love (2019 Remix) (3:24)
06. All or Nothing (2019 Remix) (3:48)
07. Spit It Out (2019 Remix) (4:19)
08. Standing in the Shadow (2019 Remix) (3:25)
09. Hungry for Love (2019 Remix) (4:23)
10. Gambler (2019 Remix) (3:57)
11. Need Your Love So Bad (2019 Remix) (3:25)
Код: Выделить всё
CUE Corrector v. 8.3.5 / b. 906 (Mar. 02, 2019)
————————————————————————————————————————————————————————————————————————
Whitesnake / Slide It In: The Ultimate Edition (2019 Remaster)
Folder: Disc 03
Audio files:
    01 Slide It In (2019 Remix).flac [03:19.613; FLAC • 1045 kbps • 16 bit \ 44100 Hz • stereo; 24.88 MB (26 087 777 B)]
    02 Slow An' Easy (2019 Remix).flac [06:07.200; FLAC • 913 kbps • 16 bit \ 44100 Hz • stereo; 39.99 MB (41 930 749 B)]
    03 Love Ain't No Stranger (2019 Remix).flac [04:19.227; FLAC • 966 kbps • 16 bit \ 44100 Hz • stereo; 29.88 MB (31 328 947 B)]
    04 Give Me More Time (2019 Remix).flac [03:39.800; FLAC • 1039 kbps • 16 bit \ 44100 Hz • stereo; 27.24 MB (28 565 070 B)]
    05 Guilty of Love (2019 Remix).flac [03:24.360; FLAC • 1109 kbps • 16 bit \ 44100 Hz • stereo; 27.03 MB (28 338 069 B)]
    06 All or Nothing (2019 Remix).flac [03:48.387; FLAC • 1019 kbps • 16 bit \ 44100 Hz • stereo; 27.76 MB (29 105 904 B)]
    07 Spit It Out (2019 Remix).flac [04:19.307; FLAC • 1071 kbps • 16 bit \ 44100 Hz • stereo; 33.11 MB (34 719 197 B)]
    08 Standing in the Shadow (2019 Remix).flac [03:24.587; FLAC • 1103 kbps • 16 bit \ 44100 Hz • stereo; 26.90 MB (28 211 383 B)]
    09 Hungry for Love (2019 Remix).flac [04:22.920; FLAC • 1065 kbps • 16 bit \ 44100 Hz • stereo; 33.41 MB (35 030 548 B)]
    10 Gambler (2019 Remix).flac [03:56.867; FLAC • 1032 kbps • 16 bit \ 44100 Hz • stereo; 29.16 MB (30 571 251 B)]
    11 Need Your Love So Bad (2019 Remix).flac [03:25.093; FLAC • 677 kbps • 16 bit \ 44100 Hz • stereo; 16.57 MB (17 376 710 B)]
Accuracy: -m0
File 01 Slide It In (2019 Remix)            - 100% CDDA [03:19:46]
File 02 Slow An' Easy (2019 Remix)          - 100% CDDA [06:07:15]
File 03 Love Ain't No Stranger (2019 Remix) - 100% CDDA [04:19:17]
File 04 Give Me More Time (2019 Remix)      - 100% CDDA [03:39:60]
File 05 Guilty of Love (2019 Remix)         - 100% CDDA [03:24:27]
File 06 All or Nothing (2019 Remix)         -  99% CDDA [03:48:29]
File 07 Spit It Out (2019 Remix)            - 100% CDDA [04:19:23]
File 08 Standing in the Shadow (2019 Remix) - 100% CDDA [03:24:44]
File 09 Hungry for Love (2019 Remix)        - 100% CDDA [04:22:69]
File 10 Gambler (2019 Remix)                - 100% CDDA [03:56:65]
File 11 Need Your Love So Bad (2019 Remix)  - 100% CDDA [03:25:07]
————— Summary: —————
These tracks looks like CDDA with probability 100%.
————————————————————————————————————————————————————————————————————————
ANALYZER:
    auCDtect: CD records authenticity detector, version 0.8.2
    Copyright (c) 2004 Oleg Berngardt. All rights reserved.
    Copyright (c) 2004 Alexander Djourik. All rights reserved.
Time elapsed: 3 m 13 s
Log created at March 08, 2019 10:07:05
=== 5654C8BC1AF06CDA97F9A127BA5373F3CC1C5908305A755BC3AC8E9758813D9F ===
Код: Выделить всё
[CUETools log; Date: 08.03.2019 9:58:09; Version: 2.1.6]
Padded some input files to a frame boundary.
[CTDB TOCID: RU6RKy6sk_Mv2Zka.kW5LVX3ZOU-] disk not present in database.
[AccurateRip ID: 0012b3d7-00a0dad4-8c0a570b] disk not present in database.
Track Peak [ CRC32  ] [W/O NULL]
 --   94,9 [DE526926] [87BF3521]
 01   94,7 [BEF48FE9] [18511A8D]
 02   92,9 [B56C97D6] [06F087EE]
 03   94,9 [56D027D0] [1A73867A]
 04   93,0 [88BA44EB] [CB19F6ED]
 05   92,4 [A830A654] [83E5F02D]
 06   92,1 [523793F3] [5E776577]
 07   94,9 [4F9EEA49] [018A3636]
 08   93,1 [7F0CC88C] [5D5CBD23]
 09   94,2 [DE7BC3FE] [EF4212B2]
 10   94,2 [87202ECA] [A72AD331]
 11   87,0 [4DBE43E1] [5580B864]
Код: Выделить всё
foobar2000 1.4.2 / Замер динамического диапазона (DR) 1.1.1
Дата отчёта:  2019-03-08 09:48:54
--------------------------------------------------------------------------------
Анализ:   Whitesnake / Slide It In: The Ultimate Edition (2019 Remaster)
--------------------------------------------------------------------------------
DR         Пики         RMS           Продолжительность трека
--------------------------------------------------------------------------------
DR6       -0.46 дБ    -7.42 дБ      3:20 01-Slide It In (2019 Remix)
DR6       -0.63 дБ    -8.78 дБ      6:07 02-Slow An' Easy (2019 Remix)
DR6       -0.45 дБ    -8.18 дБ      4:19 03-Love Ain't No Stranger (2019 Remix)
DR5       -0.63 дБ    -6.89 дБ      3:40 04-Give Me More Time (2019 Remix)
DR5       -0.69 дБ    -6.80 дБ      3:24 05-Guilty of Love (2019 Remix)
DR5       -0.71 дБ    -6.95 дБ      3:48 06-All or Nothing (2019 Remix)
DR5       -0.45 дБ    -6.90 дБ      4:19 07-Spit It Out (2019 Remix)
DR5       -0.61 дБ    -6.95 дБ      3:25 08-Standing in the Shadow (2019 Remix)
DR5       -0.52 дБ    -6.87 дБ      4:23 09-Hungry for Love (2019 Remix)
DR6       -0.52 дБ    -7.49 дБ      3:57 10-Gambler (2019 Remix)
DR9       -1.20 дБ   -13.95 дБ      3:25 11-Need Your Love So Bad (2019 Remix)
--------------------------------------------------------------------------------
Количество треков: 11
Реальные значения DR: DR6
Частота:   44100 Гц
Каналов:   2
Разрядность:   16
Битрейт:   668 кбит/с
Кодек:   FLAC
================================================================================
01. Intro to Gambler from David Coverdale (0:21)
02. Gambler (Monitor Mix, 1983) (3:58)
03. Standing in the Shadow (Monitor Mix, 1983) (3:36)
04. Intro to Slide It In from David Coverdale (0:28)
05. Slide It In (Monitor Mix, 1983) (3:19)
06. Give Me More Time (Monitor Mix, 1983) (3:41)
07. Intro to Love Ain't No Stranger from David Coverdale (0:13)
08. Love Ain't No Stranger (Monitor Mix, 1983) (4:18)
09. Hungry for Love (Monitor Mix, 1983) (4:23)
10. Intro to Guilty of Love from David Coverdale (0:23)
11. Guilty of Love (Monitor Mix, 1983) (3:23)
12. Spit It Out (Monitor Mix, 1983) (4:26)
13. Intro to Slow An' Easy from David Coverdale (0:26)
14. Slow An' Easy (Monitor Mix, 1983) (5:59)
15. All or Nothing (Monitor Mix, 1983) (3:54)
16. David Coverdale discusses the US vs. UK versions of Slide It In (0:51)
17. Gambler (Jon Lord's Last Whitesnake Show, Sweden, April 16th, 1984) (3:25)
18. Guilty of Love (Jon Lord's Last Whitesnake Show, Sweden, April 16th, 1984) (3:58)
19. Love Ain't No Stranger (Jon Lord's Last Whitesnake Show, Sweden, April 16th, 1984) (4:29)
20. Ready An' Willing (Jon Lord's Last Whitesnake Show, Sweden, April 16th, 1984) (4:20)
Код: Выделить всё
CUE Corrector v. 8.3.5 / b. 906 (Mar. 02, 2019)
————————————————————————————————————————————————————————————————————————
Whitesnake / Slide It In: The Ultimate Edition (2019 Remaster)
Folder: Disc 04
Audio files:
    01 Intro to Gambler from David Coverdale.flac [00:21.333; FLAC • 677 kbps • 16 bit \ 44100 Hz • stereo; 1.72 MB (1 805 384 B)]
    02 Gambler (Monitor Mix 1983).flac [03:57.653; FLAC • 958 kbps • 16 bit \ 44100 Hz • stereo; 27.14 MB (28 462 035 B)]
    03 Standing in the Shadow (Monitor Mix 1983).flac [03:36.173; FLAC • 964 kbps • 16 bit \ 44100 Hz • stereo; 24.87 MB (26 073 949 B)]
    04 Intro to Slide It In from David Coverdale.flac [00:28.467; FLAC • 612 kbps • 16 bit \ 44100 Hz • stereo; 2.08 MB (2 177 505 B)]
    05 Slide It In (Monitor Mix 1983).flac [03:19.133; FLAC • 953 kbps • 16 bit \ 44100 Hz • stereo; 22.63 MB (23 729 577 B)]
    06 Give Me More Time (Monitor Mix 1983).flac [03:41.067; FLAC • 947 kbps • 16 bit \ 44100 Hz • stereo; 24.96 MB (26 170 586 B)]
    07 Intro to Love Ain't No Stranger from David Coverdale.flac [00:13.307; FLAC • 694 kbps • 16 bit \ 44100 Hz • stereo; 1.10 MB (1 155 011 B)]
    08 Love Ain't No Stranger (Monitor Mix 1983).flac [04:18.293; FLAC • 911 kbps • 16 bit \ 44100 Hz • stereo; 28.08 MB (29 439 966 B)]
    09 Hungry for Love (Monitor Mix 1983).flac [04:22.680; FLAC • 970 kbps • 16 bit \ 44100 Hz • stereo; 30.37 MB (31 850 412 B)]
    10 Intro to Guilty of Love from David Coverdale.flac [00:23.187; FLAC • 645 kbps • 16 bit \ 44100 Hz • stereo; 1.78 MB (1 869 562 B)]
    11 Guilty of Love (Monitor Mix 1983).flac [03:23.427; FLAC • 1027 kbps • 16 bit \ 44100 Hz • stereo; 24.92 MB (26 131 785 B)]
    12 Spit It Out (Monitor Mix 1983).flac [04:25.600; FLAC • 918 kbps • 16 bit \ 44100 Hz • stereo; 29.09 MB (30 499 490 B)]
    13 Intro to Slow An' Easy from David Coverdale.flac [00:26.427; FLAC • 641 kbps • 16 bit \ 44100 Hz • stereo; 2.02 MB (2 117 133 B)]
    14 Slow An' Easy (Monitor Mix 1983).flac [05:58.960; FLAC • 859 kbps • 16 bit \ 44100 Hz • stereo; 36.77 MB (38 556 279 B)]
    15 All or Nothing (Monitor Mix 1983).flac [03:53.760; FLAC • 934 kbps • 16 bit \ 44100 Hz • stereo; 26.04 MB (27 299 732 B)]
    16 David Coverdale discusses the US vs. UK versions of Slide It In.flac [00:51.307; FLAC • 592 kbps • 16 bit \ 44100 Hz • stereo; 3.62 MB (3 797 671 B)]
    17 Gambler (Jon Lord's Last Whitesnake Show Sweden April 16th 1984).flac [03:25.507; FLAC • 754 kbps • 16 bit \ 44100 Hz • stereo; 18.48 MB (19 376 873 B)]
    18 Guilty of Love (Jon Lord's Last Whitesnake Show Sweden April 16th 1984).flac [03:58.120; FLAC • 724 kbps • 16 bit \ 44100 Hz • stereo; 20.56 MB (21 561 214 B)]
    19 Love Ain't No Stranger (Jon Lord's Last Whitesnake Show Sweden April 16th 1984).flac [04:29.387; FLAC • 703 kbps • 16 bit \ 44100 Hz • stereo; 22.60 MB (23 702 270 B)]
    20 Ready An' Willing (Jon Lord's Last Whitesnake Show Sweden April 16th 1984).flac [04:20.493; FLAC • 738 kbps • 16 bit \ 44100 Hz • stereo; 22.92 MB (24 034 258 B)]
Accuracy: -m0
File 01 Intro to Gambler from David Coverdale                                           - 100% CDDA [00:21:25]
File 02 Gambler (Monitor Mix 1983)                                                      - 100% CDDA [03:57:49]
File 03 Standing in the Shadow (Monitor Mix 1983)                                       - 100% CDDA [03:36:13]
File 04 Intro to Slide It In from David Coverdale                                       - 100% CDDA [00:28:35]
File 05 Slide It In (Monitor Mix 1983)                                                  - 100% CDDA [03:19:10]
File 06 Give Me More Time (Monitor Mix 1983)                                            - 100% CDDA [03:41:05]
File 07 Intro to Love Ain't No Stranger from David Coverdale                            - 100% CDDA [00:13:23]
File 08 Love Ain't No Stranger (Monitor Mix 1983)                                       - 100% CDDA [04:18:22]
File 09 Hungry for Love (Monitor Mix 1983)                                              - 100% CDDA [04:22:51]
File 10 Intro to Guilty of Love from David Coverdale                                    - 100% CDDA [00:23:14]
File 11 Guilty of Love (Monitor Mix 1983)                                               - 100% CDDA [03:23:32]
File 12 Spit It Out (Monitor Mix 1983)                                                  - 100% CDDA [04:25:45]
File 13 Intro to Slow An' Easy from David Coverdale                                     - 100% CDDA [00:26:32]
File 14 Slow An' Easy (Monitor Mix 1983)                                                - 100% CDDA [05:58:72]
File 15 All or Nothing (Monitor Mix 1983)                                               - 100% CDDA [03:53:57]
File 16 David Coverdale discusses the US vs. UK versions of Slide It In                 - 100% CDDA [00:51:23]
File 17 Gambler (Jon Lord's Last Whitesnake Show Sweden April 16th 1984)                - 100% CDDA [03:25:38]
File 18 Guilty of Love (Jon Lord's Last Whitesnake Show Sweden April 16th 1984)         - 100% CDDA [03:58:09]
File 19 Love Ain't No Stranger (Jon Lord's Last Whitesnake Show Sweden April 16th 1984) - 100% CDDA [04:29:29]
File 20 Ready An' Willing (Jon Lord's Last Whitesnake Show Sweden April 16th 1984)      - 100% CDDA [04:20:37]
————— Summary: —————
These tracks looks like CDDA with probability 100%.
————————————————————————————————————————————————————————————————————————
ANALYZER:
    auCDtect: CD records authenticity detector, version 0.8.2
    Copyright (c) 2004 Oleg Berngardt. All rights reserved.
    Copyright (c) 2004 Alexander Djourik. All rights reserved.
Time elapsed: 5 m 40 s
Log created at March 08, 2019 10:07:49
=== 83AE6813676C53E96DF254662852F844C43CC4BC1E67A13A82629AF33F4F0754 ===
Код: Выделить всё
[CUETools log; Date: 08.03.2019 9:58:32; Version: 2.1.6]
Padded some input files to a frame boundary.
[CTDB TOCID: aX8mLr2agSEBhBnGWk6CbkmVGkc-] disk not present in database.
[AccurateRip ID: 0026cfc8-0247ef81-230e0a14] disk not present in database.
Track Peak [ CRC32  ] [W/O NULL]
 --   99,6 [2C2B42F0] [3446442C]
 01   92,1 [1F6B2144] [D4008DB2]
 02   97,8 [B9AF412B] [4F618447]
 03   97,7 [F695C343] [2880380C]
 04   83,1 [799934F6] [25F26C48]
 05   97,5 [86E49DAA] [DBFA871F]
 06   97,6 [65E61809] [63233D72]
 07   72,7 [AEA6FAE5] [8A9E4931]
 08   97,6 [8B4423D5] [A33C03A1]
 09   97,5 [BB19D7DC] [1E2ABDD6]
 10   81,3 [BDD8C2B2] [067179AC]
 11   97,5 [5A67AC97] [552069B3]
 12   97,6 [98E5FEF8] [07E60949]
 13   80,7 [319DF05B] [845D9061]
 14   97,5 [6B8D1DD8] [78056412]
 15   97,6 [8C69EF9E] [9FF574E0]
 16   86,3 [85CD52A2] [F9479803]
 17   98,9 [55EC0199] [DD48DC47]
 18   98,4 [77D1E377] [0BA9E164]
 19   99,6 [1D4C6DDF] [3C080500]
 20   97,6 [567E21C8] [CF53D3BB]
Код: Выделить всё
foobar2000 1.4.2 / Замер динамического диапазона (DR) 1.1.1
Дата отчёта:  2019-03-08 09:49:08
--------------------------------------------------------------------------------
Анализ:   Whitesnake / Slide It In: The Ultimate Edition (2019 Remaster)
--------------------------------------------------------------------------------
DR         Пики         RMS           Продолжительность трека
--------------------------------------------------------------------------------
DR17      -0.71 дБ   -21.58 дБ      0:21 01-Intro to Gambler from David Coverdale
DR7       -0.19 дБ    -8.85 дБ      3:58 02-Gambler (Monitor Mix, 1983)
DR7       -0.20 дБ    -8.44 дБ      3:36 03-Standing in the Shadow (Monitor Mix, 1983)
DR18      -1.60 дБ   -21.50 дБ      0:28 04-Intro to Slide It In from David Coverdale
DR8       -0.21 дБ    -9.20 дБ      3:19 05-Slide It In (Monitor Mix, 1983)
DR7       -0.20 дБ    -8.49 дБ      3:41 06-Give Me More Time (Monitor Mix, 1983)
DR17      -2.77 дБ   -23.18 дБ      0:13 07-Intro to Love Ain't No Stranger from David Coverdale
DR6       -0.21 дБ    -8.46 дБ      4:18 08-Love Ain't No Stranger (Monitor Mix, 1983)
DR8       -0.21 дБ    -9.12 дБ      4:23 09-Hungry for Love (Monitor Mix, 1983)
DR19      -1.80 дБ   -22.72 дБ      0:23 10-Intro to Guilty of Love from David Coverdale
DR8       -0.22 дБ    -8.73 дБ      3:23 11-Guilty of Love (Monitor Mix, 1983)
DR7       -0.21 дБ    -9.39 дБ      4:26 12-Spit It Out (Monitor Mix, 1983)
DR18      -1.85 дБ   -22.49 дБ      0:26 13-Intro to Slow An' Easy from David Coverdale
DR8       -0.21 дБ   -10.25 дБ      5:59 14-Slow An' Easy (Monitor Mix, 1983)
DR7       -0.21 дБ    -8.31 дБ      3:54 15-All or Nothing (Monitor Mix, 1983)
DR18      -1.28 дБ   -22.08 дБ      0:51 16-David Coverdale discusses the US vs. UK versions of Slide It In
DR6       -0.09 дБ    -7.14 дБ      3:25 17-Gambler (Jon Lord's Last Whitesnake Show, Sweden, April 16th, 1984)
DR5       -0.14 дБ    -6.13 дБ      3:58 18-Guilty of Love (Jon Lord's Last Whitesnake Show, Sweden, April 16th, 1984)
DR5       -0.03 дБ    -7.07 дБ      4:29 19-Love Ain't No Stranger (Jon Lord's Last Whitesnake Show, Sweden, April 16th, 1984)
DR6       -0.20 дБ    -6.98 дБ      4:20 20-Ready An' Willing (Jon Lord's Last Whitesnake Show, Sweden, April 16th, 1984)
--------------------------------------------------------------------------------
Количество треков: 20
Реальные значения DR: DR10
Частота:   44100 Гц
Каналов:   2
Разрядность:   16
Битрейт:   730 кбит/с
Кодек:   FLAC
================================================================================
01. Gambler (Live in Glasgow, March 1st, 1984) (3:55)
02. Guilty of Love (Live in Glasgow, March 1st, 1984) (4:48)
03. Ready An' Willing (Sweet Satisfaction, Live in Glasgow, March 1st, 1984) (5:45)
04. Love Ain't No Stranger (Live in Glasgow, March 1st, 1984) (4:46)
05. Here I Go Again (Live in Glasgow, March 1st, 1984) (4:51)
06. Slow An' Easy (Live in Glasgow, March 1st, 1984) (7:11)
07. Crying In The Rain (Medley) (Live in Glasgow, March 1st, 1984) (11:53)
08. Keyboard Solo (Live in Glasgow, March 1st, 1984) (9:01)
09. Aint No Love in the Heart of the City (Live in Glasgow, March 1st, 1984) (7:26)
10. Fool for Your Loving (Live in Glasgow, March 1st, 1984) (4:55)
11. Need Your Love So Bad / Thank You Blues (Live in Glasgow, March 1st, 1984) (2:21)
12. Slide It In (Live in Glasgow, March 1st, 1984) (3:50)
13. Don't Break My Heart Again (Live in Glasgow, March 1st, 1984) (6:03)
Код: Выделить всё
CUE Corrector v. 8.3.5 / b. 906 (Mar. 02, 2019)
————————————————————————————————————————————————————————————————————————
Whitesnake / Slide It In: The Ultimate Edition (2019 Remaster)
Folder: Disc 05
Audio files:
    01 Gambler (Live in Glasgow March 1st 1984).flac [03:55.493; FLAC • 931 kbps • 16 bit \ 44100 Hz • stereo; 26.16 MB (27 431 413 B)]
    02 Guilty of Love (Live in Glasgow March 1st 1984).flac [04:47.640; FLAC • 925 kbps • 16 bit \ 44100 Hz • stereo; 31.73 MB (33 268 985 B)]
    03 Ready An' Willing (Sweet Satisfaction Live in Glasgow March 1st 1984).flac [05:45.000; FLAC • 931 kbps • 16 bit \ 44100 Hz • stereo; 38.31 MB (40 166 426 B)]
    04 Love Ain't No Stranger (Live in Glasgow March 1st 1984).flac [04:46.027; FLAC • 913 kbps • 16 bit \ 44100 Hz • stereo; 31.16 MB (32 668 578 B)]
    05 Here I Go Again (Live in Glasgow March 1st 1984).flac [04:50.813; FLAC • 919 kbps • 16 bit \ 44100 Hz • stereo; 31.88 MB (33 431 999 B)]
    06 Slow An' Easy (Live in Glasgow March 1st 1984).flac [07:10.960; FLAC • 902 kbps • 16 bit \ 44100 Hz • stereo; 46.39 MB (48 643 141 B)]
    07 Crying In The Rain (Medley) (Live in Glasgow March 1st 1984).flac [11:53.240; FLAC • 901 kbps • 16 bit \ 44100 Hz • stereo; 76.66 MB (80 379 581 B)]
    08 Keyboard Solo (Live in Glasgow March 1st 1984).flac [09:01.320; FLAC • 805 kbps • 16 bit \ 44100 Hz • stereo; 52.00 MB (54 526 730 B)]
    09 Aint No Love in the Heart of the City (Live in Glasgow March 1st 1984).flac [07:25.773; FLAC • 880 kbps • 16 bit \ 44100 Hz • stereo; 46.77 MB (49 042 648 B)]
    10 Fool for Your Loving (Live in Glasgow March 1st 1984).flac [04:54.827; FLAC • 958 kbps • 16 bit \ 44100 Hz • stereo; 33.69 MB (35 323 978 B)]
    11 Need Your Love So Bad - Thank You Blues (Live in Glasgow March 1st 1984).flac [02:20.760; FLAC • 784 kbps • 16 bit \ 44100 Hz • stereo; 13.16 MB (13 798 699 B)]
    12 Slide It In (Live in Glasgow March 1st 1984).flac [03:49.720; FLAC • 935 kbps • 16 bit \ 44100 Hz • stereo; 25.62 MB (26 861 393 B)]
    13 Don't Break My Heart Again (Live in Glasgow March 1st 1984).flac [06:02.653; FLAC • 901 kbps • 16 bit \ 44100 Hz • stereo; 38.97 MB (40 859 661 B)]
Accuracy: -m0
File 01 Gambler (Live in Glasgow March 1st 1984)                                 - 100% CDDA [03:55:37]
File 02 Guilty of Love (Live in Glasgow March 1st 1984)                          - 100% CDDA [04:47:48]
File 03 Ready An' Willing (Sweet Satisfaction Live in Glasgow March 1st 1984)    - 100% CDDA [05:45:00]
File 04 Love Ain't No Stranger (Live in Glasgow March 1st 1984)                  - 100% CDDA [04:46:02]
File 05 Here I Go Again (Live in Glasgow March 1st 1984)                         - 100% CDDA [04:50:61]
File 06 Slow An' Easy (Live in Glasgow March 1st 1984)                           - 100% CDDA [07:10:72]
File 07 Crying In The Rain (Medley) (Live in Glasgow March 1st 1984)             - 100% CDDA [11:53:18]
File 08 Keyboard Solo (Live in Glasgow March 1st 1984)                           - 100% CDDA [09:01:24]
File 09 Aint No Love in the Heart of the City (Live in Glasgow March 1st 1984)   - 100% CDDA [07:25:58]
File 10 Fool for Your Loving (Live in Glasgow March 1st 1984)                    - 100% CDDA [04:54:62]
File 11 Need Your Love So Bad - Thank You Blues (Live in Glasgow March 1st 1984) - 100% CDDA [02:20:57]
File 12 Slide It In (Live in Glasgow March 1st 1984)                             - 100% CDDA [03:49:54]
File 13 Don't Break My Heart Again (Live in Glasgow March 1st 1984)              - 100% CDDA [06:02:49]
————— Summary: —————
These tracks looks like CDDA with probability 100%.
————————————————————————————————————————————————————————————————————————
ANALYZER:
    auCDtect: CD records authenticity detector, version 0.8.2
    Copyright (c) 2004 Oleg Berngardt. All rights reserved.
    Copyright (c) 2004 Alexander Djourik. All rights reserved.
Time elapsed: 3 m 55 s
Log created at March 08, 2019 10:13:01
=== 43944945DC305B654AAE29FC3908517925160B111F9028ED08E37DBA4F62DF6D ===
Код: Выделить всё
[CUETools log; Date: 08.03.2019 9:58:51; Version: 2.1.6]
Padded some input files to a frame boundary.
[CTDB TOCID: d6VITcvFjksl_ybnPCyH6grOxgo-] disk not present in database.
[AccurateRip ID: 0024c410-01776f2e-b711fc0d] disk not present in database.
Track Peak [ CRC32  ] [W/O NULL]
 --   98,5 [BAB91011] [36EB1BF7]
 01   98,5 [F37C89E9] [2E4F198B]
 02   97,6 [5ABED1D6] [D6813C08]
 03   97,7 [57369E24] [AE4B6F9B]
 04   97,6 [D257ADF0] [66884830]
 05   98,0 [1F81E0D4] [70E4CD4D]
 06   97,7 [7BE48668] [5973C4A9]
 07   98,3 [2E2D7845] [B4EE1252]
 08   97,6 [E2943BB8] [CA8E7DE9]
 09   97,5 [359C81AC] [4B94B3E2]
 10   97,7 [073E3FC8] [BA39AD81]
 11   97,1 [56CD4C0D] [3A6890B3]
 12   97,5 [1A787B8B] [35A557B8]
 13   97,5 [982DE252] [8D45FC6C]
Код: Выделить всё
foobar2000 1.4.2 / Замер динамического диапазона (DR) 1.1.1
Дата отчёта:  2019-03-08 09:49:25
--------------------------------------------------------------------------------
Анализ:   Whitesnake / Slide It In: The Ultimate Edition (2019 Remaster)
--------------------------------------------------------------------------------
DR         Пики         RMS           Продолжительность трека
--------------------------------------------------------------------------------
DR9       -0.12 дБ   -11.40 дБ      3:55 01-Gambler (Live in Glasgow, March 1st, 1984)
DR10      -0.21 дБ   -11.50 дБ      4:48 02-Guilty of Love (Live in Glasgow, March 1st, 1984)
DR10      -0.20 дБ   -11.08 дБ      5:45 03-Ready An' Willing (Sweet Satisfaction, Live in Glasgow, March 1st, 1984)
DR9       -0.20 дБ   -11.89 дБ      4:46 04-Love Ain't No Stranger (Live in Glasgow, March 1st, 1984)
DR9       -0.18 дБ   -11.26 дБ      4:51 05-Here I Go Again (Live in Glasgow, March 1st, 1984)
DR10      -0.19 дБ   -12.65 дБ      7:11 06-Slow An' Easy (Live in Glasgow, March 1st, 1984)
DR9       -0.15 дБ   -12.31 дБ     11:53 07-Crying In The Rain (Medley) (Live in Glasgow, March 1st, 1984)
DR10      -0.20 дБ   -14.08 дБ      9:01 08-Keyboard Solo (Live in Glasgow, March 1st, 1984)
DR10      -0.22 дБ   -12.48 дБ      7:26 09-Aint No Love in the Heart of the City (Live in Glasgow, March 1st, 1984)
DR9       -0.20 дБ   -10.57 дБ      4:55 10-Fool for Your Loving (Live in Glasgow, March 1st, 1984)
DR11      -0.25 дБ   -16.49 дБ      2:21 11-Need Your Love So Bad / Thank You Blues (Live in Glasgow, March 1st, 1984)
DR10      -0.22 дБ   -10.92 дБ      3:50 12-Slide It In (Live in Glasgow, March 1st, 1984)
DR11      -0.21 дБ   -12.84 дБ      6:03 13-Don't Break My Heart Again (Live in Glasgow, March 1st, 1984)
--------------------------------------------------------------------------------
Количество треков: 13
Реальные значения DR: DR10
Частота:   44100 Гц
Каналов:   2
Разрядность:   16
Битрейт:   896 кбит/с
Кодек:   FLAC
================================================================================
01. All or Nothing (Early Ruff Mix with Unfinished Lyrics) (3:27)
02. Hungry for Love (Early Ruff Mix with Unfinished Lyrics) (4:22)
03. Spit It Out (Early Ruff Mix with Unfinished Lyrics) (4:30)
04. Give Me More Time (Early Ruff Mix with Unfinished Lyrics) (3:40)
05. Slow An' Easy (Early Ruff Mix with Unfinished Lyrics) (6:06)
06. Love Ain't No Stranger (Early Ruff Mix with Unfinished Lyrics) (4:22)
07. Need Your Love So Bad (feat. Jon Lord) (Instrumental, Early Ruff Mix with Unfinished Lyrics) (3:15)
08. Slow An' Easy (A Capella Excerpts Remix) (1:17)
09. All Or Nothing (Organ & Drums Excerpts Remix) (1:36)
10. Wheezy Interludes (Various Alcoholic Studio Antics, David and Mel "fighting a cold") (6:54)
11. Slow An' Easy (Original Demo) (3:54)
12. Slide It In (Original Demo) (0:44)
13. Standing in the Shadow (Original Demo) (2:50)
14. All or Nothing (Original Demo) (1:55)
15. Spit It Out (Original Demo) (1:20)
16. Guilty of Love (Original Demo) (2:22)
17. Love Ain't No Stranger (Original Demo) (1:20)
18. Intro to Need Your Love So Bad from David Coverdale (0:33)
19. Need Your Love So Bad (Original Demo) (3:24)
20. Body Heat (Unfinished Symphpnies Original Demo) (2:17)
21. The Gypsy in You (Unfinished Symphonies) (1:48)
22. Lounge Lizards (Unfinished Symphonies) (1:46)
23. Great Riff in the Morning (Unfinished Symphonies) (0:24)
24. The River Song (Unfinished Symphonies) (0:57)
25. Can't Make a Deal With the Devil (Unfinished Symphonies) (1:56)
26. Prayer for the Dying (Unfinished Symphonies) (2:15)
27. Spend the Night With Me (Unfinished Symphonies) (1:28)
28. So Much to Live for (Unfinished Symphonies) (1:05)
29. Riff Raff Blues (Unfinished Symphonies) (1:21)
30. Thank You Blues (Unfinished Symphonies) (0:51)
Код: Выделить всё
CUE Corrector v. 8.3.5 / b. 906 (Mar. 02, 2019)
————————————————————————————————————————————————————————————————————————
Whitesnake / Slide It In: The Ultimate Edition (2019 Remaster)
Folder: Disc 06
Audio files:
    01 All or Nothing (Early Ruff Mix with Unfinished Lyrics).flac [03:26.640; FLAC • 920 kbps • 16 bit \ 44100 Hz • stereo; 22.67 MB (23 775 148 B)]
    02 Hungry for Love (Early Ruff Mix with Unfinished Lyrics).flac [04:22.280; FLAC • 952 kbps • 16 bit \ 44100 Hz • stereo; 29.79 MB (31 234 606 B)]
    03 Spit It Out (Early Ruff Mix with Unfinished Lyrics).flac [04:29.507; FLAC • 957 kbps • 16 bit \ 44100 Hz • stereo; 30.75 MB (32 241 293 B)]
    04 Give Me More Time (Early Ruff Mix with Unfinished Lyrics).flac [03:39.627; FLAC • 972 kbps • 16 bit \ 44100 Hz • stereo; 25.45 MB (26 684 602 B)]
    05 Slow An' Easy (Early Ruff Mix with Unfinished Lyrics).flac [06:06.307; FLAC • 884 kbps • 16 bit \ 44100 Hz • stereo; 38.61 MB (40 488 368 B)]
    06 Love Ain't No Stranger (Early Ruff Mix with Unfinished Lyrics).flac [04:21.680; FLAC • 937 kbps • 16 bit \ 44100 Hz • stereo; 29.24 MB (30 662 268 B)]
    07 Need Your Love So Bad (feat. Jon Lord) (Instrumental Early Ruff Mix with Unfinished Lyrics).flac [03:15.453; FLAC • 712 kbps • 16 bit \ 44100 Hz • stereo; 16.61 MB (17 412 454 B)]
    08 Slow An' Easy (A Capella Excerpts Remix).flac [01:17.267; FLAC • 626 kbps • 16 bit \ 44100 Hz • stereo; 5.77 MB (6 052 675 B)]
    09 All Or Nothing (Organ & Drums Excerpts Remix).flac [01:36.400; FLAC • 849 kbps • 16 bit \ 44100 Hz • stereo; 9.76 MB (10 233 370 B)]
    10 Wheezy Interludes (Various Alcoholic Studio Antics David and Mel fighting a cold).flac [06:54.080; FLAC • 853 kbps • 16 bit \ 44100 Hz • stereo; 42.13 MB (44 180 740 B)]
    11 Slow An' Easy (Original Demo).flac [03:53.600; FLAC • 780 kbps • 16 bit \ 44100 Hz • stereo; 21.73 MB (22 782 341 B)]
    12 Slide It In (Original Demo).flac [00:44.013; FLAC • 838 kbps • 16 bit \ 44100 Hz • stereo; 4.40 MB (4 610 709 B)]
    13 Standing in the Shadow (Original Demo).flac [02:49.827; FLAC • 670 kbps • 16 bit \ 44100 Hz • stereo; 13.58 MB (14 240 589 B)]
    14 All or Nothing (Original Demo).flac [01:54.960; FLAC • 691 kbps • 16 bit \ 44100 Hz • stereo; 9.48 MB (9 940 545 B)]
    15 Spit It Out (Original Demo).flac [01:20.453; FLAC • 758 kbps • 16 bit \ 44100 Hz • stereo; 7.27 MB (7 625 289 B)]
    16 Guilty of Love (Original Demo).flac [02:21.947; FLAC • 740 kbps • 16 bit \ 44100 Hz • stereo; 12.53 MB (13 134 721 B)]
    17 Love Ain't No Stranger (Original Demo).flac [01:19.720; FLAC • 647 kbps • 16 bit \ 44100 Hz • stereo; 6.15 MB (6 448 554 B)]
    18 Intro to Need Your Love So Bad from David Coverdale.flac [00:32.933; FLAC • 715 kbps • 16 bit \ 44100 Hz • stereo; 2.81 MB (2 943 558 B)]
    19 Need Your Love So Bad (Original Demo).flac [03:23.933; FLAC • 684 kbps • 16 bit \ 44100 Hz • stereo; 16.65 MB (17 454 504 B)]
    20 Body Heat (Unfinished Symphpnies Original Demo).flac [02:16.680; FLAC • 839 kbps • 16 bit \ 44100 Hz • stereo; 13.67 MB (14 338 747 B)]
    21 The Gypsy in You (Unfinished Symphonies).flac [01:47.747; FLAC • 751 kbps • 16 bit \ 44100 Hz • stereo; 9.65 MB (10 122 044 B)]
    22 Lounge Lizards (Unfinished Symphonies).flac [01:46.387; FLAC • 808 kbps • 16 bit \ 44100 Hz • stereo; 10.25 MB (10 750 589 B)]
    23 Great Riff in the Morning (Unfinished Symphonies).flac [00:23.667; FLAC • 808 kbps • 16 bit \ 44100 Hz • stereo; 2.28 MB (2 390 981 B)]
    24 The River Song (Unfinished Symphonies).flac [00:57.067; FLAC • 868 kbps • 16 bit \ 44100 Hz • stereo; 5.91 MB (6 194 736 B)]
    25 Can't Make a Deal With the Devil (Unfinished Symphonies).flac [01:56.013; FLAC • 839 kbps • 16 bit \ 44100 Hz • stereo; 11.60 MB (12 166 862 B)]
    26 Prayer for the Dying (Unfinished Symphonies).flac [02:15.360; FLAC • 759 kbps • 16 bit \ 44100 Hz • stereo; 12.25 MB (12 844 543 B)]
    27 Spend the Night With Me (Unfinished Symphonies).flac [01:27.693; FLAC • 722 kbps • 16 bit \ 44100 Hz • stereo; 7.55 MB (7 914 340 B)]
    28 So Much to Live for (Unfinished Symphonies).flac [01:05.307; FLAC • 779 kbps • 16 bit \ 44100 Hz • stereo; 6.07 MB (6 364 494 B)]
    29 Riff Raff Blues (Unfinished Symphonies).flac [01:20.907; FLAC • 769 kbps • 16 bit \ 44100 Hz • stereo; 7.42 MB (7 783 582 B)]
    30 Thank You Blues (Unfinished Symphonies).flac [00:51.080; FLAC • 648 kbps • 16 bit \ 44100 Hz • stereo; 3.95 MB (4 140 278 B)]
Accuracy: -m0
File 01 All or Nothing (Early Ruff Mix with Unfinished Lyrics)                                      - 100% CDDA [03:26:48]
File 02 Hungry for Love (Early Ruff Mix with Unfinished Lyrics)                                     - 100% CDDA [04:22:21]
File 03 Spit It Out (Early Ruff Mix with Unfinished Lyrics)                                         - 100% CDDA [04:29:38]
File 04 Give Me More Time (Early Ruff Mix with Unfinished Lyrics)                                   - 100% CDDA [03:39:47]
File 05 Slow An' Easy (Early Ruff Mix with Unfinished Lyrics)                                       - 100% CDDA [06:06:23]
File 06 Love Ain't No Stranger (Early Ruff Mix with Unfinished Lyrics)                              - 100% CDDA [04:21:51]
File 07 Need Your Love So Bad (feat. Jon Lord) (Instrumental Early Ruff Mix with Unfinished Lyrics) - 100% CDDA [03:15:34]
File 08 Slow An' Easy (A Capella Excerpts Remix)                                                    - 100% CDDA [01:17:20]
File 09 All Or Nothing (Organ & Drums Excerpts Remix)                                               - 100% CDDA [01:36:30]
File 10 Wheezy Interludes (Various Alcoholic Studio Antics David and Mel fighting a cold)           - 100% CDDA [06:54:06]
File 11 Slow An' Easy (Original Demo)                                                               - 100% CDDA [03:53:45]
File 12 Slide It In (Original Demo)                                                                 - 100% CDDA [00:44:01]
File 13 Standing in the Shadow (Original Demo)                                                      - 100% CDDA [02:49:62]
File 14 All or Nothing (Original Demo)                                                              - 100% CDDA [01:54:72]
File 15 Spit It Out (Original Demo)                                                                 -  99% CDDA [01:20:34]
File 16 Guilty of Love (Original Demo)                                                              - 100% CDDA [02:21:71]
File 17 Love Ain't No Stranger (Original Demo)                                                      - 100% CDDA [01:19:54]
File 18 Intro to Need Your Love So Bad from David Coverdale                                         -  99% CDDA [00:32:70]
File 19 Need Your Love So Bad (Original Demo)                                                       - 100% CDDA [03:23:70]
File 20 Body Heat (Unfinished Symphpnies Original Demo)                                             -  92% CDDA [02:16:51]
File 21 The Gypsy in You (Unfinished Symphonies)                                                    - 100% CDDA [01:47:56]
File 22 Lounge Lizards (Unfinished Symphonies)                                                      -  99% CDDA [01:46:29]
File 23 Great Riff in the Morning (Unfinished Symphonies)                                           - 100% CDDA [00:23:50]
File 24 The River Song (Unfinished Symphonies)                                                      - 100% CDDA [00:57:05]
File 25 Can't Make a Deal With the Devil (Unfinished Symphonies)                                    - 100% CDDA [01:56:01]
File 26 Prayer for the Dying (Unfinished Symphonies)                                                -  99% CDDA [02:15:27]
File 27 Spend the Night With Me (Unfinished Symphonies)                                             - 100% CDDA [01:27:52]
File 28 So Much to Live for (Unfinished Symphonies)                                                 - 100% CDDA [01:05:23]
File 29 Riff Raff Blues (Unfinished Symphonies)                                                     - 100% CDDA [01:20:68]
File 30 Thank You Blues (Unfinished Symphonies)                                                     - 100% CDDA [00:51:06]
————— Summary: —————
These tracks looks like CDDA with probability 100%.
————————————————————————————————————————————————————————————————————————
ANALYZER:
    auCDtect: CD records authenticity detector, version 0.8.2
    Copyright (c) 2004 Oleg Berngardt. All rights reserved.
    Copyright (c) 2004 Alexander Djourik. All rights reserved.
Time elapsed: 3 m 53 s
Log created at March 08, 2019 10:13:01
=== E49FE8DD151BAF7F2378BE59D6659CB933188444AE683EBAE2B318E9CDDD01D8 ===
Код: Выделить всё
[CUETools log; Date: 08.03.2019 9:59:18; Version: 2.1.6]
Padded some input files to a frame boundary.
[CTDB TOCID: BEs_xFBTI7CBgn5L3UhZpW1DiPY-] disk not present in database.
[AccurateRip ID: 0061114a-07a5755d-c711561e] disk not present in database.
Track Peak [ CRC32  ] [W/O NULL]
 --   98,8 [5035C91B] [8A54CAC5]
 01   97,5 [3462700D] [8830E528]
 02   97,6 [68947292] [19849F0E]
 03   97,8 [E1BA0618] [0B351CD6]
 04   97,6 [04ACF948] [9BE3252A]
 05   97,7 [C2458C20] [36E155BC]
 06   97,6 [96D9A639] [E954B0DF]
 07   97,4 [C2194B22] [64FD51B9]
 08   97,4 [95543219] [D2BADE39]
 09   98,8 [71580061] [CC5E1EE6]
 10   98,1 [AC2FE5F2] [DA9A237D]
 11   97,4 [770396D5] [D078F410]
 12   96,1 [478DBB74] [A167C5D4]
 13   97,4 [E171046E] [FA2E87EF]
 14   85,3 [994A7311] [0777446F]
 15   97,3 [54731D6C] [9317C6BF]
 16   83,8 [206506F3] [23A38300]
 17   97,7 [BB52B2A0] [5E35CA3C]
 18   83,9 [3E94632F] [37BA1C02]
 19   87,6 [4E068958] [8ED8F65E]
 20   97,3 [105C3D7C] [F80A407E]
 21   97,0 [9776ACF0] [9D040E94]
 22   96,8 [399416ED] [CCBF304C]
 23   72,1 [E10D812A] [3D47A930]
 24   97,4 [04CCB8B9] [9E7147C5]
 25   95,5 [3DF57350] [C7CF8E41]
 26   98,0 [DB9DD95A] [65030BDF]
 27   97,7 [4C51F2C2] [8C89BA58]
 28   97,5 [D1954B09] [5690FB05]
 29   97,4 [56E8F071] [032493F4]
 30   97,4 [9D249881] [C2279F6A]
Код: Выделить всё
foobar2000 1.4.2 / Замер динамического диапазона (DR) 1.1.1
Дата отчёта:  2019-03-08 09:49:44
--------------------------------------------------------------------------------
Анализ:   Whitesnake, Jon Lord / Slide It In: The Ultimate Edition (2019 Remaster) (1)
          Whitesnake / Slide It In: The Ultimate Edition (2019 Remaster) (2-30)
--------------------------------------------------------------------------------
DR         Пики         RMS           Продолжительность трека
--------------------------------------------------------------------------------
DR9       -0.23 дБ   -14.45 дБ      3:15 07-Need Your Love So Bad (feat. Jon Lord) (Instrumental, Early Ruff Mix with Unfinished Lyrics)
DR8       -0.21 дБ    -9.36 дБ      3:27 01-All or Nothing (Early Ruff Mix with Unfinished Lyrics)
DR8       -0.21 дБ   -10.24 дБ      4:22 02-Hungry for Love (Early Ruff Mix with Unfinished Lyrics)
DR7       -0.19 дБ    -8.62 дБ      4:30 03-Spit It Out (Early Ruff Mix with Unfinished Lyrics)
DR9       -0.20 дБ   -10.00 дБ      3:40 04-Give Me More Time (Early Ruff Mix with Unfinished Lyrics)
DR9       -0.20 дБ   -11.70 дБ      6:06 05-Slow An' Easy (Early Ruff Mix with Unfinished Lyrics)
DR8       -0.21 дБ   -10.11 дБ      4:22 06-Love Ain't No Stranger (Early Ruff Mix with Unfinished Lyrics)
DR10      -0.23 дБ   -13.93 дБ      1:17 08-Slow An' Easy (A Capella Excerpts Remix)
DR9       -0.10 дБ   -11.28 дБ      1:36 09-All Or Nothing (Organ & Drums Excerpts Remix)
DR8       -0.16 дБ   -11.72 дБ      6:54 10-Wheezy Interludes (Various Alcoholic Studio Antics, David and Mel "fighting a cold")
DR9       -0.23 дБ   -10.82 дБ      3:54 11-Slow An' Easy (Original Demo)
DR9       -0.34 дБ   -11.72 дБ      0:44 12-Slide It In (Original Demo)
DR10      -0.23 дБ   -12.67 дБ      2:50 13-Standing in the Shadow (Original Demo)
DR9       -1.38 дБ   -12.58 дБ      1:55 14-All or Nothing (Original Demo)
DR10      -0.23 дБ   -12.55 дБ      1:20 15-Spit It Out (Original Demo)
DR10      -1.53 дБ   -12.69 дБ      2:22 16-Guilty of Love (Original Demo)
DR10      -0.19 дБ   -12.95 дБ      1:20 17-Love Ain't No Stranger (Original Demo)
DR15      -1.51 дБ   -21.11 дБ      0:33 18-Intro to Need Your Love So Bad from David Coverdale
DR9       -1.15 дБ   -12.92 дБ      3:24 19-Need Your Love So Bad (Original Demo)
DR10      -0.23 дБ   -10.63 дБ      2:17 20-Body Heat (Unfinished Symphpnies Original Demo)
DR11      -0.26 дБ   -12.32 дБ      1:48 21-The Gypsy in You (Unfinished Symphonies)
DR8       -0.28 дБ    -9.38 дБ      1:46 22-Lounge Lizards (Unfinished Symphonies)
DR7       -2.84 дБ   -10.93 дБ      0:24 23-Great Riff in the Morning (Unfinished Symphonies)
DR9       -0.22 дБ    -9.40 дБ      0:57 24-The River Song (Unfinished Symphonies)
DR12      -0.40 дБ   -14.45 дБ      1:56 25-Can't Make a Deal With the Devil (Unfinished Symphonies)
DR11      -0.17 дБ   -13.65 дБ      2:15 26-Prayer for the Dying (Unfinished Symphonies)
DR8       -0.20 дБ    -9.08 дБ      1:28 27-Spend the Night With Me (Unfinished Symphonies)
DR10      -0.22 дБ   -10.83 дБ      1:05 28-So Much to Live for (Unfinished Symphonies)
DR10      -0.23 дБ   -11.77 дБ      1:21 29-Riff Raff Blues (Unfinished Symphonies)
DR13      -0.22 дБ   -15.62 дБ      0:51 30-Thank You Blues (Unfinished Symphonies)
--------------------------------------------------------------------------------
Количество треков: 30
Реальные значения DR: DR9
Частота:   44100 Гц
Каналов:   2
Разрядность:   16
Битрейт:   609 кбит/с
Кодек:   FLAC
================================================================================
Правила, инструкции, FAQ!!!
Торрент  Добавлен [09 мар 2019, 10:40] Скачать торрент Магнет ссылка
Скачать торрент
20.08 КБ

Статус
Проверен 
 
Размер  2.19 ГБ
Приватный: Нет (DHT включён)
.torrent скачан  2
Как залить торрент? | Как скачать Torrent? | Как смотреть и слушать онлайн?  
Гость
 



Вернуться в Classic Rock & Hard Rock

Кто сейчас на конференции

Сейчас этот форум просматривают: нет зарегистрированных пользователей и гости: 1