(Hard Rock) [WEB] Tesla - Shock - 2019, FLAC (tracks), lossless


Статистика раздачи
Размер: 310.25 МБ | Добавлен: 09 мар 2019, 10:40 | Скачали: 1
Сидеров: 1  [0 байт/сек]    Личеров: 0  [0 байт/сек]

Сообщение Гость » 09 мар 2019, 10:40

Tesla - Shock
Жанр: Hard Rock
Носитель: WEB
Год издания: 2019
Издатель-лейбл: Universal Music
Страна исполнителя: USA
Аудиокодек: FLAC (*.flac)
Тип рипа: tracks
Битрейт аудио: lossless
Продолжительность: 00:44:11
Источник: Сеть
Наличие сканов: нет
Треклист:
01. You Won't Take Me Alive (3:34)
02. Taste Like (3:12)
03. We Can Rule The World (4:15)
04. Shock (3:37)
05. Love Is A Fire (3:31)
06. California Summer Song (2:58)
07. Forever Loving You (3:42)
08. The Mission (4:03)
09. Tied To The Tracks (3:29)
10. Afterlife (4:39)
11. I Want Everything (3:25)
12. Comfort Zone (3:49)
Код: Выделить всё
CUE Corrector v. 8.3.5 / b. 906 (Mar. 02, 2019)
————————————————————————————————————————————————————————————————————————
Tesla / Shock
Folder: Tesla - 2019 - Shock [FLAC]
Audio files:
    01 You Won't Take Me Alive.flac [03:33.627; FLAC • 1029 kbps • 16 bit \ 44100 Hz • stereo; 26.21 MB (27 488 064 B)]
    02 Taste Like.flac [03:11.880; FLAC • 1032 kbps • 16 bit \ 44100 Hz • stereo; 23.61 MB (24 753 332 B)]
    03 We Can Rule The World.flac [04:14.560; FLAC • 989 kbps • 16 bit \ 44100 Hz • stereo; 30.01 MB (31 472 277 B)]
    04 Shock.flac [03:36.760; FLAC • 929 kbps • 16 bit \ 44100 Hz • stereo; 24.02 MB (25 185 951 B)]
    05 Love Is A Fire.flac [03:30.600; FLAC • 989 kbps • 16 bit \ 44100 Hz • stereo; 24.83 MB (26 034 791 B)]
    06 California Summer Song.flac [02:57.907; FLAC • 1022 kbps • 16 bit \ 44100 Hz • stereo; 21.68 MB (22 731 632 B)]
    07 Forever Loving You.flac [03:42.173; FLAC • 969 kbps • 16 bit \ 44100 Hz • stereo; 25.67 MB (26 915 392 B)]
    08 The Mission.flac [04:03.160; FLAC • 914 kbps • 16 bit \ 44100 Hz • stereo; 26.52 MB (27 809 276 B)]
    09 Tied To The Tracks.flac [03:28.853; FLAC • 983 kbps • 16 bit \ 44100 Hz • stereo; 24.48 MB (25 672 666 B)]
    10 Afterlife.flac [04:39.000; FLAC • 954 kbps • 16 bit \ 44100 Hz • stereo; 31.74 MB (33 283 412 B)]
    11 I Want Everything.flac [03:24.920; FLAC • 1005 kbps • 16 bit \ 44100 Hz • stereo; 24.57 MB (25 764 735 B)]
    12 Comfort Zone.flac [03:48.600; FLAC • 987 kbps • 16 bit \ 44100 Hz • stereo; 26.90 MB (28 206 716 B)]
Accuracy: -m0
File 01 You Won't Take Me Alive - 100% CDDA [03:33:47]
File 02 Taste Like              -  99% CDDA [03:11:66]
File 03 We Can Rule The World   - 100% CDDA [04:14:42]
File 04 Shock                   - 100% CDDA [03:36:57]
File 05 Love Is A Fire          - 100% CDDA [03:30:45]
File 06 California Summer Song  - 100% CDDA [02:57:68]
File 07 Forever Loving You      -  99% CDDA [03:42:13]
File 08 The Mission             - 100% CDDA [04:03:12]
File 09 Tied To The Tracks      - 100% CDDA [03:28:64]
File 10 Afterlife               - 100% CDDA [04:39:00]
File 11 I Want Everything       - 100% CDDA [03:24:69]
File 12 Comfort Zone            -  95% MPEG [03:48:45]
————— Summary: —————
These tracks looks like CDDA with probability 100%.
————————————————————————————————————————————————————————————————————————
ANALYZER:
    auCDtect: CD records authenticity detector, version 0.8.2
    Copyright (c) 2004 Oleg Berngardt. All rights reserved.
    Copyright (c) 2004 Alexander Djourik. All rights reserved.
Time elapsed: 1 m 45 s
Log created at March 07, 2019 16:20:55
=== 24128184E8A4D49DD9FE1720A07012A0D546A36296C532E949FD188FC2871EAB ===
Код: Выделить всё
[CUETools log; Date: 07.03.2019 16:18:53; Version: 2.1.6]
Padded some input files to a frame boundary.
[CTDB TOCID: 3ORwXqLVNt3qryKp6PBBNuUr78A-] disk not present in database.
[AccurateRip ID: 001368e4-00b5d3b6-a10a5c0c] disk not present in database.
Track Peak [ CRC32  ] [W/O NULL]
 --  100,0 [4C29D6EA] [7D8D153C]
 01  100,0 [A1CD103F] [D2B7ABDB]
 02  100,0 [FACE827D] [7819BED2]
 03  100,0 [F0250051] [12491311]
 04  100,0 [51187E3C] [19017C45]
 05  100,0 [552C0FF1] [DE959407]
 06  100,0 [A61CA4BD] [BE5103F7]
 07  100,0 [1FA0F8A0] [CEBCAD32]
 08  100,0 [30656981] [9DF04CE6]
 09  100,0 [506CCCD2] [6582DD2E]
 10  100,0 [39E56EA8] [8A9BE548]
 11  100,0 [CEA03F79] [BADFA78F]
 12  100,0 [BB422EC6] [FC0E2986]
Код: Выделить всё
foobar2000 1.4.2 / Замер динамического диапазона (DR) 1.1.1
Дата отчёта:  2019-03-07 16:18:18
--------------------------------------------------------------------------------
Анализ:   Tesla / Shock
--------------------------------------------------------------------------------
DR         Пики         RMS           Продолжительность трека
--------------------------------------------------------------------------------
DR9        0.00 дБ    -9.64 дБ      3:34 01-You Won't Take Me Alive
DR8        0.00 дБ    -9.50 дБ      3:12 02-Taste Like
DR8        0.00 дБ    -9.85 дБ      4:15 03-We Can Rule The World
DR8        0.00 дБ    -8.98 дБ      3:37 04-Shock
DR8        0.00 дБ    -9.66 дБ      3:31 05-Love Is A Fire
DR8        0.00 дБ    -9.41 дБ      2:58 06-California Summer Song
DR8        0.00 дБ    -9.46 дБ      3:42 07-Forever Loving You
DR8        0.00 дБ    -9.85 дБ      4:03 08-The Mission
DR8        0.00 дБ    -9.47 дБ      3:29 09-Tied To The Tracks
DR8        0.00 дБ    -9.51 дБ      4:39 10-Afterlife
DR9        0.00 дБ    -9.79 дБ      3:25 11-I Want Everything
DR8        0.00 дБ   -10.03 дБ      3:49 12-Comfort Zone
--------------------------------------------------------------------------------
Количество треков: 12
Реальные значения DR: DR8
Частота:   44100 Гц
Каналов:   2
Разрядность:   16
Битрейт:   958 кбит/с
Кодек:   FLAC
================================================================================
Правила, инструкции, FAQ!!!
Торрент  Добавлен [09 мар 2019, 10:40] Скачать торрент Магнет ссылка
Скачать торрент
13.19 КБ

Статус
Проверен 
 
Размер  310.25 МБ
Приватный: Нет (DHT включён)
.torrent скачан  1
Как залить торрент? | Как скачать Torrent? | Как смотреть и слушать онлайн?  
Гость
 



Вернуться в Classic Rock & Hard Rock

Кто сейчас на конференции

Сейчас этот форум просматривают: нет зарегистрированных пользователей и гости: 0