(Hard Rock) [WEB] Pendulum of Fortune - Return To Eden - 2019, FLAC (tracks), lossless


Статистика раздачи
Размер: 418.75 МБ | Добавлен: 09 мар 2019, 10:40 | Скачали: 0
Сидеров: 0  [0 байт/сек]    Личеров: 0  [0 байт/сек]

Сообщение Гость » 09 мар 2019, 10:40

Pendulum of Fortune - Return To Eden
Жанр: Hard Rock
Носитель: WEB
Год издания: 2019
Издатель-лейбл: El Puerto Records
Страна исполнителя: International
Аудиокодек: FLAC (*.flac)
Тип рипа: tracks
Битрейт аудио: lossless
Продолжительность: 00:57:38
Источник: deezer
Наличие сканов: нет
Треклист:
01. Diamond in the Rough (4:14)
02. We Stand for Rock'n Roll (3:10)
03. Lucky Man (4:27)
04. Skin and Bones (3:31)
05. Return to Eden (3:28)
06. Wishing Well (3:59)
07. Never Be (4:41)
08. Don't Make a Fool out of Me (4:44)
09. Broken Universe (4:58)
10. Wings of a Dove (4:20)
11. Gravy Train (4:16)
12. Rockanini (2:54)
13. One of a Kind (3:35)
14. Bitter End (5:21)
Код: Выделить всё
CUE Corrector v. 8.3.5 / b. 906 (Mar. 02, 2019)
————————————————————————————————————————————————————————————————————————
Pendulum of Fortune / Return To Eden
Folder: Pendulum of Fortune - 2019 - Return To Eden [FLAC]
Audio files:
    01 Diamond in the Rough.flac [04:13.733; FLAC • 1063 kbps • 16 bit \ 44100 Hz • stereo; 32.17 MB (33 728 598 B)]
    02 We Stand for Rock'n Roll.flac [03:09.760; FLAC • 1027 kbps • 16 bit \ 44100 Hz • stereo; 23.24 MB (24 366 687 B)]
    03 Lucky Man.flac [04:27.453; FLAC • 981 kbps • 16 bit \ 44100 Hz • stereo; 31.29 MB (32 806 124 B)]
    04 Skin and Bones.flac [03:30.720; FLAC • 1034 kbps • 16 bit \ 44100 Hz • stereo; 25.99 MB (27 251 119 B)]
    05 Return to Eden.flac [03:28.147; FLAC • 995 kbps • 16 bit \ 44100 Hz • stereo; 24.70 MB (25 897 743 B)]
    06 Wishing Well.flac [03:58.547; FLAC • 1067 kbps • 16 bit \ 44100 Hz • stereo; 30.36 MB (31 836 049 B)]
    07 Never Be.flac [04:41.347; FLAC • 1037 kbps • 16 bit \ 44100 Hz • stereo; 34.79 MB (36 477 232 B)]
    08 Don't Make a Fool out of Me.flac [04:44.440; FLAC • 984 kbps • 16 bit \ 44100 Hz • stereo; 33.37 MB (34 991 739 B)]
    09 Broken Universe.flac [04:57.720; FLAC • 1030 kbps • 16 bit \ 44100 Hz • stereo; 36.57 MB (38 346 242 B)]
    10 Wings of a Dove.flac [04:19.547; FLAC • 931 kbps • 16 bit \ 44100 Hz • stereo; 28.83 MB (30 232 831 B)]
    11 Gravy Train.flac [04:16.413; FLAC • 1071 kbps • 16 bit \ 44100 Hz • stereo; 32.75 MB (34 345 881 B)]
    12 Rockanini.flac [02:53.907; FLAC • 991 kbps • 16 bit \ 44100 Hz • stereo; 20.55 MB (21 549 528 B)]
    13 One of a Kind.flac [03:35.080; FLAC • 1024 kbps • 16 bit \ 44100 Hz • stereo; 26.27 MB (27 543 427 B)]
    14 Bitter End.flac [05:21.160; FLAC • 969 kbps • 16 bit \ 44100 Hz • stereo; 37.10 MB (38 902 106 B)]
Accuracy: -m0
File 01 Diamond in the Rough        - 100% CDDA [04:13:55]
File 02 We Stand for Rock'n Roll    - 100% CDDA [03:09:57]
File 03 Lucky Man                   - 100% CDDA [04:27:34]
File 04 Skin and Bones              -  99% CDDA [03:30:54]
File 05 Return to Eden              - 100% CDDA [03:28:11]
File 06 Wishing Well                -  99% CDDA [03:58:41]
File 07 Never Be                    - 100% CDDA [04:41:26]
File 08 Don't Make a Fool out of Me -  99% CDDA [04:44:33]
File 09 Broken Universe             -  99% CDDA [04:57:54]
File 10 Wings of a Dove             -  99% CDDA [04:19:41]
File 11 Gravy Train                 - 100% CDDA [04:16:31]
File 12 Rockanini                   - 100% CDDA [02:53:68]
File 13 One of a Kind               - 100% CDDA [03:35:06]
File 14 Bitter End                  - 100% CDDA [05:21:12]
————— Summary: —————
These tracks looks like CDDA with probability 100%.
————————————————————————————————————————————————————————————————————————
ANALYZER:
    auCDtect: CD records authenticity detector, version 0.8.2
    Copyright (c) 2004 Oleg Berngardt. All rights reserved.
    Copyright (c) 2004 Alexander Djourik. All rights reserved.
Time elapsed: 2 m 04 s
Log created at March 08, 2019 11:15:26
=== D3311E6E03D8BF1A71372D3B570FFB82C30AC3B45058B4D46768DFF1087074C2 ===
Код: Выделить всё
[CUETools log; Date: 08.03.2019 11:13:00; Version: 2.1.6]
[CTDB TOCID: zTeQsCa1OhudO4v3tfcBUxGNNbI-] disk not present in database.
[AccurateRip ID: 001d1142-013819e2-b50d810e] disk not present in database.
Track Peak [ CRC32  ] [W/O NULL]
 --   95,9 [F5546539] [2473BC7A]
 01   95,9 [79C4C1AA] [453992D9]
 02   95,9 [670086A1] [CD829DF4]
 03   95,9 [13814CAF] [1CAF1AD7]
 04   95,9 [8F6E2615] [76CB72EB]
 05   95,9 [E21A3365] [0F840386]
 06   95,9 [61872178] [52215292]
 07   95,9 [C160DB73] [841471AE]
 08   95,9 [27E95784] [D19FDCFB]
 09   95,9 [1DA26429] [433CDB66]
 10   95,9 [FF7E73D7] [EB39CCF2]
 11   95,9 [515AEA79] [9125FFBC]
 12   95,9 [150C08AF] [C788E6EE]
 13   95,9 [0546D965] [E01A530E]
 14   95,9 [A54635F2] [5EE7CC05]
Код: Выделить всё
foobar2000 1.4.2 / Замер динамического диапазона (DR) 1.1.1
Дата отчёта:  2019-03-08 11:12:46
--------------------------------------------------------------------------------
Анализ:   Pendulum of Fortune / Return To Eden
--------------------------------------------------------------------------------
DR         Пики         RMS           Продолжительность трека
--------------------------------------------------------------------------------
DR7       -0.36 дБ    -7.65 дБ      4:14 01-Diamond in the Rough
DR7       -0.36 дБ    -7.94 дБ      3:10 02-We Stand for Rock'n Roll
DR8       -0.36 дБ    -9.93 дБ      4:27 03-Lucky Man
DR7       -0.36 дБ    -8.21 дБ      3:31 04-Skin and Bones
DR6       -0.36 дБ    -7.79 дБ      3:28 05-Return to Eden
DR5       -0.36 дБ    -6.34 дБ      3:59 06-Wishing Well
DR6       -0.36 дБ    -7.64 дБ      4:41 07-Never Be
DR6       -0.36 дБ    -7.41 дБ      4:44 08-Don't Make a Fool out of Me
DR7       -0.36 дБ    -8.31 дБ      4:58 09-Broken Universe
DR5       -0.36 дБ    -9.08 дБ      4:20 10-Wings of a Dove
DR6       -0.36 дБ    -7.33 дБ      4:16 11-Gravy Train
DR7       -0.36 дБ    -8.55 дБ      2:54 12-Rockanini
DR6       -0.36 дБ    -8.10 дБ      3:35 13-One of a Kind
DR7       -0.36 дБ    -8.76 дБ      5:21 14-Bitter End
--------------------------------------------------------------------------------
Количество треков: 14
Реальные значения DR: DR6
Частота:   44100 Гц
Каналов:   2
Разрядность:   16
Битрейт:   949 кбит/с
Кодек:   FLAC
================================================================================
Правила, инструкции, FAQ!!!
Торрент  Добавлен [09 мар 2019, 10:40] Скачать торрент Магнет ссылка
Скачать торрент
17.59 КБ

Статус
Проверен 
 
Размер  418.75 МБ
Приватный: Нет (DHT включён)
.torrent скачан  0
Как залить торрент? | Как скачать Torrent? | Как смотреть и слушать онлайн?  
Гость
 



Вернуться в Classic Rock & Hard Rock

Кто сейчас на конференции

Сейчас этот форум просматривают: нет зарегистрированных пользователей и гости: 0