(Hard Rock) [CD] Circus Of Power - Four - 2017, FLAC (image+.cue), lossless


Статистика раздачи
Размер: 379.15 МБ | Добавлен: 09 мар 2019, 10:40 | Скачали: 1
Сидеров: 0  [0 байт/сек]    Личеров: 0  [0 байт/сек]

Сообщение Гость » 09 мар 2019, 10:40

Circus Of Power - Four
Жанр: Hard Rock
Носитель: CD
Год выпуска диска: 2017
Страна: USA
Производитель диска: Noize in the Attic Records / NITA 001
Аудио кодек: FLAC
Тип рипа: image+.cue
Битрейт аудио: lossless
Продолжительность: 52:46
Наличие сканов в содержимом раздачи: нет
Трэклист:
01. Fast And Easy (3:51)
02. Hard Drivin' Sister (3:35)
03. Rock Show (3:02)
04. Princess Of Mars (3:39)
05. Half A Dozen Roses (3:08)
06. Sin City Boogie (3:55)
07. American Monster (3:34)
08. See The Sun (4:57)
09. Flying Into L.A. (4:44)
10. Hot Rod Girls (3:10)
11. Love Sick Blues (2:16)
12. The Tea Song (3:24)
13. Blood At Standing Rock (6:12)
14. Come Git Some (3:12)
Состав:
- Alex Mitchell – vocals
- Billy Tsounis – guitar
- John Sharkey – bass guitar
- Brant Bjork – drums
Доп. информация: https://en.wikipedia.org/wiki/Circus_of_Power
Код: Выделить всё
Exact Audio Copy V1.3 from 2. September 2016
EAC extraction logfile from 7. March 2019, 13:21
Circus Of Power / Four
Used drive  : HL-DT-STDVDRAM GT34N   Adapter: 0  ID: 0
Read mode               : Secure
Utilize accurate stream : Yes
Defeat audio cache      : Yes
Make use of C2 pointers : No
Read offset correction                      : 103
Overread into Lead-In and Lead-Out          : No
Fill up missing offset samples with silence : Yes
Delete leading and trailing silent blocks   : No
Null samples used in CRC calculations       : Yes
Used interface                              : Installed external ASPI interface
Used output format              : User Defined Encoder
Selected bitrate                : 32 kBit/s
Quality                         : Low
Add ID3 tag                     : No
Command line compressor         : C:\Program Files\Exact Audio Copy\Flac\flac.exe
Additional command line options : -8 -V -T "ARTIST=%artist%" -T "ALBUM=%albumtitle%" -T "DATE=%year%" -T "GENRE=%genre%" -T "COMMENT=EAC FLAC -8" %source%
TOC of the extracted CD
     Track |   Start  |  Length  | Start sector | End sector
    ---------------------------------------------------------
        1  |  0:00.00 |  3:51.43 |         0    |    17367
        2  |  3:51.43 |  3:35.55 |     17368    |    33547
        3  |  7:27.23 |  3:02.69 |     33548    |    47266
        4  | 10:30.17 |  3:39.38 |     47267    |    63729
        5  | 14:09.55 |  3:08.45 |     63730    |    77874
        6  | 17:18.25 |  3:55.45 |     77875    |    95544
        7  | 21:13.70 |  3:34.59 |     95545    |   111653
        8  | 24:48.54 |  4:57.02 |    111654    |   133930
        9  | 29:45.56 |  4:44.69 |    133931    |   155299
       10  | 34:30.50 |  3:10.42 |    155300    |   169591
       11  | 37:41.17 |  2:16.05 |    169592    |   179796
       12  | 39:57.22 |  3:24.08 |    179797    |   195104
       13  | 43:21.30 |  6:12.29 |    195105    |   223033
       14  | 49:33.59 |  3:12.33 |    223034    |   237466
Range status and errors
Selected range
     Filename C:\Program Files\BitComet\Downloads\Circus of Power - Four (2017)\Circus Of Power - Four.wav
     Peak level 100.0 %
     Extraction speed 2.1 X
     Range quality 100.0 %
     Copy CRC 39408E16
     Copy OK
No errors occurred
AccurateRip summary
Track  1  accurately ripped (confidence 1)  [A8BFF6E5]  (AR v2)
Track  2  accurately ripped (confidence 1)  [47EA0713]  (AR v2)
Track  3  accurately ripped (confidence 1)  [8E92F9AD]  (AR v2)
Track  4  accurately ripped (confidence 1)  [5ADD8DAC]  (AR v2)
Track  5  accurately ripped (confidence 1)  [561900BB]  (AR v2)
Track  6  accurately ripped (confidence 1)  [F17DF5C6]  (AR v2)
Track  7  accurately ripped (confidence 1)  [2A9690CA]  (AR v2)
Track  8  accurately ripped (confidence 1)  [FF57B76E]  (AR v2)
Track  9  accurately ripped (confidence 1)  [EAD60104]  (AR v2)
Track 10  accurately ripped (confidence 1)  [A8CAF8B9]  (AR v2)
Track 11  accurately ripped (confidence 1)  [DC908C0E]  (AR v2)
Track 12  accurately ripped (confidence 1)  [D3DA4145]  (AR v2)
Track 13  accurately ripped (confidence 1)  [ADC7C96A]  (AR v2)
Track 14  accurately ripped (confidence 1)  [451063B9]  (AR v2)
All tracks accurately ripped
End of status report
---- CUETools DB Plugin V2.1.6
[CTDB TOCID: Q6sk6AMeLYD15QbnuPsMMuyJvUQ-] found
Submit result: Q6sk6AMeLYD15QbnuPsMMuyJvUQ- has been confirmed
Track | CTDB Status
  1   | (3/3) Accurately ripped
  2   | (3/3) Accurately ripped
  3   | (3/3) Accurately ripped
  4   | (2/3) Accurately ripped
  5   | (3/3) Accurately ripped
  6   | (3/3) Accurately ripped
  7   | (3/3) Accurately ripped
  8   | (3/3) Accurately ripped
  9   | (3/3) Accurately ripped
 10   | (3/3) Accurately ripped
 11   | (3/3) Accurately ripped
 12   | (3/3) Accurately ripped
 13   | (3/3) Accurately ripped
 14   | (3/3) Accurately ripped
==== Log checksum BF82B42862988EBDF62F9AA69645C56717621278E596D786A7E4A18EAE3CB66D ====
Код: Выделить всё
REM GENRE "Hard Rock"
REM DATE 2017
REM DISCID BE0C5E0E
REM COMMENT "ExactAudioCopy v1.3"
CATALOG 0840588119301
PERFORMER "Circus Of Power"
TITLE "Four"
REM COMPOSER "Circus Of Power"
FILE "Circus Of Power - Four.flac" WAVE
  TRACK 01 AUDIO
    TITLE "Fast And Easy  "
    PERFORMER "Circus Of Power"
    REM COMPOSER "Circus Of Power"
    INDEX 01 00:00:00
  TRACK 02 AUDIO
    TITLE "Hard Drivin' Sister  "
    PERFORMER "Circus Of Power"
    REM COMPOSER "Circus Of Power"
    INDEX 01 03:51:43
  TRACK 03 AUDIO
    TITLE "Rock Show  "
    PERFORMER "Circus Of Power"
    REM COMPOSER "Circus Of Power"
    INDEX 01 07:27:23
  TRACK 04 AUDIO
    TITLE "Princess Of Mars  "
    PERFORMER "Circus Of Power"
    REM COMPOSER "Circus Of Power"
    INDEX 01 10:30:17
  TRACK 05 AUDIO
    TITLE "Half A Dozen Roses  "
    PERFORMER "Circus Of Power"
    REM COMPOSER "Circus Of Power"
    INDEX 01 14:09:55
  TRACK 06 AUDIO
    TITLE "Sin City Boogie  "
    PERFORMER "Circus Of Power"
    REM COMPOSER "Circus Of Power"
    INDEX 01 17:18:25
  TRACK 07 AUDIO
    TITLE "American Monster  "
    PERFORMER "Circus Of Power"
    REM COMPOSER "Circus Of Power"
    INDEX 01 21:13:70
  TRACK 08 AUDIO
    TITLE "See The Sun  "
    PERFORMER "Circus Of Power"
    REM COMPOSER "Circus Of Power"
    INDEX 01 24:48:54
  TRACK 09 AUDIO
    TITLE "Flying Into L.A.  "
    PERFORMER "Circus Of Power"
    REM COMPOSER "Circus Of Power"
    INDEX 01 29:45:56
  TRACK 10 AUDIO
    TITLE "Hot Rod Girls  "
    PERFORMER "Circus Of Power"
    REM COMPOSER "Circus Of Power"
    INDEX 01 34:30:50
  TRACK 11 AUDIO
    TITLE "Love Sick Blues  "
    PERFORMER "Circus Of Power"
    REM COMPOSER "Circus Of Power"
    INDEX 01 37:41:17
  TRACK 12 AUDIO
    TITLE "The Tea Song  "
    PERFORMER "Circus Of Power"
    REM COMPOSER "Circus Of Power"
    INDEX 01 39:57:22
  TRACK 13 AUDIO
    TITLE "Blood At Standing Rock  "
    PERFORMER "Circus Of Power"
    REM COMPOSER "Circus Of Power"
    INDEX 01 43:21:30
  TRACK 14 AUDIO
    TITLE "Come Git Some  "
    PERFORMER "Circus Of Power"
    REM COMPOSER "Circus Of Power"
    INDEX 01 49:33:59
Код: Выделить всё
[CUETools log; Date: 2019.03.07. 15:56:46; Version: 2.1.6]
[CTDB TOCID: Q6sk6AMeLYD15QbnuPsMMuyJvUQ-] found.
Track | CTDB Status
  1   | (4/4) Accurately ripped
  2   | (4/4) Accurately ripped
  3   | (4/4) Accurately ripped
  4   | (3/4) Accurately ripped
  5   | (4/4) Accurately ripped
  6   | (4/4) Accurately ripped
  7   | (4/4) Accurately ripped
  8   | (4/4) Accurately ripped
  9   | (4/4) Accurately ripped
 10   | (4/4) Accurately ripped
 11   | (4/4) Accurately ripped
 12   | (4/4) Accurately ripped
 13   | (4/4) Accurately ripped
 14   | (4/4) Accurately ripped
[AccurateRip ID: 001a919d-011cf409-be0c5e0e] found.
Track   [  CRC   |   V2   ] Status
 01     [f72e150b|a8bff6e5] (0+1/1) Accurately ripped
 02     [e2fa7448|47ea0713] (0+1/1) Accurately ripped
 03     [aa11c11d|8e92f9ad] (0+1/1) Accurately ripped
 04     [dec06651|5add8dac] (0+1/1) Accurately ripped
 05     [7083114d|561900bb] (0+1/1) Accurately ripped
 06     [6ded3dfc|f17df5c6] (0+1/1) Accurately ripped
 07     [58bcc77a|2a9690ca] (0+1/1) Accurately ripped
 08     [1468a434|ff57b76e] (0+1/1) Accurately ripped
 09     [1f214802|ead60104] (0+1/1) Accurately ripped
 10     [4fde7f29|a8caf8b9] (0+1/1) Accurately ripped
 11     [1ee6304f|dc908c0e] (0+1/1) Accurately ripped
 12     [bc8daae2|d3da4145] (0+1/1) Accurately ripped
 13     [405ab388|adc7c96a] (0+1/1) Accurately ripped
 14     [6aa4f5f3|451063b9] (0+1/1) Accurately ripped
Track Peak [ CRC32  ] [W/O NULL] [  LOG   ]
 --  100,0 [39408E16] [A76CD67B]   CRC32
 01  100,0 [2C8EC6DC] [EEA29531]
 02  100,0 [0B2A5704] [B10783C3]
 03  100,0 [77189FA9] [93B183F0]
 04  100,0 [02DE5DA7] [287DE37F]
 05  100,0 [0DF4D9D2] [B3C7A595]
 06  100,0 [A607576F] [EC7EF3F1]
 07  100,0 [5E9A3AD0] [3C8F8E63]
 08  100,0 [82CEA47C] [56AE60A8]
 09  100,0 [76B9BC2D] [26213CCC]
 10  100,0 [C65E588E] [10B6D89D]
 11  100,0 [9444D69E] [1E73CDE4]
 12  100,0 [BDCEF2E4] [2371A183]
 13  100,0 [B7D18B53] [449E4B7B]
 14  100,0 [22223E9E] [A519D432]
источник: erro
Правила, инструкции, FAQ!!!
Торрент  Добавлен [09 мар 2019, 10:40] Скачать торрент Магнет ссылка
Скачать торрент
16.11 КБ

Статус
Проверен 
 
Размер  379.15 МБ
Приватный: Нет (DHT включён)
.torrent скачан  1
Как залить торрент? | Как скачать Torrent? | Как смотреть и слушать онлайн?  
Гость
 



Вернуться в Classic Rock & Hard Rock

Кто сейчас на конференции

Сейчас этот форум просматривают: нет зарегистрированных пользователей и гости: 1