(Hard Rock) [WEB] At The Sun - Leave Before The Light - 2019, FLAC (tracks), lossless


Статистика раздачи
Размер: 373.25 МБ | Добавлен: 09 мар 2019, 10:40 | Скачали: 0
Сидеров: 0  [0 байт/сек]    Личеров: 0  [0 байт/сек]

Сообщение Гость » 09 мар 2019, 10:40

At The Sun - Leave Before The Light
Жанр: Hard Rock
Носитель: WEB
Год издания: 2019
Издатель-лейбл: 1078463 Records DK2
Страна исполнителя: UK
Аудиокодек: FLAC (*.flac)
Тип рипа: tracks
Битрейт аудио: lossless
Продолжительность: 00:50:25
Источник: deezer
Наличие сканов: нет
Треклист:
01. Only a Fool (3:58)
02. Preacher (3:27)
03. Breathe (3:58)
04. Walk on Over (3:53)
05. Lay It on Me (4:17)
06. Lifetime (3:35)
07. Devil in Your Eyes (4:12)
08. Bite Your Tongue (4:59)
09. Indestructible (5:09)
10. Renegade (4:05)
11. Soak It Up (4:14)
12. Raise Your Glass (4:40)
Код: Выделить всё
CUE Corrector v. 8.3.5 / b. 906 (Mar. 02, 2019)
————————————————————————————————————————————————————————————————————————
AT THE SUN / Leave Before the Light
Folder: At The Sun - 2019 - Leave Before the Light [FLAC]
Audio files:
    01 Only a Fool.flac [03:57.707; FLAC • 1110 kbps • 16 bit \ 44100 Hz • stereo; 31.48 MB (33 008 224 B)]
    02 Preacher.flac [03:27.213; FLAC • 1078 kbps • 16 bit \ 44100 Hz • stereo; 26.63 MB (27 928 773 B)]
    03 Breathe.flac [03:57.600; FLAC • 1031 kbps • 16 bit \ 44100 Hz • stereo; 29.22 MB (30 636 476 B)]
    04 Walk on Over.flac [03:53.133; FLAC • 1024 kbps • 16 bit \ 44100 Hz • stereo; 28.46 MB (29 841 067 B)]
    05 Lay It on Me.flac [04:16.640; FLAC • 1023 kbps • 16 bit \ 44100 Hz • stereo; 31.32 MB (32 846 023 B)]
    06 Lifetime.flac [03:35.333; FLAC • 1044 kbps • 16 bit \ 44100 Hz • stereo; 26.82 MB (28 121 296 B)]
    07 Devil in Your Eyes.flac [04:11.547; FLAC • 1013 kbps • 16 bit \ 44100 Hz • stereo; 30.38 MB (31 855 558 B)]
    08 Bite Your Tongue.flac [04:58.533; FLAC • 1056 kbps • 16 bit \ 44100 Hz • stereo; 37.58 MB (39 408 589 B)]
    09 Indestructible.flac [05:08.533; FLAC • 945 kbps • 16 bit \ 44100 Hz • stereo; 34.77 MB (36 463 762 B)]
    10 Renegade.flac [04:05.453; FLAC • 1058 kbps • 16 bit \ 44100 Hz • stereo; 30.98 MB (32 486 287 B)]
    11 Soak It Up.flac [04:14.133; FLAC • 1059 kbps • 16 bit \ 44100 Hz • stereo; 32.09 MB (33 643 652 B)]
    12 Raise Your Glass.flac [04:40.013; FLAC • 1004 kbps • 16 bit \ 44100 Hz • stereo; 33.52 MB (35 144 605 B)]
Accuracy: -m0
File 01 Only a Fool        - 100% CDDA [03:57:53]
File 02 Preacher           - 100% CDDA [03:27:16]
File 03 Breathe            - 100% CDDA [03:57:45]
File 04 Walk on Over       - 100% CDDA [03:53:10]
File 05 Lay It on Me       - 100% CDDA [04:16:48]
File 06 Lifetime           - 100% CDDA [03:35:25]
File 07 Devil in Your Eyes - 100% CDDA [04:11:41]
File 08 Bite Your Tongue   - 100% CDDA [04:58:40]
File 09 Indestructible     - 100% CDDA [05:08:40]
File 10 Renegade           - 100% CDDA [04:05:34]
File 11 Soak It Up         - 100% CDDA [04:14:10]
File 12 Raise Your Glass   - 100% CDDA [04:40:01]
————— Summary: —————
These tracks looks like CDDA with probability 100%.
————————————————————————————————————————————————————————————————————————
ANALYZER:
    auCDtect: CD records authenticity detector, version 0.8.2
    Copyright (c) 2004 Oleg Berngardt. All rights reserved.
    Copyright (c) 2004 Alexander Djourik. All rights reserved.
Time elapsed: 2 m 22 s
Log created at March 08, 2019 12:13:30
=== C0D86AB0CF4D4C7AD4C39014C2DEEB4C62C9CACC584B41AC04797DA4C430DF29 ===
Код: Выделить всё
[CUETools log; Date: 08.03.2019 12:11:08; Version: 2.1.6]
Padded some input files to a frame boundary.
[CTDB TOCID: 7PNe5p2Y0ZFYUCItuTPHVZm7eU0-] disk not present in database.
[AccurateRip ID: 0015a914-00cc5cfb-bb0bd10c] disk not present in database.
Track Peak [ CRC32  ] [W/O NULL]
 --   98,8 [12AF8BE8] [7DAFAD7D]
 01   98,8 [7960F440] [14836F37]
 02   98,8 [8109F887] [5F939166]
 03   98,8 [0CDE6F17] [00BDFC3C]
 04   98,8 [BFA35F34] [E6FD160C]
 05   98,8 [02A519F8] [FC3A2376]
 06   98,8 [C39D622F] [B76EA146]
 07   98,8 [88001B94] [1711CF82]
 08   98,8 [40563989] [F747AC1D]
 09   98,8 [5905E127] [C4E32DEC]
 10   98,8 [3E558AB9] [A2C73D85]
 11   98,8 [079D823A] [9B2285D6]
 12   98,8 [E5F85C5C] [4930E2FC]
Код: Выделить всё
foobar2000 1.4.2 / Замер динамического диапазона (DR) 1.1.1
Дата отчёта:  2019-03-08 12:09:56
--------------------------------------------------------------------------------
Анализ:   AT THE SUN / Leave Before the Light
--------------------------------------------------------------------------------
DR         Пики         RMS           Продолжительность трека
--------------------------------------------------------------------------------
DR5       -0.10 дБ    -6.72 дБ      3:58 01-Only a Fool
DR6       -0.10 дБ    -7.31 дБ      3:27 02-Preacher
DR6       -0.10 дБ    -7.37 дБ      3:58 03-Breathe
DR7       -0.10 дБ    -8.36 дБ      3:53 04-Walk on Over
DR5       -0.10 дБ    -6.23 дБ      4:17 05-Lay It on Me
DR5       -0.10 дБ    -6.64 дБ      3:35 06-Lifetime
DR6       -0.10 дБ    -7.68 дБ      4:12 07-Devil in Your Eyes
DR6       -0.10 дБ    -7.71 дБ      4:59 08-Bite Your Tongue
DR6       -0.10 дБ    -8.31 дБ      5:09 09-Indestructible
DR5       -0.10 дБ    -6.91 дБ      4:05 10-Renegade
DR6       -0.10 дБ    -6.82 дБ      4:14 11-Soak It Up
DR5       -0.10 дБ    -7.32 дБ      4:40 12-Raise Your Glass
--------------------------------------------------------------------------------
Количество треков: 12
Реальные значения DR: DR6
Частота:   44100 Гц
Каналов:   2
Разрядность:   16
Битрейт:   969 кбит/с
Кодек:   FLAC
================================================================================
Правила, инструкции, FAQ!!!
Торрент  Добавлен [09 мар 2019, 10:40] Скачать торрент Магнет ссылка
Скачать торрент
15.64 КБ

Статус
Проверен 
 
Размер  373.25 МБ
Приватный: Нет (DHT включён)
.torrent скачан  0
Как залить торрент? | Как скачать Torrent? | Как смотреть и слушать онлайн?  
Гость
 



Вернуться в Classic Rock & Hard Rock

Кто сейчас на конференции

Сейчас этот форум просматривают: нет зарегистрированных пользователей и гости: 1