Группа «З.О.В.» Задания особой важности [4 серии из 4] (2013) SATRip

Статистика раздачи
Размер: 1.95 ГБ | Добавлен: 14 апр 2013, 21:41 | Скачали: 0
Сидеров: 2  [0 байт/сек]    Личеров: 37  [0 байт/сек]

Сообщение Гость » 14 апр 2013, 21:41

Русское название: Группа «З.О.В.» Задания особой важности
Выпущено: Россия
Год выпуска: 2013
Жанр: Приключения, Военный
Перевод: Оригинал (Русский)
Субтитры: Отсутствуют


Дата российской премьеры: 14 апреля 2013

Режиссер: Петр Амелин
Актеры: Эдуард Трухменёв, Мария Куликова, Сергей Баталов, Иван Дубровский, Данила Воропаев, Елена Радевич, Михаил Елисеев, Андрей Аксёнов, Андрей Павловец и другие

Вкратце:
Сериал рассказывает о группе советских разведчиков-диверсантов, выполняющих во время Второй мировой войны задания особой важности. Первое задание — уничтожить стратегические склады горючего, захваченные немцами во время стремительного наступления. Второе — уничтожить лабораторию, в которой немцами разрабатываются прототипы невидимых для радаров сверхзвуковых самолетов. Выполнение заданий сильно усложняет тот факт, что в первоначальном составе группы 3 мужчины и 2 женщины — без роковых любовных треугольников тут не обойтись…

Продолжительность: 4 х ~ 00:44:47 серия
Качество видео: SATRip

Видеокодек: Xvid
Битрейт видео: ~1430 Kbit/s
Размер кадра: 720 х 400
Аудиокодек: MP3, 2.0
Битрейт аудио: 128 Kbit/s
Общее
Полное имя: D:\Торренты\ФИЛЬМЫ торента\Группа «З.О.В.» Задания особой важности. 2013. SATRip\Группа «З.О.В.» Операция «Тайфун».01.avi
Формат : AVI
Формат/Информация : Audio Video Interleave
Размер файла : 500 Мбайт
Продолжительность : 44 м.
Общий поток : 1568 Кбит/сек
Программа кодирования : VirtualDubMod 1.5.10.2 (build 2540/release)
Библиотека кодирования : VirtualDubMod build 2540/release

Видео
Идентификатор : 0
Формат : MPEG-4 Visual
Профиль формата : Advanced Simple@L5
Параметр BVOP формата : 2
Параметр QPel формата : Нет
Параметр GMC формата : Без точки перехода
Параметр матрицы формата : Default (MPEG)
Идентификатор кодека : XVID
Идентификатор кодека/Подсказка : XviD
Продолжительность : 44 м.
Битрейт : 1430 Кбит/сек
Ширина : 720 пикс.
Высота : 400 пикс.
Соотношение сторон : 16:9
Частота кадров : 25,000 кадр/сек
Цветовое пространство : YUV
Подвыборка цветности : 4:2:0
Битовая глубина : 8 бит
Тип развёртки : Прогрессивная
Метод сжатия : С потерями
Бит/(Пиксели*Кадры) : 0.199
Размер потока : 456 Мбайт (91%)
Библиотека кодирования : XviD 65

Аудио
Идентификатор : 1
Формат : MPEG Audio
Версия формата : Version 1
Профиль формата : Layer 3
Режим : Joint stereo
Идентификатор кодека : 55
Идентификатор кодека/Подсказка : MP3
Продолжительность : 44 м.
Вид битрейта : Постоянный
Битрейт : 128 Кбит/сек
Каналы : 2 канала
Частота : 48,0 КГц
Метод сжатия : С потерями
Размер потока : 40,8 Мбайт (8%)
Выравнивание : Соединение по промежуткам
Продолжительность промежутка : 40 мс. (1,00 видеокадр)
Время предзагрузки промежутка : 504 ms


Правила, инструкции, FAQ!!!
Торрент  Добавлен [14 апр 2013, 21:41] Скачать торрент Магнет ссылка
Скачать торрент
[ Размер 20.9 КБ / Просмотров 76 ]

Статус
Проверен 
 
Размер  1.95 ГБ
Приватный: Нет (DHT включён)
.torrent скачан  0
Как залить торрент? | Как скачать Torrent? | Как смотреть и слушать онлайн?  
Гость
 


  • Похожие торренты
    Ответы
    Просмотры
    Последнее сообщение

Вернуться в Новинки

Кто сейчас на конференции

Сейчас этот форум просматривают: нет зарегистрированных пользователей и гости: 0