Green Day - Green Day - Discography (1990-2009) [APE|Lossless]<Punk-Rock>


Статистика раздачи
Размер: 4.12 ГБ | Добавлен: 16 мар 2014, 00:39 | Скачали: 0
Сидеров: 1  [0 байт/сек]    Личеров: 17  [0 байт/сек]

Сообщение Гость » 16 мар 2014, 00:39

Green Day - Discography (1990-2009)

Год: 1990-2009
Жанр: Punk-Rock
Страна Америка
Продолжительность: 09:35:29
Кодек: APE
Битрейт: Lossless
reen Day — американская панк-рок-группа, состоящая из трёх участников: Билли Джо Армстронг (вокал, гитара), Майкл Дирнт (бас гитара, бэк вокал), Тре Кул (барабаны).
Green Day первоначально был, частью панк-рок сцены в 1994 Gilman Street, Berkeley, California. Их первые альбомы на независимом лейбле Lookout!Records, позволили группе заработать множество фанатов. Некоторые из них почувствовали себя отчуждёнными, после того как группа подписала контракт с крупным лейблом. Однако, их дебютный альбом на Reprise Records, стал главным успехом 1994 года и, в конечном счете, продал 20 миллионов копий. В результате группа вместе с другими Калифорнийскими панками (Offspring, Rancid), придала огромный интерес к панк музыке в США. Последующие альбомы Green Day не достигали такого успеха как Dookie, но были всё ещё успешны. В 2004 году Green Day выпускает панк рок оперу American Idiot, которая возвращает популярность группе и продаёт 15 миллионов копий во всём мире. Green Day продали, более пятидесяти миллионов своих альбомов во всём мире. Их успех помог стать известными таким группам, как Sum 41 и Good Charlotte.
Трек лист:


Studio albums
#777Продолжительность 00:42:15
1. 2000 Light Years Away— 2:24
2. One For The Razorbacks — 2:30
3. Welcome to Paradise — 3:30
4. Christie Road — 3:33
5. Private Ale— 2:26
6. Dominated Love Slave (Тре Кул) — 1:41
7. One Of My Lies — 2:19
8. 80 — 3:39
9. Android— 3:00
10. No One Knows — 3:39
11. Who Wrote Holden Caulfield? — 2:44
12. Words I Might Have Ate — 2:32
13. Sweet Children» (Билли Джо Армстронг, Майк Дёрнт) — 1:41
14. Best Thing In Town»— 2:03
15. Strangeland — 2:08
16. My Generation — 2:19
Код:
Код: Выделить всё
-----------------------

DON'T MODIFY THIS FILE

-----------------------

PERFORMER: auCDtect Task Manager, ver. 1.5.1RC4 build 1.5.1.5
Copyright (c) 2008-2010 y-soft. All rights reserved
http:/y-soft.org

ANALYZER: auCDtect: CD records authenticity detector, version 0.8.2
Copyright (c) 2004 Oleg Berngardt. All rights reserved.
Copyright (c) 2004 Alexander Djourik. All rights reserved.

FILE: Green Day - Kerplunk.ape
  Size: 306134276 Hash: 6082D3249A1C1BC9547055148CCA27A8 Accuracy: -m0
  Conclusion: CDDA 100%
  Signature: 85A8EB2AD0AE2BF9493071C183289636F269578D
Exact Audio Copy V0.99 prebeta 5 from 4. May 2009

Отчёт EAC об извлечении, выполненном 6. февраля 2010, 22:35

Green Day / Kerplunk

Дисковод: MATSHITADVD-RAM UJ862AS Adapter: 0 ID: 1

Режим чтения : Достоверность
Использование точного потока : Да
Отключение кэша аудио : Да
Использование указателей C2 : Нет

Коррекция смещения при чтении : 102
Способность читать области Lead-in и Lead-out : Нет
Заполнение пропущенных сэмплов тишиной : Да
Удаление блоков с тишиной в начале и конце : Нет
При вычислениях CRC использовались нулевые сэмплы : Да
Интерфейс : Встроенный Win32-интерфейс для Win NT/2000

Выходной формат : Внутренние WAV-операции
Формат сэмплов : 44.100 Гц; 16 бит; стерео

TOC извлечённого CD

Трек | Старт | Длительность | Начальный сектор | Конечный сектор
---------------------------------------------------------------------
1 | 0:00.00 | 2:24.47 | 0 | 10846
2 | 2:24.47 | 2:30.10 | 10847 | 22106
3 | 4:54.57 | 3:30.36 | 22107 | 37892
4 | 8:25.18 | 3:33.32 | 37893 | 53899
5 | 11:58.50 | 2:26.22 | 53900 | 64871
6 | 14:24.72 | 1:41.51 | 64872 | 72497
7 | 16:06.48 | 2:19.31 | 72498 | 82953
8 | 18:26.04 | 3:39.40 | 82954 | 99418
9 | 22:05.44 | 3:00.48 | 99419 | 112966
10 | 25:06.17 | 3:39.60 | 112967 | 129451
11 | 28:46.02 | 2:44.02 | 129452 | 141753
12 | 31:30.04 | 2:32.36 | 141754 | 153189
13 | 34:02.40 | 1:41.37 | 153190 | 160801
14 | 35:44.02 | 2:03.13 | 160802 | 170039
15 | 37:47.15 | 2:08.11 | 170040 | 179650
16 | 39:55.26 | 2:19.56 | 179651 | 190131

Характеристики диапазона извлечения и сообщения об ошибках

Выбранный диапазон

Имя файла C:\Users\White\Desktop\Temp Music\Green day\Green Day - Kerplunk.wav

Пиковый уровень 98.9 %
Качество диапазона 100.0 %
CRC теста 78258DC8
CRC копии 78258DC8
Копирование... OK

Ошибок не произошло

AccurateRip: сводка

Трек 1 точное извлечение (доверие 20) [419D3EAC]
Трек 2 точное извлечение (доверие 20) [045DCACD]
Трек 3 точное извлечение (доверие 20) [F649959D]
Трек 4 точное извлечение (доверие 20) [E138597E]
Трек 5 точное извлечение (доверие 20) [E3FA6396]
Трек 6 точное извлечение (доверие 19) [C803EEF9]
Трек 7 точное извлечение (доверие 19) [874A4F54]
Трек 8 точное извлечение (доверие 19) [E52817EE]
Трек 9 точное извлечение (доверие 19) [ABE79B15]
Трек 10 точное извлечение (доверие 19) [11C49075]
Трек 11 точное извлечение (доверие 19) [A6E28FF0]
Трек 12 точное извлечение (доверие 19) [87FEAE41]
Трек 13 точное извлечение (доверие 19) [0B3F23E9]
Трек 14 точное извлечение (доверие 19) [C93C09F3]
Трек 15 точное извлечение (доверие 19) [787E31DE]
Трек 16 точное извлечение (доверие 19) [A8D7216E]

Все треки извлечены точно

Конец отчёта
#777Продолжительность 00:39:46
1. Burnout - 2:07
2. Having a Blast - 2:44
3. Chump - 2:54
4. Longview - 3:59
5. Welcome to Paradise - 3:44
6. Pulling Teeth - 2:30
7. Basket Case - 3:03
8. She - 2:14
9. Sassafras Roots - 2:37
10. When I Come Around - 2:58
11. Coming Clean - 1:34
12. Emenius Sleepus - 1:43
13. In the End - 1:46
14. F.O.D.(All By Myself ("secret song"))» - 5:46
Код:
Код: Выделить всё
-----------------------

DON'T MODIFY THIS FILE

-----------------------

PERFORMER: auCDtect Task Manager, ver. 1.5.1RC4 build 1.5.1.5
Copyright (c) 2008-2010 y-soft. All rights reserved
http:/y-soft.org

ANALYZER: auCDtect: CD records authenticity detector, version 0.8.2
Copyright (c) 2004 Oleg Berngardt. All rights reserved.
Copyright (c) 2004 Alexander Djourik. All rights reserved.

FILE: Green Day - Dookie.ape
  Size: 278661476 Hash: 707622749EEC2F99B973DBC62A0B798F Accuracy: -m0
  Conclusion: CDDA 99%
  Signature: 0B762C769412BE5BF8E26F3EE1D7FCBF074D0C40
Exact Audio Copy V0.99 prebeta 5 from 4. May 2009

Отчёт EAC об извлечении, выполненном 6. февраля 2010, 12:37

Green Day / Dookie

Дисковод: MATSHITADVD-RAM UJ862AS Adapter: 0 ID: 1

Режим чтения : Достоверность
Использование точного потока : Да
Отключение кэша аудио : Да
Использование указателей C2 : Нет

Коррекция смещения при чтении : 102
Способность читать области Lead-in и Lead-out : Нет
Заполнение пропущенных сэмплов тишиной : Да
Удаление блоков с тишиной в начале и конце : Нет
При вычислениях CRC использовались нулевые сэмплы : Да
Интерфейс : Встроенный Win32-интерфейс для Win NT/2000

Выходной формат : Внутренние WAV-операции
Формат сэмплов : 44.100 Гц; 16 бит; стерео

TOC извлечённого CD

Трек | Старт | Длительность | Начальный сектор | Конечный сектор
---------------------------------------------------------------------
1 | 0:00.32 | 2:07.40 | 32 | 9596
2 | 2:07.72 | 2:44.50 | 9597 | 21946
3 | 4:52.47 | 2:54.03 | 21947 | 34999
4 | 7:46.50 | 3:59.07 | 35000 | 52931
5 | 11:45.57 | 3:44.48 | 52932 | 69779
6 | 15:30.30 | 2:30.62 | 69780 | 81091
7 | 18:01.17 | 3:03.13 | 81092 | 94829
8 | 21:04.30 | 2:14.20 | 94830 | 104899
9 | 23:18.50 | 2:37.47 | 104900 | 116721
10 | 25:56.22 | 2:58.13 | 116722 | 130084
11 | 28:54.35 | 1:34.67 | 130085 | 137201
12 | 30:29.27 | 1:43.73 | 137202 | 144999
13 | 32:13.25 | 1:46.30 | 145000 | 152979
14 | 33:59.55 | 5:46.65 | 152980 | 178994

Характеристики диапазона извлечения и сообщения об ошибках

Выбранный диапазон

Имя файла C:\Users\White\Desktop\Temp Music\Green day\Green Day - Dookie.wav

Пиковый уровень 100.0 %
Качество диапазона 100.0 %
CRC теста CDF91BF2
CRC копии CDF91BF2
Копирование... OK

Ошибок не произошло

AccurateRip: сводка

Трек 1 точное извлечение (доверие 51) [E97D3D24]
Трек 2 точное извлечение (доверие 50) [82C3A243]
Трек 3 точное извлечение (доверие 48) [4E5EA90A]
Трек 4 точное извлечение (доверие 48) [D2547B6E]
Трек 5 точное извлечение (доверие 50) [C77076C6]
Трек 6 точное извлечение (доверие 48) [ABE04806]
Трек 7 точное извлечение (доверие 49) [6AADA86D]
Трек 8 точное извлечение (доверие 50) [EFDC7AC6]
Трек 9 точное извлечение (доверие 48) [1140B7F3]
Трек 10 точное извлечение (доверие 48) [30419BE1]
Трек 11 точное извлечение (доверие 50) [3B7933DD]
Трек 12 точное извлечение (доверие 49) [01FC8F38]
Трек 13 точное извлечение (доверие 50) [213DE022]
Трек 14 точное извлечение (доверие 48) [5AD94930]

Все треки извлечены точно

Конец отчёта
#777Продолжительность 00:32:56
1. Armatage Shanks — 2:17
2. Brat — 1:43
3. Stuck With Me — 2:16
4. Geek Stink Breath — 2:15
5. No Pride — 2:20
6. Bab’s Uvula Who? — 2:07
7. 86 — 2:48
8. Panic Song — 3:35
9. Stuart and the Ave. — 2:04
10. Brain Stew — 3:13
11. Jaded — 1:31
12. Westbound Sign — 2:13
13. Tight Wad Hill — 2:01
14. Walking Contradiction — 2:31
Код:
Код: Выделить всё
-----------------------

DON'T MODIFY THIS FILE

-----------------------

PERFORMER: auCDtect Task Manager, ver. 1.5.1RC4 build 1.5.1.5
Copyright (c) 2008-2010 y-soft. All rights reserved
http:/y-soft.org

ANALYZER: auCDtect: CD records authenticity detector, version 0.8.2
Copyright (c) 2004 Oleg Berngardt. All rights reserved.
Copyright (c) 2004 Alexander Djourik. All rights reserved.

FILE: Green Day - Insomniac.ape
  Size: 262200848 Hash: 5F3D4493615EDBF635621CB539A4D352 Accuracy: -m0
  Conclusion: CDDA 100%
  Signature: B24EFA46396B8D61AB1A745D5CFDF85CF8040828
Exact Audio Copy V0.99 prebeta 5 from 4. May 2009

Отчёт EAC об извлечении, выполненном 6. февраля 2010, 17:25

Green Day / Insomniac

Дисковод: MATSHITADVD-RAM UJ862AS Adapter: 0 ID: 1

Режим чтения : Достоверность
Использование точного потока : Да
Отключение кэша аудио : Да
Использование указателей C2 : Нет

Коррекция смещения при чтении : 102
Способность читать области Lead-in и Lead-out : Нет
Заполнение пропущенных сэмплов тишиной : Да
Удаление блоков с тишиной в начале и конце : Нет
При вычислениях CRC использовались нулевые сэмплы : Да
Интерфейс : Встроенный Win32-интерфейс для Win NT/2000

Выходной формат : Внутренние WAV-операции
Формат сэмплов : 44.100 Гц; 16 бит; стерео

TOC извлечённого CD

Трек | Старт | Длительность | Начальный сектор | Конечный сектор
---------------------------------------------------------------------
1 | 0:00.32 | 2:16.45 | 32 | 10276
2 | 2:17.02 | 1:43.25 | 10277 | 18026
3 | 4:00.27 | 2:15.48 | 18027 | 28199
4 | 6:16.00 | 2:15.70 | 28200 | 38394
5 | 8:31.70 | 2:19.62 | 38395 | 48881
6 | 10:51.57 | 2:08.15 | 48882 | 58496
7 | 12:59.72 | 2:47.60 | 58497 | 71081
8 | 15:47.57 | 3:35.33 | 71082 | 87239
9 | 19:23.15 | 2:03.35 | 87240 | 96499
10 | 21:26.50 | 3:12.70 | 96500 | 110969
11 | 24:39.45 | 1:30.65 | 110970 | 117784
12 | 26:10.35 | 2:13.20 | 117785 | 127779
13 | 28:23.55 | 2:01.02 | 127780 | 136856
14 | 30:24.57 | 2:31.38 | 136857 | 148219

Характеристики диапазона извлечения и сообщения об ошибках

Выбранный диапазон

Имя файла C:\Users\White\Desktop\Temp Music\Green day\Green Day - Insomniac.wav

Пиковый уровень 100.0 %
Качество диапазона 100.0 %
CRC теста C024FC08
CRC копии C024FC08
Копирование... OK

Ошибок не произошло

AccurateRip: сводка

Трек 1 точное извлечение (доверие 47) [7471A4B9]
Трек 2 точное извлечение (доверие 49) [5D96C222]
Трек 3 точное извлечение (доверие 48) [9C4FF660]
Трек 4 точное извлечение (доверие 47) [8647EC41]
Трек 5 точное извлечение (доверие 48) [D4CCA491]
Трек 6 точное извлечение (доверие 48) [B23560DF]
Трек 7 точное извлечение (доверие 46) [0266F2F4]
Трек 8 точное извлечение (доверие 47) [B5FFF746]
Трек 9 точное извлечение (доверие 48) [D12FF536]
Трек 10 точное извлечение (доверие 47) [E368027B]
Трек 11 точное извлечение (доверие 47) [ED4FDD34]
Трек 12 точное извлечение (доверие 47) [20172000]
Трек 13 точное извлечение (доверие 47) [3525D833]
Трек 14 точное извлечение (доверие 48) [6503E3B6]

Все треки извлечены точно

Конец отчёта
#777Продолжительность 00:49:10
1. Nice Guys Finish Last — 2:49
2. Hitchin' a Ride — 2:52
3. The Grouch — 2:12
4. Redundant — 3:18
5. Scattered — 3:03
6. All the Time — 2:11
7. Worry Rock — 2:27
8. Platypus (I Hate You) — 2:22
9. Uptight — 3:04
10. Last Ride In — 3:48
11. Jinx — 2:13
12. Haushinka — 3:25
13. Walking Alone — 2:45
14. Reject — 2:06
15. Take Back — 1:09
16. King for a Day — 3:14
17. Good Riddance (Time of Your Life) — 2:35
18. Prosthetic Head — 3:38
Код:
Код: Выделить всё
-----------------------

DON'T MODIFY THIS FILE

-----------------------

PERFORMER: auCDtect Task Manager, ver. 1.5.1RC4 build 1.5.1.5
Copyright (c) 2008-2010 y-soft. All rights reserved
http:/y-soft.org

ANALYZER: auCDtect: CD records authenticity detector, version 0.8.2
Copyright (c) 2004 Oleg Berngardt. All rights reserved.
Copyright (c) 2004 Alexander Djourik. All rights reserved.

FILE: Green Day - Nimrod.ape
  Size: 386037916 Hash: C792751BB548F3A48F1A58890B2218E8 Accuracy: -m0
  Conclusion: CDDA 100%
  Signature: DE323AD8D4CDF3152BE293A8BC6348B29F3375D0
Exact Audio Copy V0.99 prebeta 5 from 4. May 2009

Отчёт EAC об извлечении, выполненном 6. февраля 2010, 21:15

Green Day / Nimrod

Дисковод: MATSHITADVD-RAM UJ862AS Adapter: 0 ID: 1

Режим чтения : Достоверность
Использование точного потока : Да
Отключение кэша аудио : Да
Использование указателей C2 : Нет

Коррекция смещения при чтении : 102
Способность читать области Lead-in и Lead-out : Нет
Заполнение пропущенных сэмплов тишиной : Да
Удаление блоков с тишиной в начале и конце : Нет
При вычислениях CRC использовались нулевые сэмплы : Да
Интерфейс : Встроенный Win32-интерфейс для Win NT/2000

Выходной формат : Внутренние WAV-операции
Формат сэмплов : 44.100 Гц; 16 бит; стерео

TOC извлечённого CD

Трек | Старт | Длительность | Начальный сектор | Конечный сектор
---------------------------------------------------------------------
1 | 0:00.32 | 2:49.15 | 32 | 12721
2 | 2:49.47 | 2:51.65 | 12722 | 25611
3 | 5:41.37 | 2:12.18 | 25612 | 35529
4 | 7:53.55 | 3:17.52 | 35530 | 50356
5 | 11:11.32 | 3:02.38 | 50357 | 64044
6 | 14:13.70 | 2:10.42 | 64045 | 73836
7 | 16:24.37 | 2:27.00 | 73837 | 84861
8 | 18:51.37 | 2:21.58 | 84862 | 95494
9 | 21:13.20 | 3:04.12 | 95495 | 109306
10 | 24:17.32 | 3:47.63 | 109307 | 126394
11 | 28:05.20 | 2:12.42 | 126395 | 136336
12 | 30:17.62 | 3:25.33 | 136337 | 151744
13 | 33:43.20 | 2:45.22 | 151745 | 164141
14 | 36:28.42 | 2:05.63 | 164142 | 173579
15 | 38:34.30 | 1:09.27 | 173580 | 178781
16 | 39:43.57 | 3:13.38 | 178782 | 193294
17 | 42:57.20 | 2:34.42 | 193295 | 204886
18 | 45:31.62 | 3:38.15 | 204887 | 221251

Характеристики диапазона извлечения и сообщения об ошибках

Выбранный диапазон

Имя файла C:\Users\White\Desktop\Temp Music\Green day\Green Day - Nimrod.wav

Пиковый уровень 99.9 %
Качество диапазона 100.0 %
CRC теста F9C9AAC6
CRC копии F9C9AAC6
Копирование... OK

Ошибок не произошло

AccurateRip: сводка

Трек 1 точное извлечение (доверие 36) [5078FB91]
Трек 2 точное извлечение (доверие 36) [1BA25C47]
Трек 3 точное извлечение (доверие 36) [22E7BD15]
Трек 4 точное извлечение (доверие 36) [BD9948F2]
Трек 5 точное извлечение (доверие 36) [248D9347]
Трек 6 точное извлечение (доверие 36) [83FC3C53]
Трек 7 точное извлечение (доверие 36) [236A9A8D]
Трек 8 точное извлечение (доверие 36) [830D02D3]
Трек 9 точное извлечение (доверие 36) [0B3DAC6E]
Трек 10 точное извлечение (доверие 36) [2376CC97]
Трек 11 точное извлечение (доверие 36) [36E5A668]
Трек 12 точное извлечение (доверие 36) [4782E5F8]
Трек 13 точное извлечение (доверие 36) [7E96EC62]
Трек 14 точное извлечение (доверие 36) [E6F1C204]
Трек 15 точное извлечение (доверие 36) [A2524177]
Трек 16 точное извлечение (доверие 36) [FA22BF85]
Трек 17 точное извлечение (доверие 36) [4C1F0478]
Трек 18 точное извлечение (доверие 36) [4847B5C5]

Все треки извлечены точно

Конец отчёта
#777Продолжительность 00:41:14
1. Warning»
2. Blood, Sex and Booze — 3:34
3. Church On Sunday — 3:19
4. Fashion Victim — 2:49
5. Castaway — 3:53
6. Misery — 5:06
7. Deadbeat Holiday — 3:35
8. Hold On — 2:57
9. Jackass — 2:43
10. Waiting — 3:14
11. Minority — 2:49
12. Macy’s Day Parade — 3:34
Код:
Код: Выделить всё
-----------------------

DON'T MODIFY THIS FILE

-----------------------

PERFORMER: auCDtect Task Manager, ver. 1.5.1RC4 build 1.5.1.5
Copyright (c) 2008-2010 y-soft. All rights reserved
http:/y-soft.org

ANALYZER: auCDtect: CD records authenticity detector, version 0.8.2
Copyright (c) 2004 Oleg Berngardt. All rights reserved.
Copyright (c) 2004 Alexander Djourik. All rights reserved.

FILE: Green Day - Warning.ape
  Size: 317632444 Hash: 8D098758BFC6AA4032FC887EF3330FD1 Accuracy: -m0
  Conclusion: CDDA 100%
  Signature: 4FC2073AE98F99299AED4AED04C749780AD1A729
Exact Audio Copy V0.99 prebeta 5 from 4. May 2009

Отчёт EAC об извлечении, выполненном 6. февраля 2010, 18:44

Green Day / Warning

Дисковод: MATSHITADVD-RAM UJ862AS Adapter: 0 ID: 1

Режим чтения : Достоверность
Использование точного потока : Да
Отключение кэша аудио : Да
Использование указателей C2 : Нет

Коррекция смещения при чтении : 102
Способность читать области Lead-in и Lead-out : Нет
Заполнение пропущенных сэмплов тишиной : Да
Удаление блоков с тишиной в начале и конце : Нет
При вычислениях CRC использовались нулевые сэмплы : Да
Интерфейс : Встроенный Win32-интерфейс для Win NT/2000

Выходной формат : Внутренние WAV-операции
Формат сэмплов : 44.100 Гц; 16 бит; стерео

TOC извлечённого CD

Трек | Старт | Длительность | Начальный сектор | Конечный сектор
---------------------------------------------------------------------
1 | 0:00.32 | 3:42.50 | 32 | 16731
2 | 3:43.07 | 3:33.18 | 16732 | 32724
3 | 7:16.25 | 3:18.35 | 32725 | 47609
4 | 10:34.60 | 2:48.42 | 47610 | 60251
5 | 13:23.27 | 3:52.40 | 60252 | 77691
6 | 17:15.67 | 5:05.68 | 77692 | 100634
7 | 22:21.60 | 3:35.22 | 100635 | 116781
8 | 25:57.07 | 2:56.70 | 116782 | 130051
9 | 28:54.02 | 2:43.03 | 130052 | 142279
10 | 31:37.05 | 3:13.70 | 142280 | 156824
11 | 34:51.00 | 2:49.30 | 156825 | 169529
12 | 37:40.30 | 3:34.30 | 169530 | 185609

Характеристики диапазона извлечения и сообщения об ошибках

Выбранный диапазон

Имя файла C:\Users\White\Desktop\Temp Music\Green day\Green Day - Warning.wav

Пиковый уровень 99.8 %
Качество диапазона 100.0 %
CRC теста 275CDC62
CRC копии 275CDC62
Копирование... OK

Ошибок не произошло

AccurateRip: сводка

Трек 1 точное извлечение (доверие 28) [A9856D59]
Трек 2 точное извлечение (доверие 28) [F4C1D484]
Трек 3 точное извлечение (доверие 28) [264BD700]
Трек 4 точное извлечение (доверие 28) [AB3CC5E6]
Трек 5 точное извлечение (доверие 28) [99BFA0DF]
Трек 6 точное извлечение (доверие 28) [74C6568C]
Трек 7 точное извлечение (доверие 28) [D96D0D74]
Трек 8 точное извлечение (доверие 29) [4CEB8BF7]
Трек 9 точное извлечение (доверие 29) [D57E0690]
Трек 10 точное извлечение (доверие 29) [CC38B819]
Трек 11 точное извлечение (доверие 29) [6F5AA609]
Трек 12 точное извлечение (доверие 28) [FDAB2328]

Все треки извлечены точно

Конец отчёта
#777Продолжительность 00:57:16
1. American Idiot — 2:54
2. Jesus of Suburbia — 9:08
* I. Jesus of Suburbia
* II. City of the Dead
* III. I Don’t Care
* IV. Dearly Beloved
* V. Tales of Another Broken Home
3. Holiday — 3:52
4. Boulevard of Broken Dreams — 4:20
5. Are We The Waiting — 2:42
6. St. Jimmy — 2:55
7. Give Me Novacaine — 3:25
8. She’s a Rebel — 2:00
9. Extraordinary Girl — 3:33
10. Letterbomb — 4:06
11. Wake Me Up When September Ends — 4:45
12. Homecoming — 9:18
* I. The Death of St. Jimmy
* II. East 12th St.
* III. Nobody Likes You
* IV. Rock and Roll Girlfriend
* V. We’re Coming Home Again
13. Whatsername — 4:12
Код:
Код: Выделить всё
-----------------------

DON'T MODIFY THIS FILE

-----------------------

PERFORMER: auCDtect Task Manager, ver. 1.5.1RC4 build 1.5.1.5
Copyright (c) 2008-2010 y-soft. All rights reserved
http:/y-soft.org

ANALYZER: auCDtect: CD records authenticity detector, version 0.8.2
Copyright (c) 2004 Oleg Berngardt. All rights reserved.
Copyright (c) 2004 Alexander Djourik. All rights reserved.

FILE: Green Day - American Idiot.ape
  Size: 425053912 Hash: F4426148C8F3C9F1DEDA391378E26E4F Accuracy: -m0
  Conclusion: CDDA 100%
  Signature: 077530D8C2062841BDBEDDC91D3D0E08ED92AECA
Exact Audio Copy V0.99 prebeta 5 from 4. May 2009

Отчёт EAC об извлечении, выполненном 6. февраля 2010, 16:27

Green Day / American Idiot

Дисковод: MATSHITADVD-RAM UJ862AS Adapter: 0 ID: 1

Режим чтения : Достоверность
Использование точного потока : Да
Отключение кэша аудио : Да
Использование указателей C2 : Нет

Коррекция смещения при чтении : 102
Способность читать области Lead-in и Lead-out : Нет
Заполнение пропущенных сэмплов тишиной : Да
Удаление блоков с тишиной в начале и конце : Нет
При вычислениях CRC использовались нулевые сэмплы : Да
Интерфейс : Встроенный Win32-интерфейс для Win NT/2000

Выходной формат : Внутренние WAV-операции
Формат сэмплов : 44.100 Гц; 16 бит; стерео

TOC извлечённого CD

Трек | Старт | Длительность | Начальный сектор | Конечный сектор
---------------------------------------------------------------------
1 | 0:00.00 | 2:54.24 | 0 | 13073
2 | 2:54.24 | 9:08.19 | 13074 | 54192
3 | 12:02.43 | 3:52.48 | 54193 | 71640
4 | 15:55.16 | 4:20.57 | 71641 | 91197
5 | 20:15.73 | 2:42.69 | 91198 | 103416
6 | 22:58.67 | 2:55.17 | 103417 | 116558
7 | 25:54.09 | 3:25.58 | 116559 | 131991
8 | 29:19.67 | 2:00.32 | 131992 | 141023
9 | 31:20.24 | 3:33.70 | 141024 | 157068
10 | 34:54.19 | 4:06.05 | 157069 | 175523
11 | 39:00.24 | 4:45.49 | 175524 | 196947
12 | 43:45.73 | 9:18.39 | 196948 | 238836
13 | 53:04.37 | 4:12.16 | 238837 | 257752
14 | 59:48.53 | 1:24.04 | 269153 | 275456

Характеристики диапазона извлечения и сообщения об ошибках

Выбранный диапазон

Имя файла C:\Users\White\Desktop\Temp Music\Green day\Green Day - American Idiot.wav

Пиковый уровень 96.6 %
Качество диапазона 100.0 %
CRC теста 1ACCCCDC
CRC копии 1ACCCCDC
Копирование... OK

Ошибок не произошло

AccurateRip: сводка

Трек 1 точное извлечение (доверие 200) [FA645DCB]
Трек 2 точное извлечение (доверие 200) [C9F13467]
Трек 3 точное извлечение (доверие 200) [A6EA43DB]
Трек 4 точное извлечение (доверие 200) [DDE2A8A3]
Трек 5 точное извлечение (доверие 200) [34DE432E]
Трек 6 точное извлечение (доверие 200) [44C14AB5]
Трек 7 точное извлечение (доверие 200) [47D71614]
Трек 8 точное извлечение (доверие 200) [B2A2D534]
Трек 9 точное извлечение (доверие 200) [92DD375C]
Трек 10 точное извлечение (доверие 200) [C4A50001]
Трек 11 точное извлечение (доверие 200) [F50D2C5C]
Трек 12 точное извлечение (доверие 200) [52E1C066]
Трек 13 точное извлечение (доверие 200) [A54FF4E8]

Все треки извлечены точно

Конец отчёта
#777Продолжительность 01:09:15
1. Song of the Century— 0:57
ACT 1 - HEROES AND CONS
2. 21st Century Breakdown— 5:09
3. Know Your Enemy— 3:11
4. !Viva La Gloria!— 3:30
5. Before the Lobotomy— 4:37
6. Christian's Inferno— 3:07
7. Last Night on Earth— 3:57
ACT 2 - CHARLATANS AND SAINTS
8. East Jesus Nowhere— 4:34
9. Peacemaker— 3:25
10. Last of the American Girls— 3:51
11. Murder City— 2:54
12. ?Viva La Gloria? (Little Girl)— 3:48
13. Restless Heart Syndrome— 4:19
ACT 3 - HORSESHOES AND HANDGRENADES
14. Horseshoes and Handgrenades— 3:16
15. The Static Age— 4:17
16. 21 Guns— 5:21
17. American Eulogy— 4:26
A. Mass Hysteria
B. Modern World
18. See The Light— 4:36
Код:
Код: Выделить всё
-----------------------

DON'T MODIFY THIS FILE

-----------------------

PERFORMER: auCDtect Task Manager, ver. 1.5.1RC4 build 1.5.1.5
Copyright (c) 2008-2010 y-soft. All rights reserved
http:/y-soft.org

ANALYZER: auCDtect: CD records authenticity detector, version 0.8.2
Copyright (c) 2004 Oleg Berngardt. All rights reserved.
Copyright (c) 2004 Alexander Djourik. All rights reserved.

FILE: Green Day - 21st Century Breakdown.ape
  Size: 507002492 Hash: 7A07C914631706FE583A53AE1BE6A51E Accuracy: -m0
  Conclusion: CDDA 100%
  Signature: B19935CF915B72E86749D8510A1C5CF881D108BD
Exact Audio Copy V0.99 prebeta 5 from 4. May 2009

Отчёт EAC об извлечении, выполненном 6. февраля 2010, 14:45

Green Day / 21st Century Breakdown

Дисковод: MATSHITADVD-RAM UJ862AS Adapter: 0 ID: 1

Режим чтения : Достоверность
Использование точного потока : Да
Отключение кэша аудио : Да
Использование указателей C2 : Нет

Коррекция смещения при чтении : 102
Способность читать области Lead-in и Lead-out : Нет
Заполнение пропущенных сэмплов тишиной : Да
Удаление блоков с тишиной в начале и конце : Нет
При вычислениях CRC использовались нулевые сэмплы : Да
Интерфейс : Встроенный Win32-интерфейс для Win NT/2000

Выходной формат : Внутренние WAV-операции
Формат сэмплов : 44.100 Гц; 16 бит; стерео

TOC извлечённого CD

Трек | Старт | Длительность | Начальный сектор | Конечный сектор
---------------------------------------------------------------------
1 | 0:00.00 | 0:57.58 | 0 | 4332
2 | 0:57.58 | 5:09.08 | 4333 | 27515
3 | 6:06.66 | 3:10.17 | 27516 | 41782
4 | 9:17.08 | 3:30.38 | 41783 | 57570
5 | 12:47.46 | 4:37.01 | 57571 | 78346
6 | 17:24.47 | 3:07.05 | 78347 | 92376
7 | 20:31.52 | 3:56.40 | 92377 | 110116
8 | 24:28.17 | 4:34.53 | 110117 | 130719
9 | 29:02.70 | 3:24.06 | 130720 | 146025
10 | 32:27.01 | 3:51.02 | 146026 | 163352
11 | 36:18.03 | 2:54.32 | 163353 | 176434
12 | 39:12.35 | 3:47.51 | 176435 | 193510
13 | 43:00.11 | 4:21.37 | 193511 | 213122
14 | 47:21.48 | 3:14.05 | 213123 | 227677
15 | 50:35.53 | 4:16.47 | 227678 | 246924
16 | 54:52.25 | 5:21.07 | 246925 | 271006
17 | 60:13.32 | 4:26.08 | 271007 | 290964
18 | 64:39.40 | 4:35.70 | 290965 | 311659

Характеристики диапазона извлечения и сообщения об ошибках

Выбранный диапазон

Имя файла C:\Users\White\Desktop\Temp Music\Green day\Green Day - 21st Century Breakdown.wav

Пиковый уровень 100.0 %
Качество диапазона 99.9 %
CRC теста DED06E2B
CRC копии DED06E2B
Копирование... OK

Ошибок не произошло

AccurateRip: сводка

Трек 1 точное извлечение (доверие 180) [F265CB66]
Трек 2 точное извлечение (доверие 183) [BA7639E1]
Трек 3 точное извлечение (доверие 183) [35F78727]
Трек 4 точное извлечение (доверие 184) [71F7CB88]
Трек 5 точное извлечение (доверие 184) [465CCCB4]
Трек 6 точное извлечение (доверие 185) [1463FD08]
Трек 7 точное извлечение (доверие 185) [BF1606E5]
Трек 8 точное извлечение (доверие 185) [93CBDEBB]
Трек 9 точное извлечение (доверие 186) [4F83A96A]
Трек 10 точное извлечение (доверие 184) [45A4A477]
Трек 11 точное извлечение (доверие 183) [5D39990C]
Трек 12 точное извлечение (доверие 184) [E82C6134]
Трек 13 точное извлечение (доверие 184) [41BC5D52]
Трек 14 точное извлечение (доверие 184) [6505F103]
Трек 15 точное извлечение (доверие 185) [AC8F24C2]
Трек 16 точное извлечение (доверие 185) [D79478FD]
Трек 17 точное извлечение (доверие 184) [1E2C8824]
Трек 18 точное извлечение (доверие 185) [91785543]

Все треки извлечены точно

Конец отчёта
Live
#777Продолжительность 01:05:02
1. American Idiot — 4:32
2. Jesus of Suburbia — 9:23
3. Holiday — 4:13
4. We Are The Waiting — 2:49
5. St. Jimmy — 2:55
6. Longview — 4:45
7. Hitchin' A Ride — 4:03
8. Brain Stew — 3:03
9. Basket Case — 2:58
10. King For A Day/Shout — 8:47
11. Wake Me Up When September Ends — 5:04
12. Minority — 4:19
13. Boulevard of Broken Dreams — 4:45
14. Good Riddance (Time of Your Life) — 3:26
Код:
Код: Выделить всё
-----------------------

DON'T MODIFY THIS FILE

-----------------------

PERFORMER: auCDtect Task Manager, ver. 1.5.1RC4 build 1.5.1.5
Copyright (c) 2008-2010 y-soft. All rights reserved
http:/y-soft.org

ANALYZER: auCDtect: CD records authenticity detector, version 0.8.2
Copyright (c) 2004 Oleg Berngardt. All rights reserved.
Copyright (c) 2004 Alexander Djourik. All rights reserved.

FILE: Green Day - Bullet In A Bible (live).ape
  Size: 504796404 Hash: D8BE6168F5D9385E719F659F1A6DE0D4 Accuracy: -m0
  Conclusion: CDDA 100%
  Signature: 5E1E66868E957E95A8A10AD7D58619989A4F2CC4
Exact Audio Copy V0.99 prebeta 5 from 4. May 2009

Отчёт EAC об извлечении, выполненном 5. февраля 2010, 23:40

Green Day / Bullet In A Bible (live)

Дисковод: MATSHITADVD-RAM UJ862AS Adapter: 0 ID: 1

Режим чтения : Достоверность
Использование точного потока : Да
Отключение кэша аудио : Да
Использование указателей C2 : Нет

Коррекция смещения при чтении : 102
Способность читать области Lead-in и Lead-out : Нет
Заполнение пропущенных сэмплов тишиной : Да
Удаление блоков с тишиной в начале и конце : Нет
При вычислениях CRC использовались нулевые сэмплы : Да
Интерфейс : Встроенный Win32-интерфейс для Win NT/2000

Выходной формат : Внутренние WAV-операции
Формат сэмплов : 44.100 Гц; 16 бит; стерео

TOC извлечённого CD

Трек | Старт | Длительность | Начальный сектор | Конечный сектор
---------------------------------------------------------------------
1 | 0:00.00 | 4:32.38 | 0 | 20437
2 | 4:32.38 | 9:23.06 | 20438 | 62668
3 | 13:55.44 | 4:12.31 | 62669 | 81599
4 | 18:08.00 | 2:49.18 | 81600 | 94292
5 | 20:57.18 | 2:55.18 | 94293 | 107435
6 | 23:52.36 | 4:44.40 | 107436 | 128775
7 | 28:37.01 | 4:03.72 | 128776 | 147072
8 | 32:40.73 | 3:02.46 | 147073 | 160768
9 | 35:43.44 | 2:58.08 | 160769 | 174126
10 | 38:41.52 | 8:47.08 | 174127 | 213659
11 | 47:28.60 | 5:03.29 | 213660 | 236413
12 | 52:32.14 | 4:19.19 | 236414 | 255857
13 | 56:51.33 | 4:44.72 | 255858 | 277229
14 | 61:36.30 | 3:26.02 | 277230 | 292681

Характеристики диапазона извлечения и сообщения об ошибках

Выбранный диапазон

Имя файла C:\Users\White\Desktop\Temp Music\Green day\Green Day - Bullet In A Bible (live).wav

Пиковый уровень 96.9 %
Качество диапазона 99.9 %
CRC теста EEBFA4B9
CRC копии EEBFA4B9
Копирование... OK

Ошибок не произошло

AccurateRip: сводка

Трек 1 точное извлечение (доверие 53) [3E4ECD39]
Трек 2 точное извлечение (доверие 53) [CFDC3F9F]
Трек 3 точное извлечение (доверие 54) [B0A4D80A]
Трек 4 точное извлечение (доверие 55) [484DF77B]
Трек 5 точное извлечение (доверие 54) [457711C2]
Трек 6 точное извлечение (доверие 53) [35F2943A]
Трек 7 точное извлечение (доверие 54) [48812FBF]
Трек 8 точное извлечение (доверие 53) [FC85028F]
Трек 9 точное извлечение (доверие 54) [A052DF30]
Трек 10 точное извлечение (доверие 53) [1FABA554]
Трек 11 точное извлечение (доверие 55) [34219B21]
Трек 12 точное извлечение (доверие 55) [7BAC5368]
Трек 13 точное извлечение (доверие 54) [14D7005C]
Трек 14 точное извлечение (доверие 53) [11536CAF]

Все треки извлечены точно

Конец отчёта
#777Продолжительность 00:27:52
1. 21st Century Breakdown (live)" 6:16
2. Know Your Enemy (live)" (Japanese only) 3:57
3. Last of the American Girls (live)" 3:54
4. 21 Guns (live) 5:02
5. American Eulogy (Mass Hysteria/Modern World) 3:32
6. Basket Case (live) 3:03
7. Geek Stink Breath (live) 2:04
Код:
Код: Выделить всё
-----------------------

DON'T MODIFY THIS FILE

-----------------------

PERFORMER: auCDtect Task Manager, ver. 1.5.1RC4 build 1.5.1.5
Copyright (c) 2008-2010 y-soft. All rights reserved
http:/y-soft.org

ANALYZER: auCDtect: CD records authenticity detector, version 0.8.2
Copyright (c) 2004 Oleg Berngardt. All rights reserved.
Copyright (c) 2004 Alexander Djourik. All rights reserved.

FILE: Green day - LAST NIGHT ON EARTH(LIVE IN TOKYO).ape
  Size: 211119212 Hash: DAF14EFAEE55FCBE1A8C48CEB38A4DC6 Accuracy: -m0
  Conclusion: CDDA 100%
  Signature: 11FFD7388F7D4F1428EAADBF9FF32237199A1ADC
Exact Audio Copy V0.99 prebeta 5 from 4. May 2009

Отчёт EAC об извлечении, выполненном 6. февраля 2010, 23:30

Green day / LAST NIGHT ON EARTH(LIVE IN TOKYO)

Дисковод: MATSHITADVD-RAM UJ862AS Adapter: 0 ID: 1

Режим чтения : Достоверность
Использование точного потока : Да
Отключение кэша аудио : Да
Использование указателей C2 : Нет

Коррекция смещения при чтении : 102
Способность читать области Lead-in и Lead-out : Нет
Заполнение пропущенных сэмплов тишиной : Да
Удаление блоков с тишиной в начале и конце : Нет
При вычислениях CRC использовались нулевые сэмплы : Да
Интерфейс : Встроенный Win32-интерфейс для Win NT/2000

Выходной формат : Внутренние WAV-операции
Формат сэмплов : 44.100 Гц; 16 бит; стерео

TOC извлечённого CD

Трек | Старт | Длительность | Начальный сектор | Конечный сектор
---------------------------------------------------------------------
1 | 0:00.00 | 6:16.60 | 0 | 28259
2 | 6:16.60 | 3:57.24 | 28260 | 46058
3 | 10:14.09 | 3:54.48 | 46059 | 63656
4 | 14:08.57 | 5:02.04 | 63657 | 86310
5 | 19:10.61 | 3:33.09 | 86311 | 102294
6 | 22:43.70 | 3:03.58 | 102295 | 116077
7 | 25:47.53 | 2:04.72 | 116078 | 125449

Характеристики диапазона извлечения и сообщения об ошибках

Выбранный диапазон

Имя файла C:\Users\White\Desktop\Temp Music\Green day\Green day - LAST NIGHT ON EARTH(LIVE IN TOKYO).wav

Пиковый уровень 100.0 %
Качество диапазона 100.0 %
CRC теста 4796544B
CRC копии 4796544B
Копирование... OK

Ошибок не произошло

AccurateRip: сводка

Трек 1 точное извлечение (доверие 1) [E3A35231]
Трек 2 точное извлечение (доверие 1) [38B38874]
Трек 3 точное извлечение (доверие 1) [8AD6734A]
Трек 4 точное извлечение (доверие 1) [E03D5B41]
Трек 5 точное извлечение (доверие 1) [F161BA5B]
Трек 6 точное извлечение (доверие 1) [D4412643]
Трек 7 точное извлечение (доверие 1) [0E8F250E]

Все треки извлечены точно

Конец отчёта
Compilations
#777Продолжительность 00:56:32
1. At the Library — 2:28
2. Don’t Leave Me — 2:39
3. I Was There — 3:36
4. Disappearing Boy — 2:52
5. Green Day — 3:29
6. Going to Pasalacqua — 3:31
7. 16 — 3:24
8. Road to Acceptance — 3:36
9. Rest — 3:06
10. The Judge’s Daughter — 2:35
11. Paper Lanterns — 2:25
12. Why Do You Want Him? — 2:33
13. 409 in Your Coffeemaker — 2:54
14. Knowledge — 2:20
15. 1,000 Hours — 2:26
16. Dry Ice — 3:45
17. Only of You — 2:46
18. The One I Want — 3:01
19. I Want to be Alone — 3:09
Код:
Код: Выделить всё
-----------------------

DON'T MODIFY THIS FILE

-----------------------

PERFORMER: auCDtect Task Manager, ver. 1.5.1RC4 build 1.5.1.5
Copyright (c) 2008-2010 y-soft. All rights reserved
http:/y-soft.org

ANALYZER: auCDtect: CD records authenticity detector, version 0.8.2
Copyright (c) 2004 Oleg Berngardt. All rights reserved.
Copyright (c) 2004 Alexander Djourik. All rights reserved.

FILE: Green Day - 1,039   Smoothed Out Out Slappy Hours.ape
  Size: 431201840 Hash: 1267C5B5BB63D7F02DEDDFEE9CF59512 Accuracy: -m0
  Conclusion: CDDA 99%
  Signature: FA5D070376300B0F47188A782D4ACE9D2D646AB6
Exact Audio Copy V0.99 prebeta 5 from 4. May 2009

Отчёт EAC об извлечении, выполненном 5. февраля 2010, 7:58

Green Day / 1,039 / Smoothed Out Out Slappy Hours

Дисковод: MATSHITADVD-RAM UJ862AS Adapter: 0 ID: 1

Режим чтения : Достоверность
Использование точного потока : Да
Отключение кэша аудио : Да
Использование указателей C2 : Нет

Коррекция смещения при чтении : 102
Способность читать области Lead-in и Lead-out : Нет
Заполнение пропущенных сэмплов тишиной : Да
Удаление блоков с тишиной в начале и конце : Нет
При вычислениях CRC использовались нулевые сэмплы : Да
Интерфейс : Встроенный Win32-интерфейс для Win NT/2000

Выходной формат : Внутренние WAV-операции
Формат сэмплов : 44.100 Гц; 16 бит; стерео

TOC извлечённого CD

Трек | Старт | Длительность | Начальный сектор | Конечный сектор
---------------------------------------------------------------------
1 | 0:00.00 | 2:27.18 | 0 | 11042
2 | 2:27.18 | 2:38.67 | 11043 | 22959
3 | 5:06.10 | 3:36.13 | 22960 | 39172
4 | 8:42.23 | 2:51.59 | 39173 | 52056
5 | 11:34.07 | 3:28.68 | 52057 | 67724
6 | 15:03.00 | 3:30.27 | 67725 | 83501
7 | 18:33.27 | 3:24.35 | 83502 | 98836
8 | 21:57.62 | 3:35.45 | 98837 | 115006
9 | 25:33.32 | 3:05.59 | 115007 | 128940
10 | 28:39.16 | 2:34.32 | 128941 | 140522
11 | 31:13.48 | 2:25.25 | 140523 | 151422
12 | 33:38.73 | 2:32.47 | 151423 | 162869
13 | 36:11.45 | 2:53.74 | 162870 | 175918
14 | 39:05.44 | 2:20.08 | 175919 | 186426
15 | 41:25.52 | 2:25.68 | 186427 | 197369
16 | 43:51.45 | 3:44.62 | 197370 | 214231
17 | 47:36.32 | 2:45.63 | 214232 | 226669
18 | 50:22.20 | 3:01.10 | 226670 | 240254
19 | 53:23.30 | 3:09.18 | 240255 | 254447
20 | 59:04.48 | 8:25.55 | 265848 | 303777

Характеристики диапазона извлечения и сообщения об ошибках

Выбранный диапазон

Имя файла C:\Users\White\Desktop\Temp Music\Green day\Green Day - 1,039 Smoothed Out Out Slappy Hours.wav

Пиковый уровень 96.6 %
Качество диапазона 100.0 %
CRC копии 376BE48D
Копирование... OK

Ошибок не произошло

AccurateRip: сводка

Трек 1 точное извлечение (доверие 15) [008C7630]
Трек 2 точное извлечение (доверие 15) [23919A79]
Трек 3 точное извлечение (доверие 16) [53122655]
Трек 4 точное извлечение (доверие 15) [A65FD442]
Трек 5 точное извлечение (доверие 14) [9C829471]
Трек 6 точное извлечение (доверие 15) [EDC15840]
Трек 7 точное извлечение (доверие 15) [627D710C]
Трек 8 точное извлечение (доверие 15) [7EEB52ED]
Трек 9 точное извлечение (доверие 15) [BDBABDC8]
Трек 10 точное извлечение (доверие 14) [491AB152]
Трек 11 точное извлечение (доверие 15) [DB4C4A56]
Трек 12 точное извлечение (доверие 15) [4A0DDE1A]
Трек 13 точное извлечение (доверие 16) [D5CEE668]
Трек 14 точное извлечение (доверие 15) [B33B6241]
Трек 15 точное извлечение (доверие 15) [F0E49024]
Трек 16 точное извлечение (доверие 15) [7DB0772B]
Трек 17 точное извлечение (доверие 15) [514592F0]
Трек 18 точное извлечение (доверие 14) [BC7273E2]
Трек 19 точное извлечение (доверие 15) [7E45A14D]

Все треки извлечены точно

Конец отчёта
#777Продолжительность 01:00:43
1. Maria — 2:47
2. Poprocks & Coke — 2:38
3. Longview — 3:54
4. Welcome To Paradise — 3:44
5. Basket Case — 3:02
6. When I Come Around — 2:58
7. She — 2:14
8. J.A.R. (Jason Andrew Relva) — 2:51
9. Geek Stink Breath — 2:15
10. Brain Stew — 3:14
11. Jaded — 1:30
12. Walking Contradiction — 2:31
13. Stuck With Me —2:16
14. Hitchin' A Ride — 2:51
15. Good Riddance (Time Of Your Life) — 2:33
16.Redundant — 3:19
17. Nice Guys Finish Last — 2:48
18. Minority— 2:50
19. Warning — 3:42
20. Waiting— 3:13
21. Macy's Day Parade — 3:33
Код:
Код: Выделить всё
-----------------------

DON'T MODIFY THIS FILE

-----------------------

PERFORMER: auCDtect Task Manager, ver. 1.5.1RC4 build 1.5.1.5
Copyright (c) 2008-2010 y-soft. All rights reserved
http:/y-soft.org

ANALYZER: auCDtect: CD records authenticity detector, version 0.8.2
Copyright (c) 2004 Oleg Berngardt. All rights reserved.
Copyright (c) 2004 Alexander Djourik. All rights reserved.

FILE: Green Day - International Superhits!.ape
  Size: 465905840 Hash: D568214708996F3D0755871013E3E638 Accuracy: -m0
  Conclusion: CDDA 100%
  Signature: 4920635B7F74352CFDC2F66C62FEF49A177888CD
Exact Audio Copy V0.99 prebeta 5 from 4. May 2009

Отчёт EAC об извлечении, выполненном 7. февраля 2010, 1:15

Green Day / International Superhits!

Дисковод: MATSHITADVD-RAM UJ862AS Adapter: 0 ID: 1

Режим чтения : Достоверность
Использование точного потока : Да
Отключение кэша аудио : Да
Использование указателей C2 : Нет

Коррекция смещения при чтении : 102
Способность читать области Lead-in и Lead-out : Нет
Заполнение пропущенных сэмплов тишиной : Да
Удаление блоков с тишиной в начале и конце : Нет
При вычислениях CRC использовались нулевые сэмплы : Да
Интерфейс : Встроенный Win32-интерфейс для Win NT/2000

Выходной формат : Внутренние WAV-операции
Формат сэмплов : 44.100 Гц; 16 бит; стерео

TOC извлечённого CD

Трек | Старт | Длительность | Начальный сектор | Конечный сектор
---------------------------------------------------------------------
1 | 0:00.00 | 2:47.15 | 0 | 12539
2 | 2:47.15 | 2:39.02 | 12540 | 24466
3 | 5:26.17 | 3:53.18 | 24467 | 41959
4 | 9:19.35 | 3:44.10 | 41960 | 58769
5 | 13:03.45 | 3:01.40 | 58770 | 72384
6 | 16:05.10 | 2:58.00 | 72385 | 85734
7 | 19:03.10 | 2:14.22 | 85735 | 95806
8 | 21:17.32 | 2:50.73 | 95807 | 108629
9 | 24:08.30 | 2:15.60 | 108630 | 118814
10 | 26:24.15 | 3:13.00 | 118815 | 133289
11 | 29:37.15 | 1:30.17 | 133290 | 140056
12 | 31:07.32 | 2:31.13 | 140057 | 151394
13 | 33:38.45 | 2:15.30 | 151395 | 161549
14 | 35:54.00 | 2:51.35 | 161550 | 174409
15 | 38:45.35 | 2:33.35 | 174410 | 185919
16 | 41:18.70 | 3:18.07 | 185920 | 200776
17 | 44:37.02 | 2:50.08 | 200777 | 213534
18 | 47:27.10 | 2:48.57 | 213535 | 226191
19 | 50:15.67 | 3:41.58 | 226192 | 242824
20 | 53:57.50 | 3:12.52 | 242825 | 257276
21 | 57:10.27 | 3:33.08 | 257277 | 273259

Характеристики диапазона извлечения и сообщения об ошибках

Выбранный диапазон

Имя файла C:\Users\White\Desktop\Temp Music\Green day\Green Day - International Superhits!.wav

Пиковый уровень 99.9 %
Качество диапазона 100.0 %
CRC теста 6F22B8EC
CRC копии 6F22B8EC
Копирование... OK

Ошибок не произошло

AccurateRip: сводка

Трек 1 точное извлечение (доверие 82) [99B52045]
Трек 2 точное извлечение (доверие 81) [09FA1374]
Трек 3 точное извлечение (доверие 82) [74A1E5F3]
Трек 4 точное извлечение (доверие 81) [2C33E919]
Трек 5 точное извлечение (доверие 84) [267E98FA]
Трек 6 точное извлечение (доверие 84) [26BF871A]
Трек 7 точное извлечение (доверие 82) [E94B32CD]
Трек 8 точное извлечение (доверие 80) [62C74647]
Трек 9 точное извлечение (доверие 81) [71C0C1F4]
Трек 10 точное извлечение (доверие 82) [C864985E]
Трек 11 точное извлечение (доверие 81) [E20E9B66]
Трек 12 точное извлечение (доверие 81) [655DCADA]
Трек 13 точное извлечение (доверие 80) [EB748ABB]
Трек 14 точное извлечение (доверие 82) [AD2C8BAA]
Трек 15 точное извлечение (доверие 84) [891AEA32]
Трек 16 точное извлечение (доверие 82) [D6F01A4D]
Трек 17 точное извлечение (доверие 79) [1FFF80D1]
Трек 18 точное извлечение (доверие 81) [582AF2E0]
Трек 19 точное извлечение (доверие 78) [918CD58A]
Трек 20 точное извлечение (доверие 80) [C84549AF]
Трек 21 точное извлечение (доверие 75) [16E71C44]

Все треки извлечены точно

Конец отчёта
#777Продолжительность 00:33:23
1. Suffocate — 2:54
2. Desensitized — 2:47
3. You Lied — 2:26
4. Outsider (кавер Ramones) — 2:17
5. Don’t Wanna Fall in Love — 1:38
6. Espionage (из фильма Остин Пауэрс: Шпион, который меня соблазнил) —3:23
7. I Want to Be on Tv — 1:17
8. Scumbag — 1:46
9. Tired of Waiting for You (кавер Kinks) — 2:32
10. Sick of Me — 2:07
11. Rotting — 2:51
12. Do Da Da — 1:31
13. On the Wagon — 3:07
14. Ha Ha You’re Dead
Код:
Код: Выделить всё
-----------------------

DON'T MODIFY THIS FILE

-----------------------

PERFORMER: auCDtect Task Manager, ver. 1.5.1RC4 build 1.5.1.5
Copyright (c) 2008-2010 y-soft. All rights reserved
http:/y-soft.org

ANALYZER: auCDtect: CD records authenticity detector, version 0.8.2
Copyright (c) 2004 Oleg Berngardt. All rights reserved.
Copyright (c) 2004 Alexander Djourik. All rights reserved.

FILE: Green Day - Shenanigans.ape
  Size: 254429808 Hash: C6735537524088FD6094E1221905CC3C Accuracy: -m0
  Conclusion: CDDA 100%
  Signature: 2DA9911AB39B24C39F64DA231830CF8871556004
Exact Audio Copy V0.99 prebeta 5 from 4. May 2009

Отчёт EAC об извлечении, выполненном 6. февраля 2010, 19:43

Green Day / Shenanigans

Дисковод: MATSHITADVD-RAM UJ862AS Adapter: 0 ID: 1

Режим чтения : Достоверность
Использование точного потока : Да
Отключение кэша аудио : Да
Использование указателей C2 : Нет

Коррекция смещения при чтении : 102
Способность читать области Lead-in и Lead-out : Нет
Заполнение пропущенных сэмплов тишиной : Да
Удаление блоков с тишиной в начале и конце : Нет
При вычислениях CRC использовались нулевые сэмплы : Да
Интерфейс : Встроенный Win32-интерфейс для Win NT/2000

Выходной формат : Внутренние WAV-операции
Формат сэмплов : 44.100 Гц; 16 бит; стерео

TOC извлечённого CD

Трек | Старт | Длительность | Начальный сектор | Конечный сектор
---------------------------------------------------------------------
1 | 0:00.00 | 2:54.07 | 0 | 13056
2 | 2:54.07 | 2:47.32 | 13057 | 25613
3 | 5:41.39 | 2:25.55 | 25614 | 36543
4 | 8:07.19 | 2:16.65 | 36544 | 46808
5 | 10:24.09 | 1:38.35 | 46809 | 54193
6 | 12:02.44 | 3:23.25 | 54194 | 69443
7 | 15:25.69 | 1:16.45 | 69444 | 75188
8 | 16:42.39 | 1:45.43 | 75189 | 83106
9 | 18:28.07 | 2:32.27 | 83107 | 94533
10 | 21:00.34 | 2:07.03 | 94534 | 104061
11 | 23:07.37 | 2:51.34 | 104062 | 116920
12 | 25:58.71 | 1:30.21 | 116921 | 123691
13 | 27:29.17 | 2:47.42 | 123692 | 136258
14 | 30:16.59 | 3:06.63 | 136259 | 150271

Характеристики диапазона извлечения и сообщения об ошибках

Выбранный диапазон

Имя файла C:\Users\White\Desktop\Temp Music\Green day\Green Day - Shenanigans.wav

Пиковый уровень 100.0 %
Качество диапазона 100.0 %
CRC теста E9F670EB
CRC копии E9F670EB
Копирование... OK

Ошибок не произошло

AccurateRip: сводка

Трек 1 точное извлечение (доверие 64) [448050A3]
Трек 2 точное извлечение (доверие 64) [9B7CEC12]
Трек 3 точное извлечение (доверие 64) [7588422D]
Трек 4 точное извлечение (доверие 63) [B4670438]
Трек 5 точное извлечение (доверие 63) [3FDA825A]
Трек 6 точное извлечение (доверие 63) [49AE7538]
Трек 7 точное извлечение (доверие 64) [96F470B6]
Трек 8 точное извлечение (доверие 63) [AFDDAAF1]
Трек 9 точное извлечение (доверие 63) [BC6A6231]
Трек 10 точное извлечение (доверие 63) [A6A9F764]
Трек 11 точное извлечение (доверие 61) [063C6170]
Трек 12 точное извлечение (доверие 62) [8869131A]
Трек 13 точное извлечение (доверие 61) [B98D2741]
Трек 14 точное извлечение (доверие 61) [224CEBE5]

Все треки извлечены точно

Конец отчёта
Правила, инструкции, FAQ!!!
Торрент  Добавлен [16 мар 2014, 00:39] Скачать торрент Магнет ссылка
Скачать торрент
26.01 КБ

Статус
Проверен 
 
Размер  4.12 ГБ
Приватный: Нет (DHT включён)
.torrent скачан  0
Как залить торрент? | Как скачать Torrent? | Как смотреть и слушать онлайн?  
Гость
 



Вернуться в Дискографии (Зарубежные)

Кто сейчас на конференции

Сейчас этот форум просматривают: нет зарегистрированных пользователей и гости: 0