Gorillaz - Дискография (2001-2010) [FLAC|lossless]<Alternative>


Статистика раздачи
Размер: 2.44 ГБ | Добавлен: 16 мар 2014, 01:02 | Скачали: 4
Сидеров: 19  [0 байт/сек]    Личеров: 37  [0 байт/сек]

Сообщение Гость » 16 мар 2014, 01:02

Gorillaz - 6 Albums (2001-2010)

Год: 2001-2010
Жанр: Alternative, Trip-Hop, Hip-Hop, Electronic, Rock

Кодек: FLAC
Битрейт: Lossless

Описание:
Gorillaz — виртуальный музыкальный коллектив, состоящий из четырёх анимированных персонажей: 2D, Murdoc, Noodle и Russel. Создан в 1998 году Деймоном Албарном из группы Blur и художником Джейми Хьюлеттом.
#777Продолжительность: 01:12:42
Треклист:
01 - Re-Hash
02 - 5/4
03 - Tomorrow Games Today
04 - New Genious (Brother)
05 - Clint Eastwood
06 - Man Research (Clapper)
07 - Punk
08 - Sound Check (Gravity)
09 - Double Bass
10 - Rock The House
11 - 19-2000
12 - Latin Simone (Que Pasa Contigo)
13 - Starshine
14 - Show Country
15 - M1 A1
Bonus Tracks:
16 - Dracula
17 - Left Hand Suzuki Method
18 - 19-2000 (Soulchild Remix)
19 - Clint Eastwood (Ed Case Refix)
Код:
Код: Выделить всё
EAC extraction logfile from 11. September 2007, 11:51 for CD
Gorillaz / Gorillaz

Used drive  : HL-DT-STRW/DVD GCC-4243N   Adapter: 1  ID: 0
Read mode   : Secure with NO C2, accurate stream, disable cache
Read offset correction : 102
Overread into Lead-In and Lead-Out : No

Used output format : C:\Program Files\Exact Audio Copy\flac.exe   (User Defined Encoder)
                     320 kBit/s
                     Additional command line options : -8 -A tukey(0.25) -A gauss(0.1875) -b 4096 -V -T "artist=%a" -T "title=%t" -T "album=%g" -T "date=%y" -T "tracknumber=%n" -T "genre=%m" %s --sector-align

Other options      :
    Fill up missing offset samples with silence : Yes
    Delete leading and trailing silent blocks : No
    Installed external ASPI interface

Track  1
     Filename C:\EAC\Gorillaz - Gorillaz\01 - Re-Hash.wav

     Pre-gap length  0:00:02.00

     Peak level 99.9 %
     Track quality 100.0 %
     Test CRC 655D9224
     Copy CRC 655D9224
     Copy OK

Track  2
     Filename C:\EAC\Gorillaz - Gorillaz\02 - 5,4.wav

     Peak level 99.9 %
     Track quality 100.0 %
     Test CRC B5D87504
     Copy CRC B5D87504
     Copy OK

Track  3
     Filename C:\EAC\Gorillaz - Gorillaz\03 - Tomorrow Comes Today.wav

     Peak level 99.9 %
     Track quality 100.0 %
     Test CRC 019CD7DF
     Copy CRC 019CD7DF
     Copy OK

Track  4
     Filename C:\EAC\Gorillaz - Gorillaz\04 - New Genious (Brother).wav

     Peak level 99.9 %
     Track quality 100.0 %
     Test CRC 374C0B35
     Copy CRC 374C0B35
     Copy OK

Track  5
     Filename C:\EAC\Gorillaz - Gorillaz\05 - Clint Eastwood.wav

     Peak level 99.9 %
     Track quality 100.0 %
     Test CRC 3ADAABEB
     Copy CRC 3ADAABEB
     Copy OK

Track  6
     Filename C:\EAC\Gorillaz - Gorillaz\06 - Man Research (Clapper).wav

     Peak level 99.9 %
     Track quality 99.9 %
     Test CRC A18399E0
     Copy CRC A18399E0
     Copy OK

Track  7
     Filename C:\EAC\Gorillaz - Gorillaz\07 - Punk.wav

     Peak level 99.9 %
     Track quality 99.8 %
     Test CRC F101B878
     Copy CRC F101B878
     Copy OK

Track  8
     Filename C:\EAC\Gorillaz - Gorillaz\08 - Sound Check (Gravity).wav

     Peak level 99.9 %
     Track quality 100.0 %
     Test CRC 5AACA4CA
     Copy CRC 5AACA4CA
     Copy OK

Track  9
     Filename C:\EAC\Gorillaz - Gorillaz\09 - Double Bass.wav

     Peak level 100.0 %
     Track quality 100.0 %
     Test CRC 717D31E9
     Copy CRC 717D31E9
     Copy OK

Track 10
     Filename C:\EAC\Gorillaz - Gorillaz\10 - Rock the House.wav

     Peak level 99.9 %
     Track quality 100.0 %
     Test CRC 8E291606
     Copy CRC 8E291606
     Copy OK

Track 11
     Filename C:\EAC\Gorillaz - Gorillaz\11 - 19-2000.wav

     Peak level 99.9 %
     Track quality 99.9 %
     Test CRC 99FCE7F9
     Copy CRC 99FCE7F9
     Copy OK

Track 12
     Filename C:\EAC\Gorillaz - Gorillaz\12 - Latin Simone (Que Pasa Contigo).wav

     Peak level 97.9 %
     Track quality 100.0 %
     Test CRC CC8B9F28
     Copy CRC CC8B9F28
     Copy OK

Track 13
     Filename C:\EAC\Gorillaz - Gorillaz\13 - Starshine.wav

     Peak level 99.9 %
     Track quality 100.0 %
     Test CRC 88135AC1
     Copy CRC 88135AC1
     Copy OK

Track 14
     Filename C:\EAC\Gorillaz - Gorillaz\14 - Slow Country.wav

     Peak level 99.9 %
     Track quality 100.0 %
     Test CRC 69784024
     Copy CRC 69784024
     Copy OK

Track 15
     Filename C:\EAC\Gorillaz - Gorillaz\15 - M1 A1.wav

     Peak level 99.9 %
     Track quality 100.0 %
     Test CRC 4CBCB610
     Copy CRC 4CBCB610
     Copy OK

Track 16
     Filename C:\EAC\Gorillaz - Gorillaz\16 - Dracula.wav

     Peak level 99.9 %
     Track quality 100.0 %
     Test CRC 545C836B
     Copy CRC 545C836B
     Copy OK

Track 17
     Filename C:\EAC\Gorillaz - Gorillaz\17 - Left Hand Suzuki Method.wav

     Peak level 99.9 %
     Track quality 100.0 %
     Test CRC D0A7DF5C
     Copy CRC D0A7DF5C
     Copy OK

Track 18
     Filename C:\EAC\Gorillaz - Gorillaz\18 - 19-2000 (Soulchild Remix).wav

     Peak level 96.6 %
     Track quality 100.0 %
     Test CRC BDD7AA20
     Copy CRC BDD7AA20
     Copy OK

Track 19
     Filename C:\EAC\Gorillaz - Gorillaz\19 - Clint Eastwood (Ed Case Refix).wav

     Peak level 97.1 %
     Track quality 100.0 %
     Test CRC 71D89197
     Copy CRC 71D89197
     Copy OK

No errors occured

End of status report
Код:
Код: Выделить всё
AUDIOCHECKER v2.0 beta (build 457) - by Dester -
~~~~~~~~~~~~~~~~~~~~~~~~~~~~~~~~~~
-=== НЕ РЕДАКТИРУЙТЕ ЭТОТ ФАЙЛ! ===-

Путь: ...\Gorillaz - Gorillaz

01 -=- 01 - Re-Hash.flac -=- CDDA (100%)
02 -=- 02 - 5,4.flac -=- CDDA (100%)
03 -=- 03 - Tomorrow Comes Today.flac -=- CDDA (100%)
04 -=- 04 - New Genious (Brother).flac -=- CDDA (100%)
05 -=- 05 - Clint Eastwood.flac -=- CDDA (100%)
06 -=- 06 - Man Research (Clapper).flac -=- CDDA (100%)
07 -=- 07 - Punk.flac -=- CDDA (99%)
08 -=- 08 - Sound Check (Gravity).flac -=- CDDA (100%)
09 -=- 09 - Double Bass.flac -=- CDDA (100%)
10 -=- 10 - Rock the House.flac -=- CDDA (100%)
11 -=- 11 - 19-2000.flac -=- CDDA (100%)
12 -=- 12 - Latin Simone (Que Pasa Contigo).flac -=- CDDA (100%)
13 -=- 13 - Starshine.flac -=- CDDA (99%)
14 -=- 14 - Slow Country.flac -=- CDDA (100%)
15 -=- 15 - M1 A1.flac -=- CDDA (100%)
16 -=- 16 - Dracula.flac -=- CDDA (100%)
17 -=- 17 - Left Hand Suzuki Method.flac -=- CDDA (100%)
18 -=- 18 - 19-2000 (Soulchild Remix).flac -=- CDDA (100%)
19 -=- 19 - Clint Eastwood (Ed Case Refix).flac -=- CDDA (100%)

Сводка 99,89% CDDA

205167220
#777Продолжительность: 00:37:45
Треклист:
01 - 19-2000 (Soulchild Remix)
02 - Latin Simone
03 - 19-2000 (The Wiseguys House Of Wisdom Remix) featuring The Wiseguys
04 - The Sounder (Edit)
05 - Faust
06 - Clint Eastwood (Phi Life Cypher Version) featuring Phi Life Cypher
07 - Ghost Train
08 - Hip Albatross
09 - 12D3
Код:
Код: Выделить всё
EAC extraction logfile from 28. September 2006, 20:25 for CD
Gorillaz / G Sides

Used drive  : LITE-ON DVDRW SHM-165H6S   Adapter: 0  ID: 2
Read mode   : Secure with NO C2, accurate stream, disable cache
Read offset correction : 6
Overread into Lead-In and Lead-Out : No

Used output format : C:\Program Files\FLAC\flac.exe   (User Defined Encoder)
                     192 kBit/s
                     Additional command line options : -V -8 -T "artist=%a" -T "title=%t" -T "album=%g" -T "date=%y" -T "tracknumber=%n" -T "genre=%m" %s

Other options      :
    Fill up missing offset samples with silence : Yes
    Delete leading and trailing silent blocks : No
    Installed external ASPI interface

Track  1
     Filename D:\Encoded Audio Files\FLAC\Gorillaz\G Sides\01 - Gorillaz - 19-2000 (Soulchild Remix).wav

     Pre-gap length  0:00:02.00

     Peak level 97.9 %
     Track quality 100.0 %
     Test CRC 66EED519
     Copy CRC 66EED519
     Copy OK

Track  2
     Filename D:\Encoded Audio Files\FLAC\Gorillaz\G Sides\02 - Gorillaz - Latin Simone (Que Pasa Contigo).wav

     Pre-gap length  0:00:02.57

     Peak level 99.9 %
     Track quality 100.0 %
     Test CRC E4A05ABE
     Copy CRC E4A05ABE
     Copy OK

Track  3
     Filename D:\Encoded Audio Files\FLAC\Gorillaz\G Sides\03 - Gorillaz - 19-2000 (The Wiseguys House Of Wisdom Remix).wav

     Peak level 97.9 %
     Track quality 99.9 %
     Test CRC E008965C
     Copy CRC E008965C
     Copy OK

Track  4
     Filename D:\Encoded Audio Files\FLAC\Gorillaz\G Sides\04 - Gorillaz - The Sounder (Edit).wav

     Pre-gap length  0:00:01.56

     Peak level 97.9 %
     Track quality 100.0 %
     Test CRC 4A9810B5
     Copy CRC 4A9810B5
     Copy OK

Track  5
     Filename D:\Encoded Audio Files\FLAC\Gorillaz\G Sides\05 - Gorillaz - Faust.wav

     Pre-gap length  0:00:01.60

     Peak level 98.0 %
     Track quality 100.0 %
     Test CRC F43FC4B4
     Copy CRC F43FC4B4
     Copy OK

Track  6
     Filename D:\Encoded Audio Files\FLAC\Gorillaz\G Sides\06 - Gorillaz - Clint Eastwood (Phi Life Cypher Version).wav

     Pre-gap length  0:00:01.89

     Peak level 97.9 %
     Track quality 100.0 %
     Test CRC E4CA921D
     Copy CRC E4CA921D
     Copy OK

Track  7
     Filename D:\Encoded Audio Files\FLAC\Gorillaz\G Sides\07 - Gorillaz - Ghost Train.wav

     Pre-gap length  0:00:03.17

     Peak level 98.0 %
     Track quality 100.0 %
     Test CRC C603C8E8
     Copy CRC C603C8E8
     Copy OK

Track  8
     Filename D:\Encoded Audio Files\FLAC\Gorillaz\G Sides\08 - Gorillaz - Hip Albatross.wav

     Pre-gap length  0:00:03.62

     Peak level 97.9 %
     Track quality 100.0 %
     Test CRC C6EBA6C1
     Copy CRC C6EBA6C1
     Copy OK

Track  9
     Filename D:\Encoded Audio Files\FLAC\Gorillaz\G Sides\09 - Gorillaz - 12D3.wav

     Pre-gap length  0:00:03.42

     Peak level 98.0 %
     Track quality 100.0 %
     Test CRC 450C14B3
     Copy CRC 450C14B3
     Copy OK

No errors occured

End of status report
Код:
Код: Выделить всё
AUDIOCHECKER v2.0 beta (build 457) - by Dester -
~~~~~~~~~~~~~~~~~~~~~~~~~~~~~~~~~~
-=== НЕ РЕДАКТИРУЙТЕ ЭТОТ ФАЙЛ! ===-

Путь: ...\Gorillaz - G-Sides

01 -=- 01 - Gorillaz - 19-2000 (Soulchild Remix).flac -=- CDDA (100%)
02 -=- 02 - Gorillaz - Latin Simone (Que Pasa Contigo).flac -=- CDDA (99%)
03 -=- 03 - Gorillaz - 19-2000 (The Wiseguys House Of Wisdom Remix).flac -=- CDDA (100%)
04 -=- 04 - Gorillaz - The Sounder (Edit).flac -=- CDDA (100%)
05 -=- 05 - Gorillaz - Faust.flac -=- CDDA (100%)
06 -=- 06 - Gorillaz - Clint Eastwood (Phi Life Cypher Version).flac -=- CDDA (100%)
07 -=- 07 - Gorillaz - Ghost Train.flac -=- CDDA (99%)
08 -=- 08 - Gorillaz - Hip Albatross.flac -=- CDDA (100%)
09 -=- 09 - Gorillaz - 12D3.flac -=- CDDA (100%)

Сводка 99,78% CDDA

89223860
#777Продолжительность: 01:09:34
Треклист:
01 - 19,2000 (Jungle Fresh)
02 - Slow Country (Strictly Rubbadub)
03 - Tomorrow Comes Today (Banana Baby)
04 - Mam Research (Monkey Racket)
05 - Punk (De Punked)
06 - 5,4 (P.45)
07 - Starshine (Dub 09)
08 - Souncheck (Gravity) (Crooked Dub)
09 - New Genius (Brother) (Mutant Genius)
10 - Re Hash (Come Again)
11 - Clint Eastwood (A Fistful Of Peanuts)
12 - M1 A1 (Lil' Dub Chefin')
Код:
Код: Выделить всё
EAC extraction logfile from 27. October 2006, 8:00 for CD
Spacemonkeyz versus Gorillaz / Laika Come Home

Used drive  : HL-DT-STDVD-ROM GDR8082N   Adapter: 0  ID: 0
Read mode   : Secure with NO C2, accurate stream, disable cache
Read offset correction : 102
Overread into Lead-In and Lead-Out : No

Used output format : C:\Program Files\Exact Audio Copy\bin\flac.exe   (User Defined Encoder)
                     128 kBit/s
                     Additional command line options : -V -8 -T "artist=%a" -T "title=%t" -T "album=%g" -T "date=%y" -T "tracknumber=%n" -T "genre=%m" %s

Other options      :
    Fill up missing offset samples with silence : Yes
    Delete leading and trailing silent blocks : No
    Native Win32 interface for Win NT & 2000

Track  1
     Filename C:\oinkrip\Gorillaz vs Spacemonkeyz - Laika Come Home\01 - Spacemonkeyz versus Gorillaz - 19,2000 (Jungle Fresh).wav

     Pre-gap length  0:00:02.00

     Peak level 98.0 %
     Track quality 100.0 %
     Test CRC 72C12F42
     Copy CRC 72C12F42
     Copy OK

Track  2
     Filename C:\oinkrip\Gorillaz vs Spacemonkeyz - Laika Come Home\02 - Spacemonkeyz versus Gorillaz - Slow Country (Strictly Rubbadub).wav

     Peak level 98.0 %
     Track quality 100.0 %
     Test CRC 435AA5ED
     Copy CRC 435AA5ED
     Copy OK

Track  3
     Filename C:\oinkrip\Gorillaz vs Spacemonkeyz - Laika Come Home\03 - Spacemonkeyz versus Gorillaz - Tomorrow Comes Today (Banana Baby).wav

     Peak level 97.9 %
     Track quality 100.0 %
     Test CRC 75DC51B6
     Copy CRC 75DC51B6
     Copy OK

Track  4
     Filename C:\oinkrip\Gorillaz vs Spacemonkeyz - Laika Come Home\04 - Spacemonkeyz versus Gorillaz - Mam Research (Monkey Racket).wav

     Peak level 98.0 %
     Track quality 100.0 %
     Test CRC D5CCCC80
     Copy CRC D5CCCC80
     Copy OK

Track  5
     Filename C:\oinkrip\Gorillaz vs Spacemonkeyz - Laika Come Home\05 - Spacemonkeyz versus Gorillaz - Punk (De-Punked).wav

     Peak level 98.0 %
     Track quality 100.0 %
     Test CRC 176F667C
     Copy CRC 176F667C
     Copy OK

Track  6
     Filename C:\oinkrip\Gorillaz vs Spacemonkeyz - Laika Come Home\06 - Spacemonkeyz versus Gorillaz - 5,4 (P.45).wav

     Peak level 98.0 %
     Track quality 100.0 %
     Test CRC E3264F11
     Copy CRC E3264F11
     Copy OK

Track  7
     Filename C:\oinkrip\Gorillaz vs Spacemonkeyz - Laika Come Home\07 - Spacemonkeyz versus Gorillaz - Starshine (Dub 09).wav

     Peak level 98.0 %
     Track quality 100.0 %
     Test CRC 07135139
     Copy CRC 07135139
     Copy OK

Track  8
     Filename C:\oinkrip\Gorillaz vs Spacemonkeyz - Laika Come Home\08 - Spacemonkeyz versus Gorillaz - Souncheck (Gravity) (Crooked Dub).wav

     Peak level 98.0 %
     Track quality 100.0 %
     Test CRC A57377EE
     Copy CRC A57377EE
     Copy OK

Track  9
     Filename C:\oinkrip\Gorillaz vs Spacemonkeyz - Laika Come Home\09 - Spacemonkeyz versus Gorillaz - New Genius (Brother) (Mutant Genius).wav

     Peak level 90.6 %
     Track quality 99.9 %
     Test CRC D325E843
     Copy CRC D325E843
     Copy OK

Track 10
     Filename C:\oinkrip\Gorillaz vs Spacemonkeyz - Laika Come Home\10 - Spacemonkeyz versus Gorillaz - Re Hash (Come Again).wav

     Peak level 98.0 %
     Track quality 99.9 %
     Test CRC D2AC1F0D
     Copy CRC D2AC1F0D
     Copy OK

Track 11
     Filename C:\oinkrip\Gorillaz vs Spacemonkeyz - Laika Come Home\11 - Spacemonkeyz versus Gorillaz - Clint Eastwood (A Fistful Of Peanuts).wav

     Peak level 98.0 %
     Track quality 100.0 %
     Test CRC 55763995
     Copy CRC 55763995
     Copy OK

Track 12
     Filename C:\oinkrip\Gorillaz vs Spacemonkeyz - Laika Come Home\12 - Spacemonkeyz versus Gorillaz - M1 A1 (Lil' Dub Chefin').wav

     Peak level 98.0 %
     Track quality 100.0 %
     Test CRC 1B8C0B00
     Copy CRC 1B8C0B00
     Copy OK

No errors occured

End of status report
Код:
Код: Выделить всё
AUDIOCHECKER v2.0 beta (build 457) - by Dester -
~~~~~~~~~~~~~~~~~~~~~~~~~~~~~~~~~~
-=== НЕ РЕДАКТИРУЙТЕ ЭТОТ ФАЙЛ! ===-

Путь: ...\Gorillaz vs Spacemonkeyz - Laika Come Home

01 -=- 01 - Spacemonkeyz versus Gorillaz - 19,2000 (Jungle Fresh).flac -=- CDDA (100%)
02 -=- 02 - Spacemonkeyz versus Gorillaz - Slow Country (Strictly Rubbadub).flac -=- CDDA (100%)
03 -=- 03 - Spacemonkeyz versus Gorillaz - Tomorrow Comes Today (Banana Baby).flac -=- CDDA (100%)
04 -=- 04 - Spacemonkeyz versus Gorillaz - Mam Research (Monkey Racket).flac -=- CDDA (100%)
05 -=- 05 - Spacemonkeyz versus Gorillaz - Punk (De-Punked).flac -=- CDDA (100%)
06 -=- 06 - Spacemonkeyz versus Gorillaz - 5,4 (P.45).flac -=- CDDA (100%)
07 -=- 07 - Spacemonkeyz versus Gorillaz - Starshine (Dub 09).flac -=- CDDA (100%)
08 -=- 08 - Spacemonkeyz versus Gorillaz - Souncheck (Gravity) (Crooked Dub).flac -=- CDDA (100%)
09 -=- 09 - Spacemonkeyz versus Gorillaz - New Genius (Brother) (Mutant Genius).flac -=- CDDA (99%)
10 -=- 10 - Spacemonkeyz versus Gorillaz - Re Hash (Come Again).flac -=- CDDA (100%)
11 -=- 11 - Spacemonkeyz versus Gorillaz - Clint Eastwood (A Fistful Of Peanuts).flac -=- CDDA (100%)
12 -=- 12 - Spacemonkeyz versus Gorillaz - M1 A1 (Lil' Dub Chefin').flac -=- CDDA (100%)

Сводка 99,92% CDDA

167343940
#777Продолжительность: 00:50:49
Треклист:
01 - Intro
02 - Last Living Souls
03 - Kids With Guns
04 - O Green World
05 - Dirty Harry
06 - Feel Good Inc.
07 - El Mañana
08 - Every Planet We Reach Is Dead
09 - November Has Come
10 - All Alone
11 - White Light
12 - DARE
13 - Fire Coming Out of the Monkey's Head
14 - Don't Get Lost in Heaven
15 - Demon Days
Код:
Код: Выделить всё
Exact Audio Copy V0.99 prebeta 4 from 23. January 2008

EAC extraction logfile from 27. May 2009, 20:28

Gorillaz / Demon Days

Used drive  : HL-DT-STDVD-ROM GDR8163B   Adapter: 0  ID: 1

Read mode               : Secure
Utilize accurate stream : Yes
Defeat audio cache      : Yes
Make use of C2 pointers : No

Read offset correction                      : 102
Overread into Lead-In and Lead-Out          : No
Fill up missing offset samples with silence : Yes
Delete leading and trailing silent blocks   : No
Null samples used in CRC calculations       : Yes
Used interface                              : Native Win32 interface for Win NT & 2000
Gap handling                                : Appended to previous track

Used output format              : User Defined Encoder
Selected bitrate                : 128 kBit/s
Quality                         : High
Add ID3 tag                     : No
Command line compressor         : D:\Program Files\Exact Audio Copy\Flac\flac.exe
Additional command line options : -V -8 -T "artist=%a" -T "title=%t" -T "album=%g" -T "date=%y" -T "tracknumber=%n" -T "genre=%m" %s

TOC of the extracted CD

     Track |   Start  |  Length  | Start sector | End sector
    ---------------------------------------------------------
        1  |  0:00.00 |  1:03.12 |         0    |     4736
        2  |  1:03.12 |  3:10.30 |      4737    |    19016
        3  |  4:13.42 |  3:45.63 |     19017    |    35954
        4  |  7:59.30 |  4:31.72 |     35955    |    56351
        5  | 12:31.27 |  3:43.60 |     56352    |    73136
        6  | 16:15.12 |  3:41.13 |     73137    |    89724
        7  | 19:56.25 |  3:50.02 |     89725    |   106976
        8  | 23:46.27 |  4:53.20 |    106977    |   128971
        9  | 28:39.47 |  2:41.08 |    128972    |   141054
       10  | 31:20.55 |  3:30.05 |    141055    |   156809
       11  | 34:50.60 |  2:08.32 |    156810    |   166441
       12  | 36:59.17 |  4:04.23 |    166442    |   184764
       13  | 41:03.40 |  3:16.32 |    184765    |   199496
       14  | 44:19.72 |  2:00.28 |    199497    |   208524
       15  | 46:20.25 |  4:28.67 |    208525    |   228691

Track  1

     Filename 01 - Intro.wav

     Pre-gap length  0:00:02.00

     Peak level 70.4 %
     Track quality 100.0 %
     Test CRC 1B0B7F27
     Copy CRC 1B0B7F27
     Accurately ripped (confidence 200)  [DCDE5694]
     Copy OK

Track  2

     Filename 02 - Last Living Souls.wav

     Peak level 99.9 %
     Track quality 100.0 %
     Test CRC A1227549
     Copy CRC A1227549
     Accurately ripped (confidence 200)  [13D76ABC]
     Copy OK

Track  3

     Filename 03 - Kids With Guns.wav

     Peak level 100.0 %
     Track quality 100.0 %
     Test CRC E5024B3A
     Copy CRC E5024B3A
     Accurately ripped (confidence 200)  [E3808E18]
     Copy OK

Track  4

     Filename 04 - O Green World.wav

     Peak level 100.0 %
     Track quality 99.9 %
     Test CRC 729F4FA9
     Copy CRC 729F4FA9
     Accurately ripped (confidence 200)  [E5090CC5]
     Copy OK

Track  5

     Filename 05 - Dirty Harry.wav

     Peak level 99.9 %
     Track quality 99.9 %
     Test CRC 04A4FFF8
     Copy CRC 04A4FFF8
     Accurately ripped (confidence 200)  [077B8DC0]
     Copy OK

Track  6

     Filename 06 - Feel Good Inc..wav

     Peak level 99.9 %
     Track quality 99.9 %
     Test CRC 63FF4C17
     Copy CRC 63FF4C17
     Accurately ripped (confidence 200)  [CD50B08B]
     Copy OK

Track  7

     Filename 07 - El Maсana.wav

     Peak level 99.9 %
     Track quality 100.0 %
     Test CRC F7CBED64
     Copy CRC F7CBED64
     Accurately ripped (confidence 200)  [52EFF37F]
     Copy OK

Track  8

     Filename 08 - Every Planet We Reach Is Dead.wav

     Peak level 99.9 %
     Track quality 100.0 %
     Test CRC DB397937
     Copy CRC DB397937
     Accurately ripped (confidence 200)  [BDF13DD0]
     Copy OK

Track  9

     Filename 09 - November Has Come.wav

     Peak level 99.9 %
     Track quality 100.0 %
     Test CRC F36A58E4
     Copy CRC F36A58E4
     Accurately ripped (confidence 200)  [5FEA6AEA]
     Copy OK

Track 10

     Filename 10 - All Alone.wav

     Peak level 99.9 %
     Track quality 100.0 %
     Test CRC 36C9C958
     Copy CRC 36C9C958
     Accurately ripped (confidence 200)  [01A27C27]
     Copy OK

Track 11

     Filename 11 - White Light.wav

     Peak level 99.9 %
     Track quality 100.0 %
     Test CRC E430CFAD
     Copy CRC E430CFAD
     Accurately ripped (confidence 200)  [D4176D3A]
     Copy OK

Track 12

     Filename 12 - Dare.wav

     Peak level 99.9 %
     Track quality 100.0 %
     Test CRC 65DAA9B2
     Copy CRC 65DAA9B2
     Accurately ripped (confidence 200)  [884869C3]
     Copy OK

Track 13

     Filename 13 - Fire Coming Out Of The Monkey's Head.wav

     Peak level 100.0 %
     Track quality 100.0 %
     Test CRC 04684F28
     Copy CRC 04684F28
     Accurately ripped (confidence 200)  [AD9FE541]
     Copy OK

Track 14

     Filename 14 - Don't Get Lost In Heaven.wav

     Peak level 99.9 %
     Track quality 100.0 %
     Test CRC 94ECD6DE
     Copy CRC 94ECD6DE
     Accurately ripped (confidence 200)  [0661387F]
     Copy OK

Track 15

     Filename 15 - Demon Days.wav

     Peak level 99.9 %
     Track quality 100.0 %
     Test CRC C2ACBB23
     Copy CRC C2ACBB23
     Accurately ripped (confidence 200)  [B3402766]
     Copy OK

All tracks accurately ripped

No errors occurred

End of status report
Код:
Код: Выделить всё
AUDIOCHECKER v2.0 beta (build 457) - by Dester -
~~~~~~~~~~~~~~~~~~~~~~~~~~~~~~~~~~
-=== НЕ РЕДАКТИРУЙТЕ ЭТОТ ФАЙЛ! ===-

Путь: ...\Gorillaz - Demon Days

01 -=- 01 - Intro.flac -=- CDDA (100%)
02 -=- 02 - Last Living Souls.flac -=- CDDA (100%)
03 -=- 03 - Kids With Guns.flac -=- CDDA (100%)
04 -=- 04 - O Green World.flac -=- CDDA (100%)
05 -=- 05 - Dirty Harry.flac -=- CDDA (100%)
06 -=- 06 - Feel Good Inc..flac -=- CDDA (100%)
07 -=- 07 - El Manana.flac -=- CDDA (100%)
08 -=- 08 - Every Planet We Reach Is Dead.flac -=- CDDA (100%)
09 -=- 09 - November Has Come.flac -=- CDDA (100%)
10 -=- 10 - All Alone.flac -=- CDDA (100%)
11 -=- 11 - White Light.flac -=- CDDA (100%)
12 -=- 12 - Dare.flac -=- CDDA (100%)
13 -=- 13 - Fire Coming Out Of The Monkey's Head.flac -=- CDDA (100%)
14 -=- 14 - Don't Get Lost In Heaven.flac -=- CDDA (100%)
15 -=- 15 - Demon Days.flac -=- CDDA (100%)

Сводка 100,00% CDDA

252394964
#777Продолжительность: 01:57:19
Треклист:
CD1:
01 - 68 State
02 - People
03 - Hongkongaton
04 - We Are Happy Landfill
05 - Hong Kong
06 - Highway (Under construction)
07 - Rock It
08 - Bill Murray
09 - The Swagga
10 - Murdoc Is God
11 - Spitting Out The Demons
12 - Don't Get Lost In Heaven (Original Demo Version)
13 - Stop The Dams
CD2:
01 - Dare (DFA Remix)
02 - Feel Good Inc. (Stanton Warriors Remix)
03 - Kids With Guns (Jamie T's Turn To Monsters Mix)
04 - Dare (Soulwax Remix)
05 - Kids With Guns (Hot Chip Remix)
06 - El Mañana (Metromony Remix)
07 - Dare (Junior Sanchez Remix)
08 - Dirty Harry (Schtung Chinese New Year Remix)
09 - Kid With Guns (Quiet Village Remix)
Код:
Код: Выделить всё
Exact Audio Copy V0.99 prebeta 5 from 4. May 2009

EAC extraction logfile from 14. May 2009, 1:09

Gorillaz / D-Sides

Used drive  : HL-DT-STDVD+-RW GWA4083N   Adapter: 1  ID: 0

Read mode               : Secure
Utilize accurate stream : Yes
Defeat audio cache      : Yes
Make use of C2 pointers : No

Read offset correction                      : 667
Overread into Lead-In and Lead-Out          : No
Fill up missing offset samples with silence : Yes
Delete leading and trailing silent blocks   : No
Null samples used in CRC calculations       : Yes
Used interface                              : Native Win32 interface for Win NT & 2000
Gap handling                                : Appended to previous track

Used output format              : User Defined Encoder
Selected bitrate                : 320 kBit/s
Quality                         : High
Add ID3 tag                     : No
Command line compressor         : C:\Program Files\Exact Audio Copy\Flac\flac.exe
Additional command line options : -V -8 -T "artist=%a" -T "title=%t" -T "album=%g" -T "date=%y" -T "tracknumber=%n" -T "genre=%m" %s

TOC of the extracted CD

     Track |   Start  |  Length  | Start sector | End sector
    ---------------------------------------------------------
        1  |  0:00.00 |  4:48.00 |         0    |    21599
        2  |  4:48.00 |  3:27.67 |     21600    |    37191
        3  |  8:15.67 |  3:33.41 |     37192    |    53207
        4  | 11:49.33 |  3:39.30 |     53208    |    69662
        5  | 15:28.63 |  7:14.72 |     69663    |   102284
        6  | 22:43.60 |  4:20.06 |    102285    |   121790
        7  | 27:03.66 |  3:33.30 |    121791    |   137795
        8  | 30:37.21 |  3:52.65 |    137796    |   155260
        9  | 34:30.11 |  4:57.50 |    155261    |   177585
       10  | 39:27.61 |  2:26.27 |    177586    |   188562
       11  | 41:54.13 |  5:10.22 |    188563    |   211834
       12  | 47:04.35 |  2:29.23 |    211835    |   223032
       13  | 49:33.58 |  5:38.38 |    223033    |   248420

Track  1

     Filename C:\EAC Rips\01 - 68 state - Gorillaz.wav

     Pre-gap length  0:00:02.00

     Peak level 98.0 %
     Track quality 100.0 %
     Test CRC 50722213
     Copy CRC 50722213
     Accurately ripped (confidence 62)  [F5E83728]
     Copy OK

Track  2

     Filename C:\EAC Rips\02 - People - Gorillaz.wav

     Pre-gap length  0:00:01.16

     Peak level 98.0 %
     Track quality 99.9 %
     Test CRC FF055514
     Copy CRC FF055514
     Accurately ripped (confidence 62)  [FE6FE390]
     Copy OK

Track  3

     Filename C:\EAC Rips\03 - Hongkongaton - Gorillaz.wav

     Pre-gap length  0:00:01.13

     Peak level 98.0 %
     Track quality 100.0 %
     Test CRC 9FEDCDC3
     Copy CRC 9FEDCDC3
     Accurately ripped (confidence 62)  [51CED1CA]
     Copy OK

Track  4

     Filename C:\EAC Rips\04 - We are happy landfill - Gorillaz.wav

     Pre-gap length  0:00:01.61

     Peak level 98.0 %
     Track quality 100.0 %
     Test CRC EF3C76B8
     Copy CRC EF3C76B8
     Accurately ripped (confidence 62)  [BE69DC76]
     Copy OK

Track  5

     Filename C:\EAC Rips\05 - Hong Kong - Gorillaz.wav

     Pre-gap length  0:00:01.60

     Peak level 98.0 %
     Track quality 100.0 %
     Test CRC 232BD77A
     Copy CRC 232BD77A
     Accurately ripped (confidence 62)  [29E32577]
     Copy OK

Track  6

     Filename C:\EAC Rips\06 - Highway (under construction) - Gorillaz.wav

     Pre-gap length  0:00:01.21

     Peak level 98.0 %
     Track quality 100.0 %
     Test CRC 3E78D108
     Copy CRC 3E78D108
     Accurately ripped (confidence 61)  [FB825091]
     Copy OK

Track  7

     Filename C:\EAC Rips\07 - Rockit - Gorillaz.wav

     Pre-gap length  0:00:01.72

     Peak level 98.0 %
     Track quality 100.0 %
     Test CRC 8EA6EE99
     Copy CRC 8EA6EE99
     Accurately ripped (confidence 61)  [9BCD120F]
     Copy OK

Track  8

     Filename C:\EAC Rips\08 - Bill Murray - Gorillaz.wav

     Pre-gap length  0:00:01.29

     Peak level 98.0 %
     Track quality 100.0 %
     Test CRC A9B4EAEC
     Copy CRC A9B4EAEC
     Accurately ripped (confidence 62)  [448249AA]
     Copy OK

Track  9

     Filename C:\EAC Rips\09 - The swagga - Gorillaz.wav

     Pre-gap length  0:00:01.32

     Peak level 98.0 %
     Track quality 100.0 %
     Test CRC CAA0CEBF
     Copy CRC CAA0CEBF
     Accurately ripped (confidence 62)  [5E3630B6]
     Copy OK

Track 10

     Filename C:\EAC Rips\10 - Murdoc is God - Gorillaz.wav

     Pre-gap length  0:00:01.08

     Peak level 98.0 %
     Track quality 100.0 %
     Test CRC E03D9109
     Copy CRC E03D9109
     Accurately ripped (confidence 62)  [850B6381]
     Copy OK

Track 11

     Filename C:\EAC Rips\11 - Spitting out the demons - Gorillaz.wav

     Pre-gap length  0:00:01.00

     Peak level 98.0 %
     Track quality 100.0 %
     Test CRC 770748DC
     Copy CRC 770748DC
     Accurately ripped (confidence 61)  [0E16939C]
     Copy OK

Track 12

     Filename C:\EAC Rips\12 - Don't get lost in heaven (original demo version) - Gorillaz.wav

     Pre-gap length  0:00:01.26

     Peak level 98.0 %
     Track quality 100.0 %
     Test CRC 6C0A8CCF
     Copy CRC 6C0A8CCF
     Accurately ripped (confidence 61)  [35E691C6]
     Copy OK

Track 13

     Filename C:\EAC Rips\13 - Stop the dams - Gorillaz.wav

     Pre-gap length  0:00:01.41

     Peak level 98.0 %
     Track quality 100.0 %
     Test CRC 89C85632
     Copy CRC 89C85632
     Accurately ripped (confidence 58)  [41D42348]
     Copy OK

All tracks accurately ripped

No errors occurred

End of status report
Код:
Код: Выделить всё
AUDIOCHECKER v2.0 beta (build 457) - by Dester -
~~~~~~~~~~~~~~~~~~~~~~~~~~~~~~~~~~
-=== НЕ РЕДАКТИРУЙТЕ ЭТОТ ФАЙЛ! ===-

Путь: ...\Gorillaz D-Sides Disc 1

01 -=- 01 - 68 state - Gorillaz.flac -=- CDDA (100%)
02 -=- 02 - People - Gorillaz.flac -=- CDDA (100%)
03 -=- 03 - Hongkongaton - Gorillaz.flac -=- CDDA (100%)
04 -=- 04 - We are happy landfill - Gorillaz.flac -=- CDDA (100%)
05 -=- 05 - Hong Kong - Gorillaz.flac -=- CDDA (99%)
06 -=- 06 - Highway (under construction) - Gorillaz.flac -=- CDDA (99%)
07 -=- 07 - Rockit - Gorillaz.flac -=- CDDA (49%)
08 -=- 08 - Bill Murray - Gorillaz.flac -=- CDDA (100%)
09 -=- 09 - The swagga - Gorillaz.flac -=- CDDA (100%)
10 -=- 10 - Murdoc is God - Gorillaz.flac -=- CDDA (100%)
11 -=- 11 - Spitting out the demons - Gorillaz.flac -=- CDDA (100%)
12 -=- 12 - Don't get lost in heaven (original demo version) - Gorillaz.flac -=- MPEG (95%)
13 -=- 13 - Stop the dams - Gorillaz.flac -=- CDDA (100%)

Сводка 88,62% CDDA

4364324
Код:
Код: Выделить всё
Exact Audio Copy V0.99 prebeta 5 from 4. May 2009

EAC extraction logfile from 14. May 2009, 8:32

Gorillaz / D-Sides (CD 2)

Used drive  : HL-DT-STDVD+-RW GWA4083N   Adapter: 1  ID: 0

Read mode               : Secure
Utilize accurate stream : Yes
Defeat audio cache      : Yes
Make use of C2 pointers : No

Read offset correction                      : 667
Overread into Lead-In and Lead-Out          : No
Fill up missing offset samples with silence : Yes
Delete leading and trailing silent blocks   : No
Null samples used in CRC calculations       : Yes
Used interface                              : Native Win32 interface for Win NT & 2000
Gap handling                                : Appended to previous track

Used output format              : User Defined Encoder
Selected bitrate                : 320 kBit/s
Quality                         : High
Add ID3 tag                     : No
Command line compressor         : C:\Program Files\Exact Audio Copy\Flac\flac.exe
Additional command line options : -V -8 -T "artist=%a" -T "title=%t" -T "album=%g" -T "date=%y" -T "tracknumber=%n" -T "genre=%m" %s

TOC of the extracted CD

     Track |   Start  |  Length  | Start sector | End sector
    ---------------------------------------------------------
        1  |  0:00.00 | 12:14.70 |         0    |    55119
        2  | 12:14.70 |  7:24.68 |     55120    |    88487
        3  | 19:39.63 |  4:22.44 |     88488    |   108181
        4  | 24:02.32 |  5:42.69 |    108182    |   133900
        5  | 29:45.26 |  7:09.50 |    133901    |   166125
        6  | 36:55.01 |  5:44.50 |    166126    |   191975
        7  | 42:39.51 |  5:26.28 |    191976    |   216453
        8  | 48:06.04 |  3:53.03 |    216454    |   233931
        9  | 51:59.07 | 10:08.39 |    233932    |   279570

Track  1

     Filename C:\EAC Rips\01 - Dare (DFA Remix) - Gorillaz.wav

     Pre-gap length  0:00:02.00

     Peak level 98.8 %
     Track quality 100.0 %
     Test CRC 200E3191
     Copy CRC 200E3191
     Accurately ripped (confidence 61)  [57F1A20C]
     Copy OK

Track  2

     Filename C:\EAC Rips\02 - Feel Good Inc. (Stanton Warriors Remix) - Gorillaz.wav

     Pre-gap length  0:00:01.56

     Peak level 98.0 %
     Track quality 100.0 %
     Test CRC C1AE21F9
     Copy CRC C1AE21F9
     Accurately ripped (confidence 61)  [045DA1C4]
     Copy OK

Track  3

     Filename C:\EAC Rips\03 - Kids With Guns (Jamie T's Turn to Monsters Mix) - Gorillaz.wav

     Pre-gap length  0:00:01.94

     Peak level 99.8 %
     Track quality 100.0 %
     Test CRC D66C0211
     Copy CRC D66C0211
     Accurately ripped (confidence 61)  [6BC59398]
     Copy OK

Track  4

     Filename C:\EAC Rips\04 - Dare (Soulwax remix) - Gorillaz.wav

     Pre-gap length  0:00:01.57

     Peak level 98.0 %
     Track quality 100.0 %
     Test CRC 2C9DE60F
     Copy CRC 2C9DE60F
     Accurately ripped (confidence 60)  [DA0A2AC6]
     Copy OK

Track  5

     Filename C:\EAC Rips\05 - Kids With Guns (Hot Chip Remix) - Gorillaz.wav

     Pre-gap length  0:00:00.90

     Peak level 98.0 %
     Track quality 99.9 %
     Test CRC E9B30D57
     Copy CRC E9B30D57
     Accurately ripped (confidence 61)  [7C9C9903]
     Copy OK

Track  6

     Filename C:\EAC Rips\06 - El Manana (Metromony Remix) - Gorillaz.wav

     Pre-gap length  0:00:01.68

     Peak level 99.8 %
     Track quality 99.9 %
     Test CRC 6C396040
     Copy CRC 6C396040
     Accurately ripped (confidence 61)  [A8B7A109]
     Copy OK

Track  7

     Filename C:\EAC Rips\07 - Dare (Junior Sanchez Remix) - Gorillaz.wav

     Pre-gap length  0:00:01.34

     Peak level 98.0 %
     Track quality 100.0 %
     Test CRC C56F13AE
     Copy CRC C56F13AE
     Accurately ripped (confidence 59)  [03A24290]
     Copy OK

Track  8

     Filename C:\EAC Rips\08 - Dirty Harry (Schtung Chinese New Year Remix) - Gorillaz.wav

     Pre-gap length  0:00:01.00

     Peak level 98.0 %
     Track quality 100.0 %
     Test CRC 1DAE49AE
     Copy CRC 1DAE49AE
     Accurately ripped (confidence 60)  [48CE0E6B]
     Copy OK

Track  9

     Filename C:\EAC Rips\09 - Kids With Guns (Quiet Village Remix) - Gorillaz.wav

     Pre-gap length  0:00:01.86

     Peak level 98.0 %
     Track quality 99.9 %
     Test CRC 2E3CA58E
     Copy CRC 2E3CA58E
     Accurately ripped (confidence 57)  [C80E5885]
     Copy OK

All tracks accurately ripped

No errors occurred

End of status report
Код:
Код: Выделить всё
AUDIOCHECKER v2.0 beta (build 457) - by Dester -
~~~~~~~~~~~~~~~~~~~~~~~~~~~~~~~~~~
-=== НЕ РЕДАКТИРУЙТЕ ЭТОТ ФАЙЛ! ===-

Путь: ...\Gorillaz D-Sides Disc 2

01 -=- 01 - Dare (DFA Remix) - Gorillaz.flac -=- CDDA (100%)
02 -=- 02 - Feel Good Inc. (Stanton Warriors Remix) - Gorillaz.flac -=- MPEG (95%)
03 -=- 03 - Kids With Guns (Jamie T's Turn to Monsters Mix) - Gorillaz.flac -=- CDDA (99%)
04 -=- 04 - Dare (Soulwax remix) - Gorillaz.flac -=- CDDA (100%)
05 -=- 05 - Kids With Guns (Hot Chip Remix) - Gorillaz.flac -=- CDDA (100%)
06 -=- 06 - El Manana (Metromony Remix) - Gorillaz.flac -=- CDDA (100%)
07 -=- 07 - Dare (Junior Sanchez Remix) - Gorillaz.flac -=- CDDA (100%)
08 -=- 08 - Dirty Harry (Schtung Chinese New Year Remix) - Gorillaz.flac -=- CDDA (100%)
09 -=- 09 - Kids With Guns (Quiet Village Remix) - Gorillaz.flac -=- CDDA (100%)

Сводка 89,33% CDDA

69846708
#777Продолжительность: 01:00:57
Треклист:
01. Orchestral Intro (Feat. sinfonia ViVA)
02 - Welcome to the World of the Plastic Beach (Feat. Snoop Dogg & Hypnotic Brass Ensemble)
03 - White Flag (Feat. Kano, Bashy & The Lebanese National Orchestra for Arabic Music)
04 - Rhinestone Eyes
05 - Stylo (Feat. Bobby Womack & Mos Def)
06 - Superfast Jellyfish (Feat. Gruff Rhys & De La Soul)
07 - Empire Ants (Feat. Little Dragon)
08 - Glitter Freeze (Feat. Mark E. Smith)
09 - Some Kind of Nature (Feat. Lou Reed)
10 - On Melancholy Hill
11 - Broken
12 - Sweepstakes (Feat. Mos Def & Hypnotic Brass Ensemble)
13 - Plastic Beach (Feat. Mick Jones & Paul Simonon)
14 - To Binge" (Feat. Little Dragon)
15 - Cloud of Unknowing (Feat. Bobby Womack & sinfonia ViVA)
16 - Pirate Jet
Japanese Edition Bonus Track:
17 - Pirate's Progress
Код:
Код: Выделить всё
Exact Audio Copy V0.99 prebeta 5 from 4. May 2009

EAC extraction logfile from 3. March 2010, 11:51

Gorillaz / Plastic Beach

Used drive  : HL-DT-STDVDRAM GSA-T50N   Adapter: 1  ID: 0

Read mode               : Secure
Utilize accurate stream : Yes
Defeat audio cache      : Yes
Make use of C2 pointers : No

Read offset correction                      : 667
Overread into Lead-In and Lead-Out          : No
Fill up missing offset samples with silence : Yes
Delete leading and trailing silent blocks   : No
Null samples used in CRC calculations       : Yes
Used interface                              : Native Win32 interface for Win NT & 2000
Gap handling                                : Appended to previous track

Used output format              : User Defined Encoder
Selected bitrate                : 128 kBit/s
Quality                         : High
Add ID3 tag                     : No
Command line compressor         : C:\Program Files\Exact Audio Copy\Flac\flac.exe
Additional command line options : -V -8 -T "artist=%a" -T "title=%t" -T "album=%g" -T "date=%y" -T "tracknumber=%n" %s

TOC of the extracted CD

     Track |   Start  |  Length  | Start sector | End sector
    ---------------------------------------------------------
        1  |  0:00.00 |  1:09.29 |         0    |     5203
        2  |  1:09.29 |  3:35.38 |      5204    |    21366
        3  |  4:44.67 |  3:43.35 |     21367    |    38126
        4  |  8:28.27 |  3:20.13 |     38127    |    53139
        5  | 11:48.40 |  4:30.39 |     53140    |    73428
        6  | 16:19.04 |  2:54.65 |     73429    |    86543
        7  | 19:13.69 |  4:43.43 |     86544    |   107811
        8  | 23:57.37 |  4:03.19 |    107812    |   126055
        9  | 28:00.56 |  2:59.65 |    126056    |   139545
       10  | 31:00.46 |  3:53.65 |    139546    |   157085
       11  | 34:54.36 |  3:17.04 |    157086    |   171864
       12  | 38:11.40 |  5:20.35 |    171865    |   195899
       13  | 43:32.00 |  3:47.16 |    195900    |   212940
       14  | 47:19.16 |  3:55.53 |    212941    |   230618
       15  | 51:14.69 |  3:06.09 |    230619    |   244577
       16  | 54:21.03 |  2:33.34 |    244578    |   256086
       17  | 56:54.37 |  4:02.62 |    256087    |   274298
       18  | 63:29.24 |  2:11.62 |    285699    |   295585

Track  1

     Filename C:\Gorillaz - Plastic Beach [2010]\01 Orchestral Intro (feat. Sinfonia Viva).wav

     Pre-gap length  0:00:02.00

     Peak level 79.7 %
     Track quality 99.8 %
     Test CRC 239B3A50
     Copy CRC 239B3A50
     Copy OK

Track  2

     Filename C:\Gorillaz - Plastic Beach [2010]\02 Welcome to the World of the Plastic Beach (feat. Snoop Dogg & Hypnotic Brass Ensemble).wav

     Peak level 98.0 %
     Track quality 99.9 %
     Test CRC 346FB0C0
     Copy CRC 346FB0C0
     Copy OK

Track  3

     Filename C:\Gorillaz - Plastic Beach [2010]\03 White Flag (feat. Bashy, Kano & the National Orchestra for Arabic Music).wav

     Peak level 99.9 %
     Track quality 99.9 %
     Test CRC F7B845C7
     Copy CRC F7B845C7
     Copy OK

Track  4

     Filename C:\Gorillaz - Plastic Beach [2010]\04 Rhinestone Eyes.wav

     Peak level 100.0 %
     Track quality 100.0 %
     Test CRC EEA0B5D8
     Copy CRC EEA0B5D8
     Copy OK

Track  5

     Filename C:\Gorillaz - Plastic Beach [2010]\05 Stylo (feat. Mos Def & Bobby Womack).wav

     Peak level 99.9 %
     Track quality 100.0 %
     Test CRC 86003E4B
     Copy CRC 86003E4B
     Copy OK

Track  6

     Filename C:\Gorillaz - Plastic Beach [2010]\06 Superfast Jellyfish (feat. Gruff Rhys & De La Soul).wav

     Peak level 99.9 %
     Track quality 100.0 %
     Test CRC 3FA4B09E
     Copy CRC 3FA4B09E
     Copy OK

Track  7

     Filename C:\Gorillaz - Plastic Beach [2010]\07 Empire Ants (feat. Little Dragon).wav

     Peak level 97.7 %
     Track quality 99.9 %
     Test CRC 6A5E9F04
     Copy CRC 6A5E9F04
     Copy OK

Track  8

     Filename C:\Gorillaz - Plastic Beach [2010]\08 Glitter Freeze (feat. Mark E Smith).wav

     Peak level 100.0 %
     Track quality 100.0 %
     Test CRC AD390E34
     Copy CRC AD390E34
     Copy OK

Track  9

     Filename C:\Gorillaz - Plastic Beach [2010]\09 Some Kind of Nature (feat. Lou Reed).wav

     Peak level 100.0 %
     Track quality 100.0 %
     Test CRC 444022F7
     Copy CRC 444022F7
     Copy OK

Track 10

     Filename C:\Gorillaz - Plastic Beach [2010]\10 On Melancholy Hill.wav

     Peak level 99.9 %
     Track quality 100.0 %
     Test CRC 11E8BB64
     Copy CRC 11E8BB64
     Copy OK

Track 11

     Filename C:\Gorillaz - Plastic Beach [2010]\11 Broken.wav

     Peak level 100.0 %
     Track quality 100.0 %
     Test CRC 76948160
     Copy CRC 76948160
     Copy OK

Track 12

     Filename C:\Gorillaz - Plastic Beach [2010]\12 Sweepstakes (feat. Mos Def & Hypnotic Brass Ensemble).wav

     Peak level 99.9 %
     Track quality 99.9 %
     Test CRC 6588B604
     Copy CRC 6588B604
     Copy OK

Track 13

     Filename C:\Gorillaz - Plastic Beach [2010]\13 Plastic Beach (feat. Mick Jones & Paul Simonon).wav

     Peak level 100.0 %
     Track quality 100.0 %
     Test CRC 8EE5EDFA
     Copy CRC 8EE5EDFA
     Copy OK

Track 14

     Filename C:\Gorillaz - Plastic Beach [2010]\14 To Binge (feat. Little Dragon).wav

     Peak level 99.9 %
     Track quality 100.0 %
     Test CRC 21E7B912
     Copy CRC 21E7B912
     Copy OK

Track 15

     Filename C:\Gorillaz - Plastic Beach [2010]\15 Cloud of Unknowing (feat. Bobby Womack & Sinfonia Viva).wav

     Peak level 100.0 %
     Track quality 100.0 %
     Test CRC 4C4D05C9
     Copy CRC 4C4D05C9
     Copy OK

Track 16

     Filename C:\Gorillaz - Plastic Beach [2010]\16 Pirate Jet.wav

     Peak level 100.0 %
     Track quality 100.0 %
     Test CRC F61F4D8E
     Copy CRC F61F4D8E
     Copy OK

Track 17

     Filename C:\Gorillaz - Plastic Beach [2010]\17 Pirate's Progress.wav

     Pre-gap length  0:00:00.74

     Peak level 100.0 %
     Track quality 100.0 %
     Test CRC 8ED4F130
     Copy CRC 8ED4F130
     Copy OK

No errors occurred

End of status report
Код:
Код: Выделить всё
AUDIOCHECKER v2.0 beta (build 457) - by Dester -
~~~~~~~~~~~~~~~~~~~~~~~~~~~~~~~~~~
-=== НЕ РЕДАКТИРУЙТЕ ЭТОТ ФАЙЛ! ===-

Путь: ...\Gorillaz - Plastic Beach

01 -=- 01 Orchestral Intro (feat. Sinfonia Viva).flac -=- CDDA (100%)
02 -=- 02 Welcome to the World of the Plastic Beach (feat. Snoop Dogg & Hypnotic Brass Ensemble).flac -=- CDDA (100%)
03 -=- 03 White Flag (feat. Bashy, Kano & the National Orchestra for Arabic Music).flac -=- CDDA (100%)
04 -=- 04 Rhinestone Eyes.flac -=- CDDA (100%)
05 -=- 05 Stylo (feat. Mos Def & Bobby Womack).flac -=- CDDA (99%)
06 -=- 06 Superfast Jellyfish (feat. Gruff Rhys & De La Soul).flac -=- CDDA (99%)
07 -=- 07 Empire Ants (feat. Little Dragon).flac -=- CDDA (100%)
08 -=- 08 Glitter Freeze (feat. Mark E Smith).flac -=- CDDA (100%)
09 -=- 09 Some Kind of Nature (feat. Lou Reed).flac -=- CDDA (100%)
10 -=- 10 On Melancholy Hill.flac -=- CDDA (100%)
11 -=- 11 Broken.flac -=- CDDA (100%)
12 -=- 12 Sweepstakes (feat. Mos Def & Hypnotic Brass Ensemble).flac -=- CDDA (100%)
13 -=- 13 Plastic Beach (feat. Mick Jones & Paul Simonon).flac -=- CDDA (100%)
14 -=- 14 To Binge (feat. Little Dragon).flac -=- CDDA (100%)
15 -=- 15 Cloud of Unknowing (feat. Bobby Womack & Sinfonia Viva).flac -=- CDDA (100%)
16 -=- 16 Pirate Jet.flac -=- CDDA (100%)
17 -=- 17 Pirate's Progress.flac -=- CDDA (100%)

Сводка 99,88% CDDA

125519060
Правила, инструкции, FAQ!!!
Торрент  Добавлен [16 мар 2014, 01:02] Скачать торрент Магнет ссылка
Скачать торрент
24.64 КБ

Статус
Проверен 
 
Размер  2.44 ГБ
Приватный: Нет (DHT включён)
.torrent скачан  4
Как залить торрент? | Как скачать Torrent? | Как смотреть и слушать онлайн?  
Гость
 



Вернуться в Дискографии (Зарубежные)

Кто сейчас на конференции

Сейчас этот форум просматривают: нет зарегистрированных пользователей и гости: 0