God Is An Astronaut - Discography (2002-2008) [FLAC|LossLess]<Post Rock/Instrumental Rock>


Статистика раздачи
Размер: 1.36 ГБ | Добавлен: 16 мар 2014, 01:01 | Скачали: 0
Сидеров: 1  [0 байт/сек]    Личеров: 94  [0 байт/сек]

Сообщение Гость » 16 мар 2014, 01:01

God Is An Astronaut - Discography (2002-2008)



Год: 2002-2008
Жанр: Post Rock/Instrumental Rock
Продолжительность: 04:02:14

Кодек: FLAC (tracks)
Битрейт: LossLess
Тип битрейта: VBR
God is an Astronaut - инструментальная пост-рок группа из Ирландии, состоящая из
трех участников. Группа сформирована двумя братьями: Niels'ом и Torsten'ом в 2002
году, когда они выпустили свой дебютный альбом The End of the Beginning. Два клипа
из этого альбома: The End Of The Beginning и From Dust To The Beyond показывались
по MTV UK и другим MTV European сетям.
Состав группы:
- Torsten Kinsella - вокал, гитары, клавишные
- Niels Kinsella - бас, гитары, визуальные эффекты
- Lloyd Hanney - барабаны, синтезатор
01. The End of the Beginning (4:16)
02. From Dust to the Beyond (5:18)
03. Ascend to Oblivion (5:01)
04. Coda (5:05)
05. Remembrance (4:20)
06. Point Pleasant (5:03)
07. Fall from Stars (4:28)
08. Twilight (5:04)
09. Coma (1:17)
10. Route 666 (4:34)
11. Lost Symphony (5:16)
Код:
Код: Выделить всё
Exact Audio Copy V0.99 prebeta 4 from 23. January 2008

EAC extraction logfile from 22. August 2008, 13:04

God Is An Astronaut / The End of the Beginning

Used drive  : PLEXTOR DVDR   PX-750A   Adapter: 0  ID: 0

Read mode               : Secure
Utilize accurate stream : Yes
Defeat audio cache      : Yes
Make use of C2 pointers : No

Read offset correction                      : 102
Overread into Lead-In and Lead-Out          : No
Fill up missing offset samples with silence : Yes
Delete leading and trailing silent blocks   : No
Null samples used in CRC calculations       : Yes
Used interface                              : Installed external ASPI interface
Gap handling                                : Appended to previous track

Used output format              : User Defined Encoder
Selected bitrate                : 192 kBit/s
Quality                         : High
Add ID3 tag                     : No
Command line compressor         : C:\Program Files\EAC\Exact Audio Copy\FLAC\flac.exe
Additional command line options : -V -8 -T "artist=%a" -T "title=%t" -T "album=%g" -T "date=%y" -T "tracknumber=%n" -T "genre=%m" %s

TOC of the extracted CD

     Track |   Start  |  Length  | Start sector | End sector
    ---------------------------------------------------------
        1  |  0:00.00 |  4:15.60 |         0    |    19184
        2  |  4:15.60 |  5:17.45 |     19185    |    43004
        3  |  9:33.30 |  5:00.51 |     43005    |    65555
        4  | 14:34.06 |  5:04.72 |     65556    |    88427
        5  | 19:39.03 |  4:20.18 |     88428    |   107945
        6  | 23:59.21 |  5:03.11 |    107946    |   130681
        7  | 29:02.32 |  4:27.41 |    130682    |   150747
        8  | 33:29.73 |  5:03.70 |    150748    |   173542
        9  | 38:33.68 |  1:16.60 |    173543    |   179302
       10  | 39:50.53 |  4:34.12 |    179303    |   199864
       11  | 44:24.65 |  5:16.33 |    199865    |   223597
       12  | 52:13.23 | 15:22.19 |    234998    |   304166

Track  1

     Filename E:\FLAC\God Is An Astronaut - The End of the Beginning\01 - The End of the Beginning.wav

     Pre-gap length  0:00:02.00

     Peak level 100.0 %
     Track quality 100.0 %
     Test CRC A4041C89
     Copy CRC A4041C89
     Accurately ripped (confidence 4)  [5BC986A9]
     Copy OK

Track  2

     Filename E:\FLAC\God Is An Astronaut - The End of the Beginning\02 - From Dust to the Beyond.wav

     Pre-gap length  0:00:01.00

     Peak level 100.0 %
     Track quality 100.0 %
     Test CRC 59907184
     Copy CRC 59907184
     Accurately ripped (confidence 4)  [E07073E3]
     Copy OK

Track  3

     Filename E:\FLAC\God Is An Astronaut - The End of the Beginning\03 - Ascend to Oblivion.wav

     Pre-gap length  0:00:01.00

     Peak level 100.0 %
     Track quality 100.0 %
     Test CRC 95083401
     Copy CRC 95083401
     Accurately ripped (confidence 4)  [D4271114]
     Copy OK

Track  4

     Filename E:\FLAC\God Is An Astronaut - The End of the Beginning\04 - Coda.wav

     Pre-gap length  0:00:01.00

     Peak level 100.0 %
     Track quality 100.0 %
     Test CRC CFBBB9D4
     Copy CRC CFBBB9D4
     Accurately ripped (confidence 4)  [A4256203]
     Copy OK

Track  5

     Filename E:\FLAC\God Is An Astronaut - The End of the Beginning\05 - Remembrance.wav

     Pre-gap length  0:00:01.00

     Peak level 100.0 %
     Track quality 100.0 %
     Test CRC A0F12BD1
     Copy CRC A0F12BD1
     Accurately ripped (confidence 4)  [9D2BA8AC]
     Copy OK

Track  6

     Filename E:\FLAC\God Is An Astronaut - The End of the Beginning\06 - Point Pleasant.wav

     Pre-gap length  0:00:01.00

     Peak level 100.0 %
     Track quality 99.9 %
     Test CRC F6F8576F
     Copy CRC F6F8576F
     Accurately ripped (confidence 4)  [CC88544A]
     Copy OK

Track  7

     Filename E:\FLAC\God Is An Astronaut - The End of the Beginning\07 - Fall from Stars.wav

     Pre-gap length  0:00:01.00

     Peak level 100.0 %
     Track quality 100.0 %
     Test CRC 7CC3C47D
     Copy CRC 7CC3C47D
     Accurately ripped (confidence 4)  [8504A930]
     Copy OK

Track  8

     Filename E:\FLAC\God Is An Astronaut - The End of the Beginning\08 - Twilight.wav

     Pre-gap length  0:00:01.00

     Peak level 100.0 %
     Track quality 100.0 %
     Test CRC FDF5BD29
     Copy CRC FDF5BD29
     Accurately ripped (confidence 4)  [6C667CA1]
     Copy OK

Track  9

     Filename E:\FLAC\God Is An Astronaut - The End of the Beginning\09 - Coma.wav

     Pre-gap length  0:00:01.00

     Peak level 100.0 %
     Track quality 100.0 %
     Test CRC 3619BB60
     Copy CRC 3619BB60
     Accurately ripped (confidence 4)  [D787B884]
     Copy OK

Track 10

     Filename E:\FLAC\God Is An Astronaut - The End of the Beginning\10 - Route 666.wav

     Pre-gap length  0:00:01.00

     Peak level 100.0 %
     Track quality 100.0 %
     Test CRC C7D4BF51
     Copy CRC C7D4BF51
     Accurately ripped (confidence 4)  [BA6416BA]
     Copy OK

Track 11

     Filename E:\FLAC\God Is An Astronaut - The End of the Beginning\11 - Lost Symphony.wav

     Pre-gap length  0:00:01.00

     Peak level 100.0 %
     Track quality 99.9 %
     Test CRC 07CC768A
     Copy CRC 07CC768A
     Accurately ripped (confidence 3)  [22F0CA49]
     Copy OK

All tracks accurately ripped

No errors occurred

End of status report
Код:
Код: Выделить всё
-----------------------

DON'T MODIFY THIS FILE

-----------------------

PERFORMER: auCDtect Task Manager, ver. 1.6.0 RC1 build 1.6.0.1
Copyright (c) 2008-2010 y-soft. All rights reserved
http:/y-soft.org

ANALYZER: auCDtect: CD records authenticity detector, version 0.8.2
Copyright (c) 2004 Oleg Berngardt. All rights reserved.
Copyright (c) 2004 Alexander Djourik. All rights reserved.

FILE: 11 - Lost Symphony.flac
  Size: 35626158 Hash: 4ADD0BB3A1E816ED7A72162B696C3A53 Accuracy: -m0
  Conclusion: CDDA 99%
  Signature: FCEA113801DE7A311BA34B81C8D37BCB18BCD47D
FILE: 10 - Route 666.flac
  Size: 34531665 Hash: 44683EFB28E6B4B28CFCB6F15430E166 Accuracy: -m0
  Conclusion: CDDA 100%
  Signature: 81D6E367C3547E95B0CDB23E969B159FFDF92993
FILE: 09 - Coma.flac
  Size: 7599097 Hash: 9013586621FA076319BFBF6E35912661 Accuracy: -m0
  Conclusion: CDDA 100%
  Signature: 48ADFC741948B6FEF9F5FBCC888F5487F66B5090
FILE: 08 - Twilight.flac
  Size: 35218024 Hash: F9120D3A09DE244550E20F7FA33CC5E2 Accuracy: -m0
  Conclusion: CDDA 100%
  Signature: 10BE8920956C2D6DE9933879778CEFAD69D36339
FILE: 07 - Fall from Stars.flac
  Size: 31953868 Hash: 222001EE903F8A63A50A190DD25D1B49 Accuracy: -m0
  Conclusion: CDDA 99%
  Signature: AF27BAEB2137FDBFF6468F8DC9EB606B81A1057B
FILE: 06 - Point Pleasant.flac
  Size: 32444816 Hash: 4389B79B3F8D6217B844C3146F97059A Accuracy: -m0
  Conclusion: CDDA 99%
  Signature: 1B7F22C56B647BEBE8409E9E705186CA193DE5C3
FILE: 05 - Remembrance.flac
  Size: 28782386 Hash: CDF0EB50A1300B67823E925EE9BDD03F Accuracy: -m0
  Conclusion: CDDA 99%
  Signature: 8F5E10AF684B64A09ED14E1045010B17EFA6B5EF
FILE: 04 - Coda.flac
  Size: 32116509 Hash: F029DDBB0DC191E3C1430201525DC40A Accuracy: -m0
  Conclusion: CDDA 99%
  Signature: 225753FD90E53F009DA90EC4BBCDEA31E1F1C706
FILE: 03 - Ascend to Oblivion.flac
  Size: 33663253 Hash: 289F6CCF74E1C86A61429CFBF811B31D Accuracy: -m0
  Conclusion: CDDA 100%
  Signature: 962A1DF4D603481A1D6687352229993BE81F4D43
FILE: 02 - From Dust to the Beyond.flac
  Size: 34964098 Hash: AD4D3C625F529A83D2A5A6EA64615ED3 Accuracy: -m0
  Conclusion: CDDA 100%
  Signature: CEC10FA4B48858C6F80952FEF82DE03E538B0FAF
FILE: 01 - The End of the Beginning.flac
  Size: 30470809 Hash: E69DE9CD3E3E6D73F2C38A743F6642D0 Accuracy: -m0
  Conclusion: CDDA 100%
  Signature: 59CA72DB455F8571D5530EA63A479FFCD69BAB1A
#77701. Fragile (4:35)
02. All Is Violent, All Is Bright (4:14)
03. Forever Lost (6:22)
04. Fire Flies And Empty Skies (3:55)
05. A Deafening Distance (3:49)
06. Infinite Horizons (2:28)
07. Suicide By Star (4:38)
08. Remembrance Day (4:17)
09. Dust And Echoes (4:14)
10. When Everything Dies (10:00)
Код:
Код: Выделить всё
Exact Audio Copy V0.99 prebeta 4 from 23. January 2008

EAC extraction logfile from 6. November 2008, 16:16

God Is An Astronaut / All Is Violent, All Is Bright

Used drive  : PLEXTOR DVDR   PX-750A   Adapter: 0  ID: 0

Read mode               : Secure
Utilize accurate stream : Yes
Defeat audio cache      : Yes
Make use of C2 pointers : No

Read offset correction                      : 102
Overread into Lead-In and Lead-Out          : No
Fill up missing offset samples with silence : Yes
Delete leading and trailing silent blocks   : No
Null samples used in CRC calculations       : Yes
Used interface                              : Installed external ASPI interface
Gap handling                                : Appended to previous track

Used output format              : User Defined Encoder
Selected bitrate                : 192 kBit/s
Quality                         : High
Add ID3 tag                     : No
Command line compressor         : C:\Program Files\EAC\Exact Audio Copy\FLAC\flac.exe
Additional command line options : -V -8 -T "artist=%a" -T "title=%t" -T "album=%g" -T "date=%y" -T "tracknumber=%n" -T "genre=%m" %s

TOC of the extracted CD

     Track |   Start  |  Length  | Start sector | End sector
    ---------------------------------------------------------
        1  |  0:00.00 |  4:34.41 |         0    |    20590
        2  |  4:34.41 |  4:14.09 |     20591    |    39649
        3  |  8:48.50 |  6:22.04 |     39650    |    68303
        4  | 15:10.54 |  3:55.37 |     68304    |    85965
        5  | 19:06.16 |  3:49.32 |     85966    |   103172
        6  | 22:55.48 |  2:28.20 |    103173    |   114292
        7  | 25:23.68 |  4:38.02 |    114293    |   135144
        8  | 30:01.70 |  4:16.48 |    135145    |   154392
        9  | 34:18.43 |  4:13.63 |    154393    |   173430
       10  | 38:32.31 | 10:00.36 |    173431    |   218466
       11  | 51:04.67 |  4:59.71 |    229867    |   252362

Track  1

     Filename E:\FLAC\God Is An Astronaut - All Is Violent, All Is Bright\01 - Fragile.wav

     Pre-gap length  0:00:02.00

     Peak level 100.0 %
     Track quality 100.0 %
     Test CRC 66EBB885
     Copy CRC 66EBB885
     Accurately ripped (confidence 3)  [28ABD566]
     Copy OK

Track  2

     Filename E:\FLAC\God Is An Astronaut - All Is Violent, All Is Bright\02 - All Is Violent, All Is Bright.wav

     Pre-gap length  0:00:01.00

     Peak level 100.0 %
     Track quality 100.0 %
     Test CRC 540A82CC
     Copy CRC 540A82CC
     Accurately ripped (confidence 3)  [612C2C73]
     Copy OK

Track  3

     Filename E:\FLAC\God Is An Astronaut - All Is Violent, All Is Bright\03 - Forever Lost.wav

     Pre-gap length  0:00:01.00

     Peak level 100.0 %
     Track quality 100.0 %
     Test CRC 219046D1
     Copy CRC 219046D1
     Accurately ripped (confidence 3)  [5BDC60D6]
     Copy OK

Track  4

     Filename E:\FLAC\God Is An Astronaut - All Is Violent, All Is Bright\04 - Fire Flies And Empty Skies.wav

     Pre-gap length  0:00:02.00

     Peak level 100.0 %
     Track quality 100.0 %
     Test CRC 1C7F54E9
     Copy CRC 1C7F54E9
     Accurately ripped (confidence 3)  [F10DD21B]
     Copy OK

Track  5

     Filename E:\FLAC\God Is An Astronaut - All Is Violent, All Is Bright\05 - A Deafening Distance.wav

     Pre-gap length  0:00:01.00

     Peak level 100.0 %
     Track quality 100.0 %
     Test CRC FF09AF09
     Copy CRC FF09AF09
     Accurately ripped (confidence 3)  [0D00CE38]
     Copy OK

Track  6

     Filename E:\FLAC\God Is An Astronaut - All Is Violent, All Is Bright\06 - Infinite Horizons.wav

     Pre-gap length  0:00:02.00

     Peak level 93.0 %
     Track quality 100.0 %
     Test CRC 7112F484
     Copy CRC 7112F484
     Accurately ripped (confidence 3)  [92E3264D]
     Copy OK

Track  7

     Filename E:\FLAC\God Is An Astronaut - All Is Violent, All Is Bright\07 - Suicide By Star.wav

     Pre-gap length  0:00:01.00

     Peak level 100.0 %
     Track quality 100.0 %
     Test CRC 4B4A4FC4
     Copy CRC 4B4A4FC4
     Accurately ripped (confidence 3)  [034D26E0]
     Copy OK

Track  8

     Filename E:\FLAC\God Is An Astronaut - All Is Violent, All Is Bright\08 - Remembrance Day.wav

     Pre-gap length  0:00:01.00

     Peak level 100.0 %
     Track quality 100.0 %
     Test CRC DB50BBEB
     Copy CRC DB50BBEB
     Accurately ripped (confidence 3)  [8C43279A]
     Copy OK

Track  9

     Filename E:\FLAC\God Is An Astronaut - All Is Violent, All Is Bright\09 - Dust And Echoes.wav

     Pre-gap length  0:00:01.00

     Peak level 100.0 %
     Track quality 100.0 %
     Test CRC F580AEF4
     Copy CRC F580AEF4
     Accurately ripped (confidence 3)  [ECA0A969]
     Copy OK

Track 10

     Filename E:\FLAC\God Is An Astronaut - All Is Violent, All Is Bright\10 - When Everything Dies.wav

     Pre-gap length  0:00:01.00

     Peak level 100.0 %
     Track quality 100.0 %
     Test CRC 29A5C0A4
     Copy CRC 29A5C0A4
     Accurately ripped (confidence 3)  [D9591A41]
     Copy OK

All tracks accurately ripped

No errors occurred

End of status report
Код:
Код: Выделить всё
-----------------------

DON'T MODIFY THIS FILE

-----------------------

PERFORMER: auCDtect Task Manager, ver. 1.6.0 RC1 build 1.6.0.1
Copyright (c) 2008-2010 y-soft. All rights reserved
http:/y-soft.org

ANALYZER: auCDtect: CD records authenticity detector, version 0.8.2
Copyright (c) 2004 Oleg Berngardt. All rights reserved.
Copyright (c) 2004 Alexander Djourik. All rights reserved.

FILE: 10 - When Everything Dies.flac
  Size: 50663549 Hash: 549A3E5A8B415F9E124F1CF6378DCC71 Accuracy: -m0
  Conclusion: CDDA 99%
  Signature: 67B6A97D51A9063F496B5462E4967B151AB267E8
FILE: 09 - Dust And Echoes.flac
  Size: 28798836 Hash: 8CEFE9557E3327B46824560A93A22ED9 Accuracy: -m0
  Conclusion: CDDA 99%
  Signature: B6952011AEA774422CEEBC3CE6738CF68CFC4418
FILE: 08 - Remembrance Day.flac
  Size: 26121638 Hash: EDF4E7881A61134B9A8A9048323A7BA4 Accuracy: -m0
  Conclusion: CDDA 99%
  Signature: 9B8C21A91C31F3C1642DD81CF61725D50110EE4F
FILE: 07 - Suicide By Star.flac
  Size: 33618215 Hash: 30242123B7B4D2B08E7707230CE27EE2 Accuracy: -m0
  Conclusion: CDDA 100%
  Signature: 8368076C72F36B2F40C6FC8720622BC1E55A5883
FILE: 06 - Infinite Horizons.flac
  Size: 11009318 Hash: FA51657FDBBC3FEF7F2F81916ADECC72 Accuracy: -m0
  Conclusion: CDDA 58%
  Signature: B7AC0BA45DE445E987C5BD39602CE927831FDD60
FILE: 05 - A Deafening Distance.flac
  Size: 24377506 Hash: 2578E0ACD1A2191AEC1E6DA570B6DB8D Accuracy: -m0
  Conclusion: CDDA 100%
  Signature: 5D8C8E6CCC65FA1391EC4109C6A675E72D286D50
FILE: 04 - Fire Flies And Empty Skies.flac
  Size: 28982652 Hash: AE0889A199034B65C55DB608D48A800B Accuracy: -m0
  Conclusion: CDDA 100%
  Signature: 9B62882D4386C5A9D0F73C72CF5CF8804D14EC5E
FILE: 03 - Forever Lost.flac
  Size: 43457517 Hash: CD77BD143D76699B6C46F6A6DA37A85E Accuracy: -m0
  Conclusion: CDDA 100%
  Signature: 0B68A43E471AF88A9C1D1EB8CE028ABA12C45735
FILE: 02 - All Is Violent, All Is Bright.flac
  Size: 26734773 Hash: 0ABE27159EB1C1ECD0AEDDA7D927EFA9 Accuracy: -m0
  Conclusion: CDDA 100%
  Signature: 9276B4CE0327ED4957125ACA7B0805B356060563
FILE: 01 - Fragile.flac
  Size: 26554551 Hash: 42C04AE5734C9B13FB7FEBF9F1C9404C Accuracy: -m0
  Conclusion: CDDA 100%
  Signature: A5DDA059EB29CFC7A7828F11830B9F5D7ECB5132
#77701. Frozen Twilight (6:21)
02. A Moment Of Stillness (4:48)
03. Forever Lost (Reprise) (5:37)
04. Elysian Fields (3:26)
05. Crystal Canyon (2:01)
Код:
Код: Выделить всё
Exact Audio Copy V0.99 prebeta 4 from 23. January 2008

EAC extraction logfile from 22. August 2008, 12:07

God Is An Astronaut / A Moment Of Stillness

Used drive  : PLEXTOR DVDR   PX-750A   Adapter: 0  ID: 0

Read mode               : Secure
Utilize accurate stream : Yes
Defeat audio cache      : Yes
Make use of C2 pointers : No

Read offset correction                      : 102
Overread into Lead-In and Lead-Out          : No
Fill up missing offset samples with silence : Yes
Delete leading and trailing silent blocks   : No
Null samples used in CRC calculations       : Yes
Used interface                              : Installed external ASPI interface
Gap handling                                : Appended to previous track

Used output format              : User Defined Encoder
Selected bitrate                : 192 kBit/s
Quality                         : High
Add ID3 tag                     : No
Command line compressor         : C:\Program Files\EAC\Exact Audio Copy\FLAC\flac.exe
Additional command line options : -V -8 -T "artist=%a" -T "title=%t" -T "album=%g" -T "date=%y" -T "tracknumber=%n" -T "genre=%m" %s

TOC of the extracted CD

     Track |   Start  |  Length  | Start sector | End sector
    ---------------------------------------------------------
        1  |  0:00.00 |  6:20.61 |         0    |    28560
        2  |  6:20.61 |  4:47.44 |     28561    |    50129
        3  | 11:08.30 |  5:37.08 |     50130    |    75412
        4  | 16:45.38 |  3:25.51 |     75413    |    90838
        5  | 20:11.14 |  2:00.57 |     90839    |    99895

Track  1

     Filename E:\FLAC\God Is An Astronaut - A Moment Of Stillness\01 - Frozen Twilight.wav

     Pre-gap length  0:00:02.00

     Peak level 100.0 %
     Track quality 100.0 %
     Test CRC 78F1B628
     Copy CRC 78F1B628
     Accurately ripped (confidence 3)  [7674B27A]
     Copy OK

Track  2

     Filename E:\FLAC\God Is An Astronaut - A Moment Of Stillness\02 - A Moment Of Stillness.wav

     Pre-gap length  0:00:00.37

     Peak level 100.0 %
     Track quality 100.0 %
     Test CRC 61E88DA0
     Copy CRC 61E88DA0
     Accurately ripped (confidence 3)  [417548F4]
     Copy OK

Track  3

     Filename E:\FLAC\God Is An Astronaut - A Moment Of Stillness\03 - Forever Lost (Reprise).wav

     Pre-gap length  0:00:01.00

     Peak level 100.0 %
     Track quality 100.0 %
     Test CRC F1F749F9
     Copy CRC F1F749F9
     Accurately ripped (confidence 3)  [44AD00D4]
     Copy OK

Track  4

     Filename E:\FLAC\God Is An Astronaut - A Moment Of Stillness\04 - Elysian Fields.wav

     Pre-gap length  0:00:01.00

     Peak level 100.0 %
     Track quality 100.0 %
     Test CRC 859D1B07
     Copy CRC 859D1B07
     Accurately ripped (confidence 3)  [511DEAED]
     Copy OK

Track  5

     Filename E:\FLAC\God Is An Astronaut - A Moment Of Stillness\05 - Crystal Canyon.wav

     Peak level 53.6 %
     Track quality 100.0 %
     Test CRC 3D24761B
     Copy CRC 3D24761B
     Accurately ripped (confidence 3)  [0D4D8B47]
     Copy OK

All tracks accurately ripped

No errors occurred

End of status report
Код:
Код: Выделить всё
-----------------------

DON'T MODIFY THIS FILE

-----------------------

PERFORMER: auCDtect Task Manager, ver. 1.6.0 RC1 build 1.6.0.1
Copyright (c) 2008-2010 y-soft. All rights reserved
http:/y-soft.org

ANALYZER: auCDtect: CD records authenticity detector, version 0.8.2
Copyright (c) 2004 Oleg Berngardt. All rights reserved.
Copyright (c) 2004 Alexander Djourik. All rights reserved.

FILE: 05 - Crystal Canyon.flac
  Size: 7275456 Hash: 4261F3E42E409B57725F9DF102359187 Accuracy: -m0
  Conclusion: CDDA 100%
  Signature: 8113F8D7A4FB9F7905F235F0F8949C0D5469D1FB
FILE: 04 - Elysian Fields.flac
  Size: 15774601 Hash: 6227F0BFE41DD5E96E26C56CBC748991 Accuracy: -m0
  Conclusion: CDDA 100%
  Signature: 006AC3C8E6BB3069085F8FD234002A190CEDD878
FILE: 03 - Forever Lost (Reprise).flac
  Size: 36149523 Hash: 8729FFA52D0F0CCF259910A6350D99FF Accuracy: -m0
  Conclusion: CDDA 100%
  Signature: 4D8B89D762D60A4F3EA571B4D9CE57F0840DDCAA
FILE: 02 - A Moment Of Stillness.flac
  Size: 29106932 Hash: 06109695A3BDBAAAB4FD9E7AFB6553D4 Accuracy: -m0
  Conclusion: CDDA 100%
  Signature: 6FB8E8CD0B9ACD3BC1B60B1076A1569B14FF403D
FILE: 01 - Frozen Twilight.flac
  Size: 35156412 Hash: 77AAC7E0EEDB32BC1837347F82C6AD98 Accuracy: -m0
  Conclusion: CDDA 100%
  Signature: AC958DD6DD3E7E1F9F989DA3FB999E928C37E8DE
#77701. Radau (5:52)
02. Far From Refuge (6:55)
03. Sunrise In Aries (4:25)
04. Grace Descending (5:34)
05. New Years End (4:19)
06. Darkfall (3:43)
07. Tempus Horizon (5:10)
08. Lateral Noise (1:55)
09. Beyond The Dying Light (5:41)
10. Sunny Banks Of Sweet Deliverance (4:32)
11. Empyrean Glow (2:22)
Код:
Код: Выделить всё
Exact Audio Copy V0.99 prebeta 4 from 23. January 2008

EAC extraction logfile from 28. November 2008, 14:36

God Is An Astronaut / Far From Refuge

Used drive  : PLEXTOR DVDR   PX-750A   Adapter: 0  ID: 0

Read mode               : Secure
Utilize accurate stream : Yes
Defeat audio cache      : Yes
Make use of C2 pointers : No

Read offset correction                      : 102
Overread into Lead-In and Lead-Out          : No
Fill up missing offset samples with silence : Yes
Delete leading and trailing silent blocks   : No
Null samples used in CRC calculations       : Yes
Used interface                              : Installed external ASPI interface
Gap handling                                : Appended to previous track

Used output format              : User Defined Encoder
Selected bitrate                : 192 kBit/s
Quality                         : High
Add ID3 tag                     : No
Command line compressor         : C:\Program Files\EAC\Exact Audio Copy\FLAC\flac.exe
Additional command line options : -V -8 -T "artist=%a" -T "title=%t" -T "album=%g" -T "date=%y" -T "tracknumber=%n" -T "genre=%m" %s

TOC of the extracted CD

     Track |   Start  |  Length  | Start sector | End sector
    ---------------------------------------------------------
        1  |  0:00.00 |  5:52.32 |         0    |    26431
        2  |  5:52.32 |  6:55.35 |     26432    |    57591
        3  | 12:47.67 |  4:25.17 |     57592    |    77483
        4  | 17:13.09 |  5:33.45 |     77484    |   102503
        5  | 22:46.54 |  4:19.29 |    102504    |   121957
        6  | 27:06.08 |  3:43.21 |    121958    |   138703
        7  | 30:49.29 |  5:10.29 |    138704    |   161982
        8  | 35:59.58 |  1:54.66 |    161983    |   170598
        9  | 37:54.49 |  5:41.16 |    170599    |   196189
       10  | 43:35.65 |  4:32.00 |    196190    |   216589
       11  | 48:07.65 |  2:22.04 |    216590    |   227243

Track  1

     Filename E:\FLAC\God Is An Astronaut - Far From Refuge\01 - Radau.wav

     Pre-gap length  0:00:02.00

     Peak level 100.0 %
     Track quality 100.0 %
     Test CRC 8CF2B57F
     Copy CRC 8CF2B57F
     Track not present in AccurateRip database
     Copy OK

Track  2

     Filename E:\FLAC\God Is An Astronaut - Far From Refuge\02 - Far From Refuge.wav

     Pre-gap length  0:00:00.74

     Peak level 100.0 %
     Track quality 100.0 %
     Test CRC D901F689
     Copy CRC D901F689
     Track not present in AccurateRip database
     Copy OK

Track  3

     Filename E:\FLAC\God Is An Astronaut - Far From Refuge\03 - Sunrise In Aries.wav

     Pre-gap length  0:00:01.02

     Peak level 100.0 %
     Track quality 100.0 %
     Test CRC 5096E6D1
     Copy CRC 5096E6D1
     Track not present in AccurateRip database
     Copy OK

Track  4

     Filename E:\FLAC\God Is An Astronaut - Far From Refuge\04 - Grace Descending.wav

     Pre-gap length  0:00:01.68

     Peak level 100.0 %
     Track quality 100.0 %
     Test CRC BA955BC0
     Copy CRC BA955BC0
     Track not present in AccurateRip database
     Copy OK

Track  5

     Filename E:\FLAC\God Is An Astronaut - Far From Refuge\05 - New Years End.wav

     Pre-gap length  0:00:01.18

     Peak level 100.0 %
     Track quality 100.0 %
     Test CRC 4D47A802
     Copy CRC 4D47A802
     Track not present in AccurateRip database
     Copy OK

Track  6

     Filename E:\FLAC\God Is An Astronaut - Far From Refuge\06 - Darkfall.wav

     Pre-gap length  0:00:02.00

     Peak level 93.8 %
     Track quality 100.0 %
     Test CRC C374FAB9
     Copy CRC C374FAB9
     Track not present in AccurateRip database
     Copy OK

Track  7

     Filename E:\FLAC\God Is An Astronaut - Far From Refuge\07 - Tempus Horizon.wav

     Peak level 100.0 %
     Track quality 100.0 %
     Test CRC 98C4F9E1
     Copy CRC 98C4F9E1
     Track not present in AccurateRip database
     Copy OK

Track  8

     Filename E:\FLAC\God Is An Astronaut - Far From Refuge\08 - Lateral Noise.wav

     Pre-gap length  0:00:00.71

     Peak level 99.5 %
     Track quality 99.9 %
     Test CRC E5DA8B5A
     Copy CRC E5DA8B5A
     Track not present in AccurateRip database
     Copy OK

Track  9

     Filename E:\FLAC\God Is An Astronaut - Far From Refuge\09 - Beyond The Dying Light.wav

     Pre-gap length  0:00:02.00

     Peak level 100.0 %
     Track quality 100.0 %
     Test CRC DF068226
     Copy CRC DF068226
     Track not present in AccurateRip database
     Copy OK

Track 10

     Filename E:\FLAC\God Is An Astronaut - Far From Refuge\10 - Sunny Banks Of Sweet Deliverance.wav

     Pre-gap length  0:00:01.04

     Peak level 100.0 %
     Track quality 100.0 %
     Test CRC B6870120
     Copy CRC B6870120
     Track not present in AccurateRip database
     Copy OK

Track 11

     Filename E:\FLAC\God Is An Astronaut - Far From Refuge\11 - Empyrean Glow.wav

     Peak level 83.1 %
     Track quality 100.0 %
     Test CRC 630B62B0
     Copy CRC 630B62B0
     Track not present in AccurateRip database
     Copy OK

None of the tracks are present in the AccurateRip database

No errors occurred

End of status report
Код:
Код: Выделить всё
-----------------------

DON'T MODIFY THIS FILE

-----------------------

PERFORMER: auCDtect Task Manager, ver. 1.6.0 RC1 build 1.6.0.1
Copyright (c) 2008-2010 y-soft. All rights reserved
http:/y-soft.org

ANALYZER: auCDtect: CD records authenticity detector, version 0.8.2
Copyright (c) 2004 Oleg Berngardt. All rights reserved.
Copyright (c) 2004 Alexander Djourik. All rights reserved.

FILE: 11 - Empyrean Glow.flac
  Size: 9873838 Hash: 5E49876739B676F277CB351E8319BCBC Accuracy: -m0
  Conclusion: MPEG 91%
  Signature: 1B55589D0A312E74B3EBB9902015DB60D1945B62
FILE: 10 - Sunny Banks Of Sweet Deliverance.flac
  Size: 32972880 Hash: 97A3BD3A825928BD837CC3ECA5AB3078 Accuracy: -m0
  Conclusion: CDDA 100%
  Signature: 8C1E12A48B3FB0BF5AE12689DFBB42F58DAAD9AF
FILE: 09 - Beyond The Dying Light.flac
  Size: 39498065 Hash: F70C2C737224C98A457C80778741D2FF Accuracy: -m0
  Conclusion: CDDA 100%
  Signature: 8A8831E2528E1F5A24B4617569EB5C1C3C9B616C
FILE: 08 - Lateral Noise.flac
  Size: 8591789 Hash: 791482321ACEADAB3F29120A3484AE88 Accuracy: -m0
  Conclusion: CDDA 100%
  Signature: 04B905CBD57AF5D6932A84309C0BEEE5AA4ABD32
FILE: 07 - Tempus Horizon.flac
  Size: 34196039 Hash: 057B873858B78D3220BA2EB091A9FB48 Accuracy: -m0
  Conclusion: CDDA 100%
  Signature: 3387E16CE742377244858F6F910A2DD7F0E41F88
FILE: 06 - Darkfall.flac
  Size: 12177172 Hash: 368DF55199E69F953CF2B10B555AD69C Accuracy: -m0
  Conclusion: CDDA 76%
  Signature: A58F9B4B73F29F5CEE917D3EC3596D12E9AD8BFD
FILE: 05 - New Years End.flac
  Size: 28172137 Hash: EE9C076E4C3BA1408984CE9DF517260C Accuracy: -m0
  Conclusion: CDDA 100%
  Signature: D5C737F6D6DC5D7D93B84A9CAD27104D0E13ADD1
FILE: 04 - Grace Descending.flac
  Size: 37870674 Hash: 09C5FCF7917D3E8C2D2F98A62B02438A Accuracy: -m0
  Conclusion: CDDA 100%
  Signature: 6BF42551BA67589EFC9A8301F083C1C86BD082B3
FILE: 03 - Sunrise In Aries.flac
  Size: 32740072 Hash: B7A342205C1D2C72092BDDD7204467A5 Accuracy: -m0
  Conclusion: CDDA 100%
  Signature: E140CA819C5EABF8A3889B7A6E1FE20DC25F37BF
FILE: 02 - Far From Refuge.flac
  Size: 45573345 Hash: A4972BB9BBF5B942D549629F5897FB67 Accuracy: -m0
  Conclusion: CDDA 100%
  Signature: 6AE2A0DAC74D9FFD86BCEBB65D4A1ED8BD364844
FILE: 01 - Radau.flac
  Size: 40910588 Hash: C2064DD7B413ECF215B510BCADDB0362 Accuracy: -m0
  Conclusion: CDDA 99%
  Signature: 834D40EE01495C4925AB2663ED2F5B3CC343C8BD
#77701. Shadows (5:14)
02. Post Mortem (5:53)
03. Echoes (5:14)
04. Snowfall (6:43)
05. First Day of Sun (3:42)
06. No Return (7:07)
07. Zodiac (5:42)
08. Remaining Light (5:32)
09. Shores of Orion (5:20)
10. Loss (10:52)
Код:
Код: Выделить всё
Exact Audio Copy V0.99 prebeta 4 from 23. January 2008

EAC extraction logfile from 16. November 2008, 16:20

God Is An Astronaut / God Is An Astronaut

Used drive  : PLEXTOR DVDR   PX-750A   Adapter: 0  ID: 0

Read mode               : Secure
Utilize accurate stream : Yes
Defeat audio cache      : Yes
Make use of C2 pointers : No

Read offset correction                      : 102
Overread into Lead-In and Lead-Out          : No
Fill up missing offset samples with silence : Yes
Delete leading and trailing silent blocks   : No
Null samples used in CRC calculations       : Yes
Used interface                              : Installed external ASPI interface
Gap handling                                : Appended to previous track

Used output format              : User Defined Encoder
Selected bitrate                : 192 kBit/s
Quality                         : High
Add ID3 tag                     : No
Command line compressor         : C:\Program Files\EAC\Exact Audio Copy\FLAC\flac.exe
Additional command line options : -V -8 -T "artist=%a" -T "title=%t" -T "album=%g" -T "date=%y" -T "tracknumber=%n" -T "genre=%m" %s

TOC of the extracted CD

     Track |   Start  |  Length  | Start sector | End sector
    ---------------------------------------------------------
        1  |  0:00.00 |  5:13.44 |         0    |    23518
        2  |  5:13.44 |  5:53.23 |     23519    |    50016
        3  | 11:06.67 |  5:14.25 |     50017    |    73591
        4  | 16:21.17 |  6:43.06 |     73592    |   103822
        5  | 23:04.23 |  3:41.63 |    103823    |   120460
        6  | 26:46.11 |  7:06.52 |    120461    |   152462
        7  | 33:52.63 |  5:42.19 |    152463    |   178131
        8  | 39:35.07 |  5:31.43 |    178132    |   202999
        9  | 45:06.50 |  5:20.26 |    203000    |   227025
       10  | 50:27.01 | 10:51.44 |    227026    |   275894

Track  1

     Filename E:\FLAC\God Is An Astronaut - God In An Astronaut\01 - Shadows.wav

     Pre-gap length  0:00:02.00

     Peak level 100.0 %
     Track quality 100.0 %
     Test CRC 770A5853
     Copy CRC 770A5853
     Track not present in AccurateRip database
     Copy OK

Track  2

     Filename E:\FLAC\God Is An Astronaut - God In An Astronaut\02 - Post Mortem.wav

     Pre-gap length  0:00:02.00

     Peak level 100.0 %
     Track quality 99.9 %
     Test CRC 7E4D4588
     Copy CRC 7E4D4588
     Track not present in AccurateRip database
     Copy OK

Track  3

     Filename E:\FLAC\God Is An Astronaut - God In An Astronaut\03 - Echoes.wav

     Pre-gap length  0:00:01.00

     Peak level 100.0 %
     Track quality 100.0 %
     Test CRC 79376057
     Copy CRC 79376057
     Track not present in AccurateRip database
     Copy OK

Track  4

     Filename E:\FLAC\God Is An Astronaut - God In An Astronaut\04 - Snowfall.wav

     Pre-gap length  0:00:04.00

     Peak level 100.0 %
     Track quality 100.0 %
     Test CRC 9F9D2F9B
     Copy CRC 9F9D2F9B
     Track not present in AccurateRip database
     Copy OK

Track  5

     Filename E:\FLAC\God Is An Astronaut - God In An Astronaut\05 - First Day of Sun.wav

     Pre-gap length  0:00:02.00

     Peak level 73.0 %
     Track quality 99.9 %
     Test CRC E794AE1D
     Copy CRC E794AE1D
     Track not present in AccurateRip database
     Copy OK

Track  6

     Filename E:\FLAC\God Is An Astronaut - God In An Astronaut\06 - No Return.wav

     Pre-gap length  0:00:04.00

     Peak level 100.0 %
     Track quality 99.9 %
     Test CRC C517AC84
     Copy CRC C517AC84
     Track not present in AccurateRip database
     Copy OK

Track  7

     Filename E:\FLAC\God Is An Astronaut - God In An Astronaut\07 - Zodiac.wav

     Pre-gap length  0:00:02.00

     Peak level 100.0 %
     Track quality 100.0 %
     Test CRC 54A87F11
     Copy CRC 54A87F11
     Track not present in AccurateRip database
     Copy OK

Track  8

     Filename E:\FLAC\God Is An Astronaut - God In An Astronaut\08 - Remaining Light.wav

     Pre-gap length  0:00:00.37

     Peak level 100.0 %
     Track quality 100.0 %
     Test CRC 09967DD4
     Copy CRC 09967DD4
     Track not present in AccurateRip database
     Copy OK

Track  9

     Filename E:\FLAC\God Is An Astronaut - God In An Astronaut\09 - Shores of Orion.wav

     Pre-gap length  0:00:01.37

     Peak level 100.0 %
     Track quality 100.0 %
     Test CRC 10AF98EF
     Copy CRC 10AF98EF
     Track not present in AccurateRip database
     Copy OK

Track 10

     Filename E:\FLAC\God Is An Astronaut - God In An Astronaut\10 - Loss.wav

     Pre-gap length  0:00:05.00

     Peak level 100.0 %
     Track quality 100.0 %
     Test CRC 1AD3DC71
     Copy CRC 1AD3DC71
     Track not present in AccurateRip database
     Copy OK

None of the tracks are present in the AccurateRip database

No errors occurred

End of status report
Код:
Код: Выделить всё
-----------------------

DON'T MODIFY THIS FILE

-----------------------

PERFORMER: auCDtect Task Manager, ver. 1.6.0 RC1 build 1.6.0.1
Copyright (c) 2008-2010 y-soft. All rights reserved
http:/y-soft.org

ANALYZER: auCDtect: CD records authenticity detector, version 0.8.2
Copyright (c) 2004 Oleg Berngardt. All rights reserved.
Copyright (c) 2004 Alexander Djourik. All rights reserved.

FILE: 10 - Loss.flac
  Size: 54551755 Hash: FF4D9E3CF98F42921D2EAF98CD05CA48 Accuracy: -m0
  Conclusion: MPEG 100%
  Signature: 87C7F38ACEB310FE7D97A3091FF07810EF33EABA
FILE: 09 - Shores of Orion.flac
  Size: 38891268 Hash: AA25B9A0B3CEBEC9A972FEC4B351B430 Accuracy: -m0
  Conclusion: CDDA 100%
  Signature: 5099D262A486C5A4C288109257C529AACF491DA3
FILE: 08 - Remaining Light.flac
  Size: 22697092 Hash: 61A3DF14D77F172F34C84EFEE9C021A1 Accuracy: -m0
  Conclusion: MPEG 100%
  Signature: 325BC01B66BE3A18B5F886B8253F13E23A62946A
FILE: 07 - Zodiac.flac
  Size: 41745400 Hash: 1DA7232277F23AD91EB8339D19A8EE87 Accuracy: -m0
  Conclusion: CDDA 99%
  Signature: F4189C08CA33F035F849700DAD053E374DF3CD1F
FILE: 06 - No Return.flac
  Size: 47779627 Hash: B4B1C49FC1ADECD7A4200B5D6F6A7D17 Accuracy: -m0
  Conclusion: CDDA 100%
  Signature: 507E3A30CA9E67A0C1794FCC02DCE61171FE6D0C
FILE: 05 - First Day of Sun.flac
  Size: 15893296 Hash: D5E0DA2875EDD5AF72F90E1890F67607 Accuracy: -m0
  Conclusion: MPEG 100%
  Signature: 1FF5F38E26A9B807FBCD8660184F46AF0ED89909
FILE: 04 - Snowfall.flac
  Size: 44508955 Hash: 1BA14D3D232777362B3F2470AC0226C0 Accuracy: -m0
  Conclusion: CDDA 94%
  Signature: FFD9FD00DB34FEAF15E33A6B52A411B40C948457
FILE: 03 - Echoes.flac
  Size: 38211812 Hash: 2B988858FFE4AE41557BAB45A68D3D39 Accuracy: -m0
  Conclusion: CDDA 100%
  Signature: E49442CD2C2528818B01C61B3EE529456AD82BFB
FILE: 02 - Post Mortem.flac
  Size: 36655913 Hash: 6BF80421DF7AB3616E433163CD662BFF Accuracy: -m0
  Conclusion: CDDA 85%
  Signature: 2A3BAAA4F5C7090B0DCFD1E3CB0A88E6F6E24067
FILE: 01 - Shadows.flac
  Size: 38637412 Hash: 3F4501A99B31709CE33C82BE97FD3AC2 Accuracy: -m0
  Conclusion: CDDA 100%
  Signature: 2E78D6A474FC3179331A4AF04C150E9C4E4DA549
Правила, инструкции, FAQ!!!
Торрент  Добавлен [16 мар 2014, 01:01] Скачать торрент Магнет ссылка
Скачать торрент
20.1 КБ

Статус
Проверен 
 
Размер  1.36 ГБ
Приватный: Нет (DHT включён)
.torrent скачан  0
Как залить торрент? | Как скачать Torrent? | Как смотреть и слушать онлайн?  
Гость
 



Вернуться в Дискографии (Зарубежные)

Кто сейчас на конференции

Сейчас этот форум просматривают: нет зарегистрированных пользователей и гости: 0