Гнев Титанов / Wrath of the Titans (2012) [1080p] BDRip [Вертикальная анаморфная стереопара 3D]

Статистика раздачи
Размер: 15.63 ГБ | Добавлен: 28 сен 2013, 23:20 | Скачали: 0
Сидеров: 15  [0 байт/сек]    Личеров: 5  [0 байт/сек]

Сообщение Гость » 28 сен 2013, 23:20

Гнев Титанов / Wrath of the Titans (2012) BDRip

«Ощути их ярость»
Русское название: Гнев Титанов
Оригинальное название: Wrath of the Titans
Год выпуска: 2012
Производство: Legendary Pictures / Warner Bros. Pictures [США]
Жанр: Фэнтези, боевик, приключения
Перевод: Дублированный [лицензия]
Субтитры: Вшитые отключаемые
Язык субтитров: Русский (BD, Е. Воронин), английский (полные, SDH)

Режиссер: Джонатан Либесман
Актеры: Сэм Уортингтон, Лиам Нисон, Рэйф Файнс, Эдгар Рамирез, Тоби Кеббелл, Розамунд Пайк, Билл Найи, Дэнни Хьюстон, Джон Белл, Лили Джеймс

Описание фильма:
Спустя десятилетие после героической победы над чудовищным Кракеном Персей пытается жить спокойной жизнью деревенского рыбака и отца-одиночки. В то же время между титанами и богами начинается борьба за власть. Олимпийцы, утратившие былую преданность людей, теряют контроль над тюрьмой, в которой заключены титаны и их глава Кронос. Сила титанов растет, в то время как могущество Зевса слабеет. Силы Аида ищут путь, чтобы прорваться на землю. Персей храбро отправляется в рискованное путешествие по подземному царству, чтобы спасти Зевса, свергнуть титанов и спасти человечество.
Рецензия от Garrus Sky-Line...

Дата мировой премьеры: 28 марта 2012
Дата российской премьеры: 29 марта 2012, «Каро-Премьер»
Дата выхода DVD релиза: 12 июля 2012, «CP Дистрибуция»
Дата выхода Blu-Ray релиза: 12 июля 2012, «CP Дистрибуция»



Продолжительность: 01:39:32
Качество видео: BDRip

Видео: MPEG4_AVC/H.264, 1920x1080, ~20,5 Mbps, Bit/Pixel: 0.412
Аудио 1: AC3 5.1, 448 kbps [Русский - дублированный]
Аудио 2: AC3 5.1, 448 kbps [Украинский - дублированный]
Аудио 3: AC3 5.1, 640 kbps [Английский - оригинал]
Полное имя : D:\Гнев.Титанов-Wrath.of.the.Titans.(2012).[1080p].BDRip.[3D].mkv
Формат : Matroska
Версия формата : Version 2
Размер файла : 15,6 Гбайт
Продолжительность : 1 ч. 39 м.
Общий поток : 22,5 Мбит/сек
Название фильма : Wrath of the Titans (3D) 2012 (by Ash61)
Дата кодирования : UTC 2012-07-08 19:12:47
Программа кодирования : mkvmerge v3.4.0 ('Rapunzel') сборка от May 15 2010 09:38:20
Библиотека кодирования : libebml v0.8.0 + libmatroska v0.9.0

Видео
Идентификатор : 1
Формат : AVC
Формат/Информация : Advanced Video Codec
Профиль формата :
Параметр CABAC формата : Да
Параметр ReFrames формата : 4 кадра
Идентификатор кодека : V_MPEG4/ISO/AVC
Продолжительность : 1 ч. 39 м.
Битрейт : 20,5 Мбит/сек
Ширина : 1920 пикселей
Высота : 1080 пикселей
Соотношение сторон : 16:9
Частота кадров : 23,976 кадра/сек
Цветовое пространство : YUV
Субдискретизация насыщенности : 4:2:0
Битовая глубина : 8 бит
Тип развёртки : Прогрессивная
Бит/(Пиксели*Кадры) : 0.412
Размер потока : 14,3 Гбайт (91%)
Заголовок : BDrip by Ash61
Библиотека кодирования : x264 core 119 r2106 07efeb4
Настройки программы : cabac=1 / ref=4 / deblock=1:-3:-3 / analyse=0x3:0x113 / me=umh / subme=9 / psy=1 / psy_rd=1.00:0.15 / mixed_ref=1 / me_range=16 / chroma_me=1 / trellis=2 / 8x8dct=1 / cqm=0 / deadzone=21,11 / fast_pskip=1 / chroma_qp_offset=-3 / threads=3 / sliced_threads=0 / nr=0 / decimate=1 / interlaced=0 / bluray_compat=0 / constrained_intra=0 / bframes=6 / b_pyramid=2 / b_adapt=2 / b_bias=0 / direct=3 / weightb=1 / open_gop=0 / weightp=2 / keyint=250 / keyint_min=23 / scenecut=40 / intra_refresh=0 / rc_lookahead=60 / rc=crf / mbtree=1 / crf=17.5 / qcomp=0.60 / qpmin=10 / qpmax=51 / qpstep=4 / vbv_maxrate=40000 / vbv_bufsize=40000 / crf_max=0.0 / nal_hrd=none / frame-packing=4 / ip_ratio=1.40 / aq=1:0.70
Default : Да
Forced : Нет

Аудио #1
Идентификатор : 2
Формат : AC-3
Формат/Информация : Audio Coding 3
Расширение режима : CM (complete main)
Параметр Endianness формата : Big
Идентификатор кодека : A_AC3
Продолжительность : 1 ч. 39 м.
Вид битрейта : Постоянный
Битрейт : 448 Кбит/сек
Каналы : 6 каналов
Расположение каналов : Front: L C R, Side: L R, LFE
Частота : 48,0 КГц
Битовая глубина : 16 бит
Метод сжатия : С потерями
Размер потока : 319 Мбайт (2%)
Заголовок : Дубляж (Blu-ray CEE)
Язык : Russian
Default : Да
Forced : Нет

Аудио #2
Идентификатор : 3
Формат : AC-3
Формат/Информация : Audio Coding 3
Расширение режима : CM (complete main)
Параметр Endianness формата : Big
Идентификатор кодека : A_AC3
Продолжительность : 1 ч. 39 м.
Вид битрейта : Постоянный
Битрейт : 448 Кбит/сек
Каналы : 6 каналов
Расположение каналов : Front: L C R, Side: L R, LFE
Частота : 48,0 КГц
Битовая глубина : 16 бит
Метод сжатия : С потерями
Размер потока : 319 Мбайт (2%)
Заголовок : Дубляж (Blu-ray CEE)
Язык : Ukrainian
Default : Нет
Forced : Нет

Аудио #3
Идентификатор : 4
Формат : AC-3
Формат/Информация : Audio Coding 3
Расширение режима : CM (complete main)
Параметр Endianness формата : Big
Идентификатор кодека : A_AC3
Продолжительность : 1 ч. 39 м.
Вид битрейта : Постоянный
Битрейт : 640 Кбит/сек
Каналы : 6 каналов
Расположение каналов : Front: L C R, Side: L R, LFE
Частота : 48,0 КГц
Битовая глубина : 16 бит
Метод сжатия : С потерями
Размер потока : 456 Мбайт (3%)
Заголовок : Original
Язык : English
Default : Нет
Forced : Нет

Текст #1
Идентификатор : 5
Формат : UTF-8
Идентификатор кодека : S_TEXT/UTF8
Идентификатор кодека/Информация : UTF-8 Plain Text
Заголовок : Blu-ray CEE
Язык : Russian
Default : Нет
Forced : Нет

Текст #2
Идентификатор : 6
Формат : UTF-8
Идентификатор кодека : S_TEXT/UTF8
Идентификатор кодека/Информация : UTF-8 Plain Text
Заголовок : Полные (voronine)
Язык : Russian
Default : Нет
Forced : Нет

Текст #3
Идентификатор : 7
Формат : UTF-8
Идентификатор кодека : S_TEXT/UTF8
Идентификатор кодека/Информация : UTF-8 Plain Text
Заголовок : Full
Язык : English
Default : Нет
Forced : Нет

Текст #4
Идентификатор : 8
Формат : UTF-8
Идентификатор кодека : S_TEXT/UTF8
Идентификатор кодека/Информация : UTF-8 Plain Text
Заголовок : SDH
Язык : English
Default : Нет
Forced : Нет

Меню
00:00:00.000 : :1
00:09:24.856 : :2
00:20:07.123 : :3
00:30:53.060 : :4
00:40:02.317 : :5
00:48:46.882 : :6
01:00:21.743 : :7
01:10:16.421 : :8
01:19:18.712 : :9
01:30:33.803 : :10
[font=Georgia][color=#0080FF]Скриншоты:


Правила, инструкции, FAQ!!!
Торрент  Добавлен [28 сен 2013, 23:20] Скачать торрент Магнет ссылка
Скачать торрент
[ Размер 40.06 КБ / Просмотров 18 ]

Статус
Проверен 
 
Размер  15.63 ГБ
Приватный: Нет (DHT включён)
.torrent скачан  0
Как залить торрент? | Как скачать Torrent? | Как смотреть и слушать онлайн?  
Гость
 


  • Похожие торренты
    Ответы
    Просмотры
    Последнее сообщение

Вернуться в HD-Video в 3D

Кто сейчас на конференции

Сейчас этот форум просматривают: нет зарегистрированных пользователей и гости: 0