Gary Moore - Blues for Jimi: Live in London (2007) (2012) BDRip 1080p

Статистика раздачи
Размер: 7.95 ГБ | Добавлен: 30 окт 2012, 21:42 | Скачали: 9
Сидеров: 4  [0 байт/сек]    Личеров: 2  [0 байт/сек]

Сообщение Гость » 30 окт 2012, 21:42

Информация о фильме
Название: Gary Moore - Blues for Jimi: Live in London
Год выхода: 2012
Жанр: Blues-rock, concert
Исполнители: Gary Moore, Mitch Mitchell, Billy Cox, Darrin Mooney, Dave Bronze
О концерте:
This unique concert was filmed at the London Hippodrome on 25 October 2007. It formed a part of the launch for the Jimi Hendrix Live At Monterey programme and featured Gary Moore and his band performing classic Hendrix tracks. At the end of the night Gary was joined by Mitch Mitchell and Billy Cox of the Jimi Hendrix Experience for 3 tracks. Gary Moore was one of the finest British guitarists of all time and is one of the few players who could pay homage to Jimi Hendrix s groundbreaking and truly distinctive guitar style. This is a stunning tribute from one master guitarist to another.
Track listing:
Gary Moore - Darrin Mooney - Dave Bronze
1. Purple Haze
2. Manic Depression
3. Foxy Lady
4. The Wind Cries Mary
5. I Don't Live Today
6. Angel
7. Fire
Gary Moore - Mitch Mitchell - Billy Cox
8. Red House
9. Stone Free
10. Hey Joe
Gary Moore - Darrin Mooney - Dave Bronze
11. Voodoo Chile (Slight Return)

Выпущено: Великобритания / Eagle Rock Entertainment
Продолжительность: 01:14:13

Файл
Формат: mkv
Кодек: MPEG-4 AVC
Качество: BDRip 1080p
Видео: 1920x1080, 29,970 fps, 13,8 Мbps
Звук: DTS, 1509 kbps, 24-bit (6 ch)
Общее
Уникальный идентификатор : 188501147695921961323489553881384769785 (0x8DD000201B0D782390871735092658F9)
Полное имя : Gary.Moore.Blues.for.Jimi.2012.x264.BDRip.1080p.mkv
Формат : Matroska
Версия формата : Version 2
Размер файла : 7,95 Гбайт
Продолжительность : 1 ч. 14 м.
Общий поток : 15,3 Мбит/сек
Название фильма : ☭WIDDER☭
Дата кодирования : UTC 2012-10-30 15:30:29
Программа кодирования : mkvmerge v4.5.0 ('Speed of Light') сборка от Feb 1 2011 02:10:32
Библиотека кодирования : libebml v1.2.0 + libmatroska v1.1.0

Видео
Идентификатор : 1
Формат : AVC
Формат/Информация : Advanced Video Codec
Профиль формата : High@L4.1
Параметр CABAC формата : Да
Параметр ReFrames формата : 4 кадра
Идентификатор кодека : V_MPEG4/ISO/AVC
Продолжительность : 1 ч. 14 м.
Битрейт : 13,8 Мбит/сек
Ширина : 1920 пикселей
Высота : 1080 пикселей
Соотношение сторон : 16:9
Режим частоты кадров : Постоянный
Частота кадров : 29,970 кадров/сек
Цветовое пространство : YUV
Субдискретизация насыщенности : 4:2:0
Битовая глубина : 8 бит
Тип развёртки : Прогрессивная
Бит/(Пиксели*Кадры) : 0.223
Размер потока : 7,01 Гбайт (88%)
Заголовок : Gary Moore - Blues for Jimi (2007) / 2012
Библиотека кодирования : x264 core 125 r2200 999b753
Настройки программы : cabac=1 / ref=4 / deblock=1:-3:-3 / analyse=0x3:0x133 / me=umh / subme=10 / psy=1 / psy_rd=1.00:0.00 / mixed_ref=1 / me_range=32 / chroma_me=1 / trellis=2 / 8x8dct=1 / cqm=0 / deadzone=21,11 / fast_pskip=0 / chroma_qp_offset=-2 / threads=16 / lookahead_threads=2 / sliced_threads=0 / nr=0 / decimate=1 / interlaced=0 / bluray_compat=0 / constrained_intra=0 / bframes=6 / b_pyramid=2 / b_adapt=2 / b_bias=0 / direct=3 / weightb=1 / open_gop=0 / weightp=2 / keyint=300 / keyint_min=29 / scenecut=40 / intra_refresh=0 / rc=2pass / mbtree=0 / bitrate=13828 / ratetol=1.0 / qcomp=0.60 / qpmin=0 / qpmax=69 / qpstep=4 / cplxblur=20.0 / qblur=0.5 / ip_ratio=1.40 / pb_ratio=1.30 / aq=2:0.80
Язык : English
Default : Да
Forced : Нет

Аудио
Идентификатор : 2
Формат : DTS
Формат/Информация : Digital Theater Systems
Идентификатор кодека : A_DTS
Продолжительность : 1 ч. 14 м.
Вид битрейта : Постоянный
Битрейт : 1510 Кбит/сек
Каналы : 6 каналов
Расположение каналов : Front: L C R, Side: L R, LFE
Частота : 48,0 КГц
Битовая глубина : 24 бит
Метод сжатия : С потерями
Размер потока : 802 Мбайт (10%)
Заголовок : DTS Core: 5.1 / 48 kHz / 1509 kbps / 24-bit
Язык : English
Default : Да
Forced : Нет

Меню
00:00:00.000 : :Chapter 01
00:04:16.256 : :Chapter 02
00:08:05.351 : :Chapter 03
00:14:15.855 : :Chapter 04
00:18:36.115 : :Chapter 05
00:21:35.093 : :Chapter 06
00:24:35.474 : :Chapter 07
00:30:44.843 : :Chapter 08
00:36:20.178 : :Chapter 09
00:47:51.868 : :Chapter 10
00:53:35.212 : :Chapter 11
01:03:13.790 : :Chapter 12


Правила, инструкции, FAQ!!!
Торрент  Добавлен [30 окт 2012, 21:42] Скачать торрент Магнет ссылка
Скачать торрент
[ Размер 40.31 КБ / Просмотров 49 ]

Статус
Проверен 
 
Размер  7.95 ГБ
Приватный: Нет (DHT включён)
.torrent скачан  9
Как залить торрент? | Как скачать Torrent? | Как смотреть и слушать онлайн?  
Гость
 


  • Похожие торренты
    Ответы
    Просмотры
    Последнее сообщение

Вернуться в Видеоклипы и Концерты

Кто сейчас на конференции

Сейчас этот форум просматривают: нет зарегистрированных пользователей и гости: 0