(Garage Rock, Psychedelic Rock) [CD] The Corporation - Get On Our Swing (1967) & Hassels In My Mind (1968) (2on1) - 2008, FLAC (tracks+.cue), lossless


Статистика раздачи
Размер: 331.62 МБ | Добавлен: 09 мар 2019, 11:26 | Скачали: 0
Сидеров: 0  [0 байт/сек]    Личеров: 0  [0 байт/сек]

Сообщение Гость » 09 мар 2019, 11:26

The Corporation - Get On Our Swing & Hassels In My Mind
Жанр: Garage Rock, Psychedelic Rock
Страна-производитель диска: USA
Год издания диска: 2008
Издатель (лейбл): Second Harvest
Номер по каталогу: 435
Страна: USA
Аудиокодек: FLAC (*.flac)
Тип рипа: tracks+.cue
Битрейт аудио: lossless
Продолжительность: 00:52:13
Источник (релизер): Sket4er
Наличие сканов в содержимом раздачи: да
Треклист:
Get On Our Swing (1967):
01. You Make Me Feel Good 02:31
02. Sitting By The Sea 02:59
03. Heard The News 04:49
04. I Do Love Her 02:47
05. Yes I Know 02:30
06. Get On My Swing 03:00
07. Walking Along 03:20
Hassels In My Mind (1968):
08. You Make Me Feel Good 02:31
09. My Child, He Walks Alone 09:52
10. Sky Faces 06:23
11. Changes 04:03
12. Book On A Shelf 04:35
Код: Выделить всё
Exact Audio Copy V1.3 from 2. September 2016
EAC extraction logfile from 4. March 2019, 19:08
The Corporation / Get On Our Swing / Hassels In My Mind
Used drive  : TSSTcorpCDDVDW SH-224DB   Adapter: 1  ID: 0
Read mode               : Secure
Utilize accurate stream : Yes
Defeat audio cache      : Yes
Make use of C2 pointers : No
Read offset correction                      : 6
Overread into Lead-In and Lead-Out          : No
Fill up missing offset samples with silence : Yes
Delete leading and trailing silent blocks   : No
Null samples used in CRC calculations       : Yes
Used interface                              : Native Win32 interface for Win NT & 2000
Gap handling                                : Appended to previous track
Used output format              : User Defined Encoder
Selected bitrate                : 1024 kBit/s
Quality                         : High
Add ID3 tag                     : No
Command line compressor         : C:\Program Files (x86)\Exact Audio Copy\Flac\flac.exe
Additional command line options : -V -8 -T "Genre=%genre%" -T "Artist=%artist%" -T "Title=%title%" -T "Album=%albumtitle%" -T "Date=%year%" -T "Tracknumber=%tracknr%" -T "Comment=%comment%" %source%
TOC of the extracted CD
     Track |   Start  |  Length  | Start sector | End sector
    ---------------------------------------------------------
        1  |  0:00.00 |  2:30.61 |         0    |    11310
        2  |  2:30.61 |  2:58.73 |     11311    |    24733
        3  |  5:29.59 |  4:49.37 |     24734    |    46445
        4  | 10:19.21 |  2:47.08 |     46446    |    58978
        5  | 13:06.29 |  2:30.20 |     58979    |    70248
        6  | 15:36.49 |  2:59.50 |     70249    |    83723
        7  | 18:36.24 |  3:19.70 |     83724    |    98718
        8  | 21:56.19 |  5:24.05 |     98719    |   123023
        9  | 27:20.24 |  9:51.67 |    123024    |   167415
       10  | 37:12.16 |  6:23.35 |    167416    |   196175
       11  | 43:35.51 |  4:03.23 |    196176    |   214423
       12  | 47:38.74 |  4:35.02 |    214424    |   235050
Track  1
     Filename G:\Sket4er\The Corporation – Get On Our Swing + Hassels In My Mind (1967-1968)  2008\01 You Make Me Feel Good.wav
     Pre-gap length  0:00:02.00
     Peak level 97.4 %
     Extraction speed 1.7 X
     Track quality 100.0 %
     Test CRC B5B1598B
     Copy CRC B5B1598B
     Track not present in AccurateRip database
     Copy OK
Track  2
     Filename G:\Sket4er\The Corporation – Get On Our Swing + Hassels In My Mind (1967-1968)  2008\02 Sitting By The Sea.wav
     Peak level 97.4 %
     Extraction speed 1.6 X
     Track quality 99.9 %
     Test CRC 2BC63F47
     Copy CRC 2BC63F47
     Track not present in AccurateRip database
     Copy OK
Track  3
     Filename G:\Sket4er\The Corporation – Get On Our Swing + Hassels In My Mind (1967-1968)  2008\03 Heard The News.wav
     Peak level 97.4 %
     Extraction speed 2.0 X
     Track quality 99.9 %
     Test CRC EA7D9124
     Copy CRC EA7D9124
     Track not present in AccurateRip database
     Copy OK
Track  4
     Filename G:\Sket4er\The Corporation – Get On Our Swing + Hassels In My Mind (1967-1968)  2008\04 I Do Love Her.wav
     Peak level 97.4 %
     Extraction speed 2.2 X
     Track quality 100.0 %
     Test CRC 9370BB0A
     Copy CRC 9370BB0A
     Track not present in AccurateRip database
     Copy OK
Track  5
     Filename G:\Sket4er\The Corporation – Get On Our Swing + Hassels In My Mind (1967-1968)  2008\05 Yes I Know.wav
     Peak level 97.4 %
     Extraction speed 2.2 X
     Track quality 100.0 %
     Test CRC 8230A184
     Copy CRC 8230A184
     Track not present in AccurateRip database
     Copy OK
Track  6
     Filename G:\Sket4er\The Corporation – Get On Our Swing + Hassels In My Mind (1967-1968)  2008\06 Get On My Swing.wav
     Peak level 94.6 %
     Extraction speed 2.4 X
     Track quality 100.0 %
     Test CRC 25EEB16D
     Copy CRC 25EEB16D
     Track not present in AccurateRip database
     Copy OK
Track  7
     Filename G:\Sket4er\The Corporation – Get On Our Swing + Hassels In My Mind (1967-1968)  2008\07 Walking Along.wav
     Peak level 97.4 %
     Extraction speed 2.5 X
     Track quality 100.0 %
     Test CRC DB62BBCA
     Copy CRC DB62BBCA
     Track not present in AccurateRip database
     Copy OK
Track  8
     Filename G:\Sket4er\The Corporation – Get On Our Swing + Hassels In My Mind (1967-1968)  2008\08 Hassels In My Mind.wav
     Peak level 97.4 %
     Extraction speed 2.9 X
     Track quality 100.0 %
     Test CRC ED80823A
     Copy CRC ED80823A
     Track not present in AccurateRip database
     Copy OK
Track  9
     Filename G:\Sket4er\The Corporation – Get On Our Swing + Hassels In My Mind (1967-1968)  2008\09 My Child He Walks Alone.wav
     Peak level 97.4 %
     Extraction speed 3.2 X
     Track quality 100.0 %
     Test CRC 050A5E23
     Copy CRC 050A5E23
     Track not present in AccurateRip database
     Copy OK
Track 10
     Filename G:\Sket4er\The Corporation – Get On Our Swing + Hassels In My Mind (1967-1968)  2008\10 Sky Faces.wav
     Peak level 97.4 %
     Extraction speed 2.9 X
     Track quality 99.9 %
     Test CRC 711E7A27
     Copy CRC 711E7A27
     Track not present in AccurateRip database
     Copy OK
Track 11
     Filename G:\Sket4er\The Corporation – Get On Our Swing + Hassels In My Mind (1967-1968)  2008\11 Changes.wav
     Peak level 97.4 %
     Extraction speed 3.3 X
     Track quality 100.0 %
     Test CRC F94A7AF1
     Copy CRC F94A7AF1
     Track not present in AccurateRip database
     Copy OK
Track 12
     Filename G:\Sket4er\The Corporation – Get On Our Swing + Hassels In My Mind (1967-1968)  2008\12 Book On A Shelf.wav
     Peak level 97.4 %
     Extraction speed 3.5 X
     Track quality 100.0 %
     Test CRC 67EA1DB8
     Copy CRC 67EA1DB8
     Track not present in AccurateRip database
     Copy OK
None of the tracks are present in the AccurateRip database
No errors occurred
End of status report
---- CUETools DB Plugin V2.1.6
[CTDB TOCID: 7dtlgi9E8s6C_smlHoSY6FQjTBM-] disk not present in database
Submit result: 7dtlgi9E8s6C_smlHoSY6FQjTBM- has been uploaded
==== Log checksum 97072F415467EC3A97ED8B72FA18E0FDD73F11AA201EFED385427F36A6D28897 ====
Код: Выделить всё
REM GENRE "Psychedelic Rock"
REM DATE 1994
REM DISCID 950C3E0C
REM COMMENT "ExactAudioCopy v1.3"
PERFORMER "The Corporation"
TITLE "Get On Our Swing / Hassels In My Mind"
REM COMPOSER ""
FILE "01 You Make Me Feel Good.wav" WAVE
  TRACK 01 AUDIO
    TITLE "You Make Me Feel Good"
    PERFORMER "The Corporation"
    REM COMPOSER ""
    INDEX 01 00:00:00
FILE "02 Sitting By The Sea.wav" WAVE
  TRACK 02 AUDIO
    TITLE "Sitting By The Sea"
    PERFORMER "The Corporation"
    REM COMPOSER ""
    INDEX 01 00:00:00
FILE "03 Heard The News.wav" WAVE
  TRACK 03 AUDIO
    TITLE "Heard The News"
    PERFORMER "The Corporation"
    REM COMPOSER ""
    INDEX 01 00:00:00
FILE "04 I Do Love Her.wav" WAVE
  TRACK 04 AUDIO
    TITLE "I Do Love Her"
    PERFORMER "The Corporation"
    REM COMPOSER ""
    INDEX 01 00:00:00
FILE "05 Yes I Know.wav" WAVE
  TRACK 05 AUDIO
    TITLE "Yes I Know"
    PERFORMER "The Corporation"
    REM COMPOSER ""
    INDEX 01 00:00:00
FILE "06 Get On My Swing.wav" WAVE
  TRACK 06 AUDIO
    TITLE "Get On My Swing"
    PERFORMER "The Corporation"
    REM COMPOSER ""
    INDEX 01 00:00:00
FILE "07 Walking Along.wav" WAVE
  TRACK 07 AUDIO
    TITLE "Walking Along"
    PERFORMER "The Corporation"
    REM COMPOSER ""
    INDEX 01 00:00:00
FILE "08 Hassels In My Mind.wav" WAVE
  TRACK 08 AUDIO
    TITLE "Hassels In My Mind"
    PERFORMER "The Corporation"
    REM COMPOSER ""
    INDEX 01 00:00:00
FILE "09 My Child He Walks Alone.wav" WAVE
  TRACK 09 AUDIO
    TITLE "My Child He Walks Alone"
    PERFORMER "The Corporation"
    REM COMPOSER ""
    INDEX 01 00:00:00
FILE "10 Sky Faces.wav" WAVE
  TRACK 10 AUDIO
    TITLE "Sky Faces"
    PERFORMER "The Corporation"
    REM COMPOSER ""
    INDEX 01 00:00:00
FILE "11 Changes.wav" WAVE
  TRACK 11 AUDIO
    TITLE "Changes"
    PERFORMER "The Corporation"
    REM COMPOSER ""
    INDEX 01 00:00:00
FILE "12 Book On A Shelf.wav" WAVE
  TRACK 12 AUDIO
    TITLE "Book On A Shelf"
    PERFORMER "The Corporation"
    REM COMPOSER ""
    INDEX 01 00:00:00
Код: Выделить всё
-----------------------
DON'T MODIFY THIS FILE
-----------------------
PERFORMER: auCDtect Task Manager, ver. 1.5.1RC4 build 1.5.1.5
Copyright (c) 2008-2010 y-soft. All rights reserved
[url=http://y-soft.org]http://y-soft.org[/url]
ANALYZER: auCDtect: CD records authenticity detector, version 0.8.2
Copyright (c) 2004 Oleg Berngardt. All rights reserved.
Copyright (c) 2004 Alexander Djourik. All rights reserved.
FILE: 12 Book On A Shelf.flac
  Size: 31666151 Hash: F09EC3F8660B7C4029DADC37E635E244 Accuracy: -m0
  Conclusion: CDDA 99%
  Signature: 6FFE50C87B10A7DCD89622CF501ED455EE29206E
FILE: 11 Changes.flac
  Size: 26463570 Hash: 09A9D0E897B581F3144ADFD605FEC079 Accuracy: -m0
  Conclusion: CDDA 100%
  Signature: BA04CFA3342695669EC5D4D43CE8CFF7F735E206
FILE: 10 Sky Faces.flac
  Size: 42152359 Hash: FD29B55FA4FDAA9915DFD8A19AD637D1 Accuracy: -m0
  Conclusion: CDDA 100%
  Signature: B85C6FA478A51ADE969AE92532FB58C4809AAE73
FILE: 09 My Child He Walks Alone.flac
  Size: 64743791 Hash: 6B805DBF62BB14256909D1831A0AC594 Accuracy: -m0
  Conclusion: CDDA 100%
  Signature: 02F83D7E4D7127F649CB23084FF0D2F4B32CE0B2
FILE: 08 Hassels In My Mind.flac
  Size: 36152284 Hash: AAC89AF267302FD6FB4DDF8524BF1E8E Accuracy: -m0
  Conclusion: CDDA 100%
  Signature: E4C14BFAD81BFEEE1B3B12C3DAD947BD56311694
FILE: 07 Walking Along.flac
  Size: 20925876 Hash: 7DB3A24980B66A802AF9B14829D170C5 Accuracy: -m0
  Conclusion: CDDA 100%
  Signature: 2F34AED67F723CF4B239B1BDC2FA0A2FCA29328D
FILE: 06 Get On My Swing.flac
  Size: 18272493 Hash: 22A237750A8D42A7F5E7E7C0DD28F122 Accuracy: -m0
  Conclusion: CDDA 100%
  Signature: 30B93BB8CDE48DF862886EC4802A43B53ABF4CF8
FILE: 05 Yes I Know.flac
  Size: 16591646 Hash: 83BF3DE5CDD0A2926C3E1E809D04ED1E Accuracy: -m0
  Conclusion: CDDA 100%
  Signature: 94AFEF82B12FDE234454C2962BD03CC48AFFC469
FILE: 04 I Do Love Her.flac
  Size: 17668827 Hash: 2D3F6C8C4F56FBA641C07E97A5C3BDD4 Accuracy: -m0
  Conclusion: CDDA 100%
  Signature: 45D5ECC3401E6673FE03A1D8F72AEE7AFB49F42C
FILE: 03 Heard The News.flac
  Size: 29996540 Hash: D8FD09190BC2FA57DFCBA537DBBC0ED1 Accuracy: -m0
  Conclusion: CDDA 100%
  Signature: 81273D13243E52BA5089DE4DF49C1FADF7654825
FILE: 02 Sitting By The Sea.flac
  Size: 19276105 Hash: A27D5C69F66C2E90FB6D58723BC22C0E Accuracy: -m0
  Conclusion: CDDA 100%
  Signature: 069F0820CC28CFAB015D11E4F36FE1977F512BFD
FILE: 01 You Make Me Feel Good.flac
  Size: 17995654 Hash: 8259F39894C884F2C961171087F7D855 Accuracy: -m0
  Conclusion: CDDA 100%
  Signature: 2D7F310A3FD6FADFB25E6A01D733DBA7A066E153
Код: Выделить всё
foobar2000 1.3.9 / Замер динамического диапазона (DR) 1.1.1
Дата отчёта:  2019-03-07 11:36:54
--------------------------------------------------------------------------------
Анализ:   The Corporation / Get On Our Swing / Hassels In My Mind
--------------------------------------------------------------------------------
DR         Пики         RMS           Продолжительность трека
--------------------------------------------------------------------------------
DR9       -0.22 дБ   -11.34 дБ      2:31 01-You Make Me Feel Good
DR11      -0.22 дБ   -12.74 дБ      2:59 02-Sitting By The Sea
DR11      -0.22 дБ   -12.94 дБ      4:49 03-Heard The News
DR10      -0.22 дБ   -11.69 дБ      2:47 04-I Do Love Her
DR10      -0.22 дБ   -11.75 дБ      2:30 05-Yes I Know
DR11      -0.47 дБ   -15.02 дБ      3:00 06-Get On My Swing
DR11      -0.22 дБ   -13.13 дБ      3:20 07-Walking Along
DR10      -0.22 дБ   -13.23 дБ      5:24 08-Hassels In My Mind
DR11      -0.22 дБ   -13.32 дБ      9:52 09-My Child He Walks Alone
DR11      -0.22 дБ   -13.11 дБ      6:23 10-Sky Faces
DR12      -0.22 дБ   -13.35 дБ      4:03 11-Changes
DR10      -0.22 дБ   -11.69 дБ      4:35 12-Book On A Shelf
--------------------------------------------------------------------------------
Количество треков: 12
Реальные значения DR: DR10
Частота:   44100 Гц
Каналов:   2
Разрядность:   16
Битрейт:   919 кбит/с
Кодек:   FLAC
================================================================================
Доп. информация
Bass, Vocals – Kenneth Bernard Berdoll
Drums, Vocals – Nicholas Alexander Kondos
Guitar, Flute, Harp, Piano, Vocals – John Alexander Kondos
Lead Guitar, Vocals – Gerard Jon Smith
Lead Vocals – Daniel Vincent Pell
Organ, Trombone – Patrick Daniel McCarthy
After recording their sole album to receive wide national distribution (1969's The Corporation, released on Capitol), Milwaukee band the Corporation recorded two LPs of additional material that found release the following year on Age of Aquarius, a small Wisconsin label. This 2008 CD reissues both albums on the same disc, with the addition of thorough historical liner notes. Comprised entirely of original material, both are pretty mediocre slices of late-'60s psychedelia. While the band favored a generally bluesy hard rock sound, there were also strong hints of brassy soul music in the arrangements, particularly Danny Peil's trembling vocals. There were also traces of melancholy West Coast psychedelia in some of the melodies, vocal harmonies, and gothic organ, often lending a somewhat downbeat tone to the material even when the lyrics are somewhat upbeat or romantic. The only notable difference between the two albums is that the songs are longer on the second of the pair, Hassles in My Mind, usually hovering around the five-minute mark, and in one case ("My Child, He Walks Alone") running ten minutes. Many of the attributes of psychedelia as it verged into hard rock are here -- muscular overwrought vocals, fuzz guitar, thick organ riffs, grinding ominous melodies -- though the Corporation had somewhat more soul and jazz influences than the usual such outfit, especially when John Kondos took to his flute. The improvisational-sounding instrumental passages are actually more together and disciplined than they are on many such obscure discs from the era, but the songwriting isn't too good, and the lyrics occasionally embarrassingly clumsy.
https://www.allmusic.com/album/get-on-our-swing-hassels-in-my-mind-mw0000802600
https://en.wikipedia.org/wiki/The_Corporation_(American_band)
Правила, инструкции, FAQ!!!
Торрент  Добавлен [09 мар 2019, 11:26] Скачать торрент Магнет ссылка
Скачать торрент
14.62 КБ

Статус
Проверен 
 
Размер  331.62 МБ
Приватный: Нет (DHT включён)
.torrent скачан  0
Как залить торрент? | Как скачать Torrent? | Как смотреть и слушать онлайн?  
Гость
 



Вернуться в Progressive & Art-Rock

Кто сейчас на конференции

Сейчас этот форум просматривают: нет зарегистрированных пользователей и гости: 1