Europe - Дискография (14 альбомов) (1983-2009) [FLAC|Lossless]<Hard Rock, Heavy Metal, Glam Metal>


Статистика раздачи
Размер: 5.74 ГБ | Добавлен: 21 июл 2014, 09:44 | Скачали: 1
Сидеров: 8  [0 байт/сек]    Личеров: 117  [0 байт/сек]

Сообщение Гость » 21 июл 2014, 09:44

Europe - Дискография (14 альбомов) (1983-2009)



Год: 1983-2009
Жанр: Hard Rock, Heavy Metal, Glam Metal
Кодек: FLAC
Битрейт: Lossless
Тип битрейта: CBR
Общая продолжительность: 13:28:13
Трек лист: Image+cue
Год: 1983
Жанр: Hard Rock, Heavy Metal, Glam Metal
Продолжительность: 00:40:27
Кодек: FLAC
Тип битрейта: CBR
Битрейт: 860

Трек лист:
01 - In The Future To Come
02 - Farewell
03 - Seven Doors Hotel
04 - The King Will Return
05 - Boyazont
06 - Children Of This Time
07 - Words Of Wisdom
08 - Paradize Bay
09 - Memories
AUDIOCHECKER v2.0 beta (build 457) - by Dester -
~~~~~~~~~~~~~~~~~~~~~~~~~~~~~~~~~~

Путь: ...\1983 - Europe

01 -=- Europe - 1983 - Europe.flac -=- CDDA (100%)

84836036
Exact Audio Copy V0.99 prebeta 5 from 4. May 2009

Отчёт EAC об извлечении, выполненном 7. января 2010, 22:24

Europe / Europe

Дисковод: PIONEER DVD-RW DVR-216D Adapter: 4 ID: 0

Режим чтения : Достоверность
Использование точного потока : Да
Отключение кэша аудио : Да
Использование указателей C2 : Нет

Коррекция смещения при чтении : 96
Способность читать области Lead-in и Lead-out : Нет
Заполнение пропущенных сэмплов тишиной : Да
Удаление блоков с тишиной в начале и конце : Нет
При вычислениях CRC использовались нулевые сэмплы : Да
Интерфейс : Встроенный Win32-интерфейс для Win NT/2000

Выходной формат : Внутренние WAV-операции
Формат сэмплов : 44.100 Гц; 16 бит; стерео

TOC извлечённого CD

Трек | Старт | Длительность | Начальный сектор | Конечный сектор
---------------------------------------------------------------------
1 | 0:02.00 | 5:03.17 | 150 | 22891
2 | 5:05.17 | 4:18.23 | 22892 | 42264
3 | 9:23.40 | 5:19.42 | 42265 | 66231
4 | 14:43.07 | 5:36.65 | 66232 | 91496
5 | 20:19.72 | 2:34.43 | 91497 | 103089
6 | 22:54.40 | 4:57.40 | 103090 | 125404
7 | 27:52.05 | 4:07.70 | 125405 | 143999
8 | 32:00.00 | 3:55.40 | 144000 | 161664
9 | 35:55.40 | 4:33.35 | 161665 | 182174

Характеристики диапазона извлечения и сообщения об ошибках

Выбранный диапазон

Имя файла C:\Users\BDG63\Desktop\Europe - Europe.wav

Пиковый уровень 100.0 %
Качество диапазона 100.0 %
CRC копии 4EE8072B
Копирование... OK

Ошибок не произошло

Конец отчёта
#777Год: 1984
Жанр: Hard Rock, Heavy Metal, Glam Metal
Продолжительность: 00:39:08
Кодек: FLAC
Тип битрейта: CBR
Битрейт: 982

Трек лист:
01 - Stormwind
02 - Scream Of Anger
03 - Open Your Heart
04 - Treated Bad Again
05 - Aphasia
06 - Wings Of Tomorrow
07 - Wasted Time
08 - Lyin' Eyes
09 - Dreamer
10 - Dance The Night Awa
AUDIOCHECKER v2.0 beta (build 457) - by Dester -
~~~~~~~~~~~~~~~~~~~~~~~~~~~~~~~~~~

Путь: ...\1984 - Wings Of Tomorrow

01 -=- Europe - 1984 - Wings Of Tomorrow.flac -=- CDDA (99%)

220488532
Exact Audio Copy V0.99 prebeta 5 from 4. May 2009

Отчёт EAC об извлечении, выполненном 7. января 2010, 22:47

Europe / Wings of tomorrow

Дисковод: PIONEER DVD-RW DVR-216D Adapter: 4 ID: 0

Режим чтения : Достоверность
Использование точного потока : Да
Отключение кэша аудио : Да
Использование указателей C2 : Нет

Коррекция смещения при чтении : 96
Способность читать области Lead-in и Lead-out : Нет
Заполнение пропущенных сэмплов тишиной : Да
Удаление блоков с тишиной в начале и конце : Нет
При вычислениях CRC использовались нулевые сэмплы : Да
Интерфейс : Встроенный Win32-интерфейс для Win NT/2000

Выходной формат : Внутренние WAV-операции
Формат сэмплов : 44.100 Гц; 16 бит; стерео

TOC извлечённого CD

Трек | Старт | Длительность | Начальный сектор | Конечный сектор
---------------------------------------------------------------------
1 | 0:00.00 | 4:31.55 | 0 | 20379
2 | 4:31.55 | 4:06.32 | 20380 | 38861
3 | 8:38.12 | 4:10.58 | 38862 | 57669
4 | 12:48.70 | 3:46.20 | 57670 | 74639
5 | 16:35.15 | 2:32.45 | 74640 | 86084
6 | 19:07.60 | 3:59.47 | 86085 | 104056
7 | 23:07.32 | 4:10.05 | 104057 | 122811
8 | 27:17.37 | 3:47.03 | 122812 | 139839
9 | 31:04.40 | 4:28.25 | 139840 | 159964
10 | 35:32.65 | 3:35.35 | 159965 | 176124

Характеристики диапазона извлечения и сообщения об ошибках

Выбранный диапазон

Имя файла C:\Users\BDG63\Desktop\Europe - Wings of tomorrow.wav

Пиковый уровень 92.0 %
Качество диапазона 100.0 %
CRC копии 0A0AD14D
Копирование... OK

Ошибок не произошло

Конец отчёта
#777Год: 1986
Жанр: Hard Rock, Heavy Metal, Glam Metal
Продолжительность: 00:39:55
Кодек: FLAC
Тип битрейта: CBR
Битрейт: 897

Трек лист:
01 - The Final Countdown
02 - Rock The Night
03 - Carrie
04 - Danger On The Track
05 - Ninja
06 - Cherokee
07 - Time Has Come
08 - Heart Of Stone
09 - On The Loose
10 - Love Chaser
AUDIOCHECKER v2.0 beta (build 457) - by Dester -
~~~~~~~~~~~~~~~~~~~~~~~~~~~~~~~~~~

Путь: ...\1986 - The Final Countdown

01 -=- Europe - 1986 - The Final Countdown.flac -=- CDDA (100%)

235996340
Exact Audio Copy V0.99 prebeta 5 from 4. May 2009

Отчёт EAC об извлечении, выполненном 7. января 2010, 13:54

Europe / The Final Countdown

Дисковод: PIONEER DVD-RW DVR-216D Adapter: 4 ID: 0

Режим чтения : Достоверность
Использование точного потока : Да
Отключение кэша аудио : Да
Использование указателей C2 : Нет

Коррекция смещения при чтении : 96
Способность читать области Lead-in и Lead-out : Нет
Заполнение пропущенных сэмплов тишиной : Да
Удаление блоков с тишиной в начале и конце : Нет
При вычислениях CRC использовались нулевые сэмплы : Да
Интерфейс : Встроенный Win32-интерфейс для Win NT/2000

Выходной формат : Внутренние WAV-операции
Формат сэмплов : 44.100 Гц; 16 бит; стерео

TOC извлечённого CD

Трек | Старт | Длительность | Начальный сектор | Конечный сектор
---------------------------------------------------------------------
1 | 0:00.00 | 5:10.70 | 0 | 23319
2 | 5:10.70 | 4:03.65 | 23320 | 41609
3 | 9:14.60 | 4:30.45 | 41610 | 61904
4 | 13:45.30 | 3:45.57 | 61905 | 78836
5 | 17:31.12 | 3:46.43 | 78837 | 95829
6 | 21:17.55 | 4:13.35 | 95830 | 114839
7 | 25:31.15 | 4:01.00 | 114840 | 132914
8 | 29:32.15 | 3:46.57 | 132915 | 149921
9 | 33:18.72 | 3:08.60 | 149922 | 164081
10 | 36:27.57 | 3:27.65 | 164082 | 179671

Характеристики диапазона извлечения и сообщения об ошибках

Выбранный диапазон

Имя файла C:\Users\BDG63\Desktop\Europe - The Final Countdown.wav

Пиковый уровень 82.8 %
Качество диапазона 100.0 %
CRC копии B4203B3B
Копирование... OK

Ошибок не произошло

Конец отчёта
#777Год: 1988
Жанр: Hard Rock, Heavy Metal, Glam Metal
Продолжительность: 00:47:59
Кодек: FLAC
Тип битрейта: CBR
Битрейт: 937

Трек лист:
01 - Superstitious
02 - Let The Good Times Rock
03 - Open Your Heart
04 - More Than Meets The Eye
05 - Coast To Coast
06 - Ready Or Not
07 - Sign Of The Times
08 - Just The Beginning
09 - Never Say Die
10 - Lights And Shadows
11 - Tower's Callin'
12 - Tomorrow
AUDIOCHECKER v2.0 beta (build 457) - by Dester -
~~~~~~~~~~~~~~~~~~~~~~~~~~~~~~~~~~

Путь: ...\1988 - Out Of This World

01 -=- Europe - 1988 - Out Of This World.flac -=- MPEG (95%)

161474004
Exact Audio Copy V0.99 prebeta 5 from 4. May 2009

Отчёт EAC об извлечении, выполненном 7. января 2010, 23:09

Europe / Out of this world

Дисковод: PIONEER DVD-RW DVR-216D Adapter: 4 ID: 0

Режим чтения : Достоверность
Использование точного потока : Да
Отключение кэша аудио : Да
Использование указателей C2 : Нет

Коррекция смещения при чтении : 96
Способность читать области Lead-in и Lead-out : Нет
Заполнение пропущенных сэмплов тишиной : Да
Удаление блоков с тишиной в начале и конце : Нет
При вычислениях CRC использовались нулевые сэмплы : Да
Интерфейс : Встроенный Win32-интерфейс для Win NT/2000

Выходной формат : Внутренние WAV-операции
Формат сэмплов : 44.100 Гц; 16 бит; стерео

TOC извлечённого CD

Трек | Старт | Длительность | Начальный сектор | Конечный сектор
---------------------------------------------------------------------
1 | 0:00.00 | 4:35.12 | 0 | 20636
2 | 4:35.12 | 4:04.08 | 20637 | 38944
3 | 8:39.20 | 4:05.02 | 38945 | 57321
4 | 12:44.22 | 3:21.60 | 57322 | 72456
5 | 16:06.07 | 4:01.45 | 72457 | 90576
6 | 20:07.52 | 4:04.35 | 90577 | 108911
7 | 24:12.12 | 4:15.60 | 108912 | 128096
8 | 28:27.72 | 4:32.25 | 128097 | 148521
9 | 33:00.22 | 4:01.08 | 148522 | 166604
10 | 37:01.30 | 4:03.52 | 166605 | 184881
11 | 41:05.07 | 3:50.33 | 184882 | 202164
12 | 44:55.40 | 3:04.20 | 202165 | 215984

Характеристики диапазона извлечения и сообщения об ошибках

Выбранный диапазон

Имя файла C:\Users\BDG63\Desktop\Europe - Out of this world.wav

Пиковый уровень 99.7 %
Качество диапазона 100.0 %
CRC копии CD56C871
Копирование... OK

Ошибок не произошло

Конец отчёта
#777Год: 1991
Жанр: Hard Rock, Heavy Metal, Glam Metal
Продолжительность: 00:54:56
Кодек: FLAC
Тип битрейта: CBR
Битрейт: 1016

Трек лист:
01 - All Or Nothing
02 - Halfway To Heaven
03 - I'll Cry For You
04 - Little Bit Of Lovin'
05 - Talk To Me
06 - Seventh Sign
07 - Prisoners In Paradise
08 - Bad Blood
09 - Homeland
10 - Got Your Mind In The Gutter
11 - 'Til My Heart Beats Down Your Door
12 - Girl From Lebanon
AUDIOCHECKER v2.0 beta (build 457) - by Dester -
~~~~~~~~~~~~~~~~~~~~~~~~~~~~~~~~~~

Путь: ...\1991 - Prisoners In Paradise

01 -=- Europe - 1991 - Prisoners In Paradise.flac -=- CDDA (99%)

81051012
Exact Audio Copy V0.99 prebeta 5 from 4. May 2009

Отчёт EAC об извлечении, выполненном 7. января 2010, 23:34

Europe / Prisoners In Paradise

Дисковод: PIONEER DVD-RW DVR-216D Adapter: 4 ID: 0

Режим чтения : Достоверность
Использование точного потока : Да
Отключение кэша аудио : Да
Использование указателей C2 : Нет

Коррекция смещения при чтении : 96
Способность читать области Lead-in и Lead-out : Нет
Заполнение пропущенных сэмплов тишиной : Да
Удаление блоков с тишиной в начале и конце : Нет
При вычислениях CRC использовались нулевые сэмплы : Да
Интерфейс : Встроенный Win32-интерфейс для Win NT/2000

Выходной формат : Внутренние WAV-операции
Формат сэмплов : 44.100 Гц; 16 бит; стерео

TOC извлечённого CD

Трек | Старт | Длительность | Начальный сектор | Конечный сектор
---------------------------------------------------------------------
1 | 0:00.00 | 3:54.67 | 0 | 17616
2 | 3:54.67 | 4:06.45 | 17617 | 36111
3 | 8:01.37 | 5:21.35 | 36112 | 60221
4 | 13:22.72 | 4:48.13 | 60222 | 81834
5 | 18:11.10 | 4:06.65 | 81835 | 100349
6 | 22:18.00 | 4:42.47 | 100350 | 121546
7 | 27:00.47 | 5:36.68 | 121547 | 146814
8 | 32:37.40 | 4:19.72 | 146815 | 166311
9 | 36:57.37 | 4:51.15 | 166312 | 188151
10 | 41:48.52 | 4:59.55 | 188152 | 210631
11 | 46:48.32 | 3:47.50 | 210632 | 227706
12 | 50:36.07 | 4:20.40 | 227707 | 247246

Характеристики диапазона извлечения и сообщения об ошибках

Выбранный диапазон

Имя файла C:\Users\BDG63\Desktop\Europe - Prisoners In Paradise.wav

Пиковый уровень 95.4 %
Качество диапазона 100.0 %
CRC копии B76D50D9
Копирование... OK

Ошибок не произошло

Конец отчёта
#777Год: 1993
Жанр: Hard Rock, Heavy Metal, Glam Metal
Продолжительность: 01:16:47
Кодек: FLAC
Тип битрейта: CBR
Битрейт: 1032

Трек лист:
01 - In The Future To Come
02 - Seven Doors Hotel
03 - Stormwind
04 - Open Your Heart
05 - Scream Of Anger
06 - Dreamer
07 - The Final Countdown
08 - On Broken Wings
09 - Rock The Night
10 - Carrie
11 - Cherokee
12 - Superstitious
13 - Ready Or Not
14 - Prisoners In Paradise (single edit)
15 - I'll Cry For You (acoustic version)
16 - Sweet Love Child (previously unreleased)
17 - Yesterday's News (previously unreleased)
AUDIOCHECKER v2.0 beta (build 457) - by Dester -
~~~~~~~~~~~~~~~~~~~~~~~~~~~~~~~~~~

Путь: ...\1993 - Europe - 1982 - 1992

01 -=- Europe - 1993 - Best Of Europe (1982 - 1992).flac -=- CDDA (100%)

221185988
Exact Audio Copy V0.99 prebeta 5 from 4. May 2009

Отчёт EAC об извлечении, выполненном 8. января 2010, 12:39

Europe / Best of Europe [1982-1992]

Дисковод: PIONEER DVD-RW DVR-216D Adapter: 4 ID: 0

Режим чтения : Достоверность
Использование точного потока : Да
Отключение кэша аудио : Да
Использование указателей C2 : Нет

Коррекция смещения при чтении : 96
Способность читать области Lead-in и Lead-out : Нет
Заполнение пропущенных сэмплов тишиной : Да
Удаление блоков с тишиной в начале и конце : Нет
При вычислениях CRC использовались нулевые сэмплы : Да
Интерфейс : Встроенный Win32-интерфейс для Win NT/2000

Выходной формат : Внутренние WAV-операции
Формат сэмплов : 44.100 Гц; 16 бит; стерео

TOC извлечённого CD

Трек | Старт | Длительность | Начальный сектор | Конечный сектор
---------------------------------------------------------------------
1 | 0:02.00 | 5:02.57 | 150 | 22856
2 | 5:04.57 | 5:17.35 | 22857 | 46666
3 | 10:22.17 | 4:25.63 | 46667 | 66604
4 | 14:48.05 | 4:03.22 | 66605 | 84851
5 | 18:51.27 | 4:06.23 | 84852 | 103324
6 | 22:57.50 | 4:21.72 | 103325 | 122971
7 | 27:19.47 | 5:11.33 | 122972 | 146329
8 | 32:31.05 | 3:45.37 | 146330 | 163241
9 | 36:16.42 | 4:06.25 | 163242 | 181716
10 | 40:22.67 | 4:31.53 | 181717 | 202094
11 | 44:54.45 | 4:15.05 | 202095 | 221224
12 | 49:09.50 | 4:35.47 | 221225 | 241896
13 | 53:45.22 | 4:05.50 | 241897 | 260321
14 | 57:50.72 | 4:31.50 | 260322 | 280696
15 | 62:22.47 | 4:00.50 | 280697 | 298746
16 | 66:23.22 | 4:59.40 | 298747 | 321211
17 | 71:22.62 | 5:26.55 | 321212 | 345716

Характеристики диапазона извлечения и сообщения об ошибках

Выбранный диапазон

Имя файла C:\Users\BDG63\Desktop\Europe - Best of Europe [1982-1992].wav

Пиковый уровень 96.9 %
Качество диапазона 100.0 %
CRC копии 01C745E2
Копирование... OK

Ошибок не произошло

Конец отчёта
#777Год: 1998
Жанр: Hard Rock, Heavy Metal, Glam Metal
Продолжительность: 00:43:13
Кодек: FLAC
Тип битрейта: CBR
Битрейт: 1004

Трек лист:
01 - The Final Countdown
02 - Sign Of The Times
03 - Carrie
04 - Cherokee
05 - Time Has Come
06 - Open Your Heart
07 - Let The Good Times Rock
08 - Halfway To Heaven
09 - Tomorrow
10 - Prisoners In Paradise
AUDIOCHECKER v2.0 beta (build 457) - by Dester -
~~~~~~~~~~~~~~~~~~~~~~~~~~~~~~~~~~

Путь: ...\1998 - Collections (2005 Edit)

01 -=- Europe - 1998 - Collections.flac -=- CDDA (100%)

178187972
Exact Audio Copy V0.99 prebeta 5 from 4. May 2009

Отчёт EAC об извлечении, выполненном 8. января 2010, 18:57

Europe / Super Hits

Дисковод: Optiarc DVD RW AD-7173S Adapter: 4 ID: 1

Режим чтения : Достоверность
Использование точного потока : Да
Отключение кэша аудио : Да
Использование указателей C2 : Нет

Коррекция смещения при чтении : 48
Способность читать области Lead-in и Lead-out : Нет
Заполнение пропущенных сэмплов тишиной : Да
Удаление блоков с тишиной в начале и конце : Нет
При вычислениях CRC использовались нулевые сэмплы : Да
Интерфейс : Встроенный Win32-интерфейс для Win NT/2000

Выходной формат : Внутренние WAV-операции
Формат сэмплов : 44.100 Гц; 16 бит; стерео

TOC извлечённого CD

Трек | Старт | Длительность | Начальный сектор | Конечный сектор
---------------------------------------------------------------------
1 | 0:00.00 | 5:10.32 | 0 | 23281
2 | 5:10.32 | 4:14.23 | 23282 | 42354
3 | 9:24.55 | 4:31.20 | 42355 | 62699
4 | 13:56.00 | 4:12.37 | 62700 | 81636
5 | 18:08.37 | 4:03.55 | 81637 | 99916
6 | 22:12.17 | 4:09.20 | 99917 | 118611
7 | 26:21.37 | 4:03.40 | 118612 | 136876
8 | 30:25.02 | 4:05.70 | 136877 | 155321
9 | 34:30.72 | 3:05.38 | 155322 | 169234
10 | 37:36.35 | 5:36.55 | 169235 | 194489

Характеристики диапазона извлечения и сообщения об ошибках

Выбранный диапазон

Имя файла C:\Users\BDG63\Desktop\Europe - Super Hits.wav

Пиковый уровень 99.0 %
Качество диапазона 99.9 %
CRC копии AD6109FA
Копирование... OK

Ошибок не произошло

Конец отчёта
#777Год: 1999
Жанр: Hard Rock, Heavy Metal, Glam Metal
Продолжительность: 01:20:02
Кодек: FLAC
Тип битрейта: CBR
Битрейт: 1040

Трек лист:
01 - In The Future To Come
02 - Seven Doors Hotel
03 - Stormwind
04 - Open Your Heart
05 - Scream Of Anger
06 - Dreamer
07 - The Final Countdown
08 - On Broken Wings
09 - Rock The Night
10 - Carrie
11 - Cherokee
12 - Superstitious
13 - Ready Or Not
14 - Prisoners In Paradise
15 - I'll Cry For You
16 - Sweet Love Child
17 - Yesterday's News
18 - The Final Countdown 2000
AUDIOCHECKER v2.0 beta (build 457) - by Dester -
~~~~~~~~~~~~~~~~~~~~~~~~~~~~~~~~~~

Путь: ...\1999 - Europe - 1982-2000

01 -=- Europe - 1999 - Europe - (1982-2000).flac -=- CDDA (100%)

243276884
Exact Audio Copy V0.99 prebeta 5 from 4. May 2009

Отчёт EAC об извлечении, выполненном 8. января 2010, 22:10

Europe / Europe 1982 - 2000

Дисковод: PIONEER DVD-RW DVR-216D Adapter: 4 ID: 0

Режим чтения : Достоверность
Использование точного потока : Да
Отключение кэша аудио : Да
Использование указателей C2 : Нет

Коррекция смещения при чтении : 96
Способность читать области Lead-in и Lead-out : Нет
Заполнение пропущенных сэмплов тишиной : Да
Удаление блоков с тишиной в начале и конце : Нет
При вычислениях CRC использовались нулевые сэмплы : Да
Интерфейс : Встроенный Win32-интерфейс для Win NT/2000

Выходной формат : Внутренние WAV-операции
Формат сэмплов : 44.100 Гц; 16 бит; стерео

TOC извлечённого CD

Трек | Старт | Длительность | Начальный сектор | Конечный сектор
---------------------------------------------------------------------
1 | 0:00.00 | 5:00.62 | 0 | 22561
2 | 5:00.62 | 5:15.33 | 22562 | 46219
3 | 10:16.20 | 4:23.57 | 46220 | 66001
4 | 14:40.02 | 4:01.20 | 66002 | 84096
5 | 18:41.22 | 4:04.28 | 84097 | 102424
6 | 22:45.50 | 4:19.72 | 102425 | 121921
7 | 27:05.47 | 5:09.35 | 121922 | 145131
8 | 32:15.07 | 3:43.33 | 145132 | 161889
9 | 35:58.40 | 4:04.22 | 161890 | 180211
10 | 40:02.62 | 4:30.20 | 180212 | 200481
11 | 44:33.07 | 4:12.45 | 200482 | 219426
12 | 48:45.52 | 4:33.38 | 219427 | 239939
13 | 53:19.15 | 4:03.57 | 239940 | 258221
14 | 57:22.72 | 4:29.53 | 258222 | 278449
15 | 61:52.50 | 3:58.40 | 278450 | 296339
16 | 65:51.15 | 4:57.47 | 296340 | 318661
17 | 70:48.62 | 5:27.10 | 318662 | 343196
18 | 76:15.72 | 3:46.55 | 343197 | 360201

Характеристики диапазона извлечения и сообщения об ошибках

Выбранный диапазон

Имя файла C:\Users\BDG63\Desktop\Europe - Europe 1982 - 2000.wav

Пиковый уровень 99.5 %
Качество диапазона 99.9 %
CRC копии 00D57E68
Копирование... OK

Ошибок не произошло

Конец отчёта
#777Год: 2004
Жанр: Hard Rock, Heavy Metal, Glam Metal
Продолжительность: 01:10:41
Кодек: FLAC
Тип битрейта: CBR
Битрейт: 1033

Трек лист:
01 - Rock The Night
02 - Superstitious - Europe, Tempest, Joey
03 - I'll Cry for You
04 - Cherokee - Europe, Tempest, Joey
05 - Stormwind
06 - Sweet Love Child (Single B-Side)
07 - In the Future To Come
08 - Here Comes The Night (Outtake from Prisoners in Paradise Session)
09 - Sign Of The Times
10 - Dreamer
11 - Seventh Sign
12 - Yesterday's News
13 - Got Your Mind in the Gutter
14 - Ready Or Not
15 - Aphasia - Europe, Norum, J.
16 - Time Has Come (At Solnahallen, Stockholm 1986)
AUDIOCHECKER v2.0 beta (build 457) - by Dester -
~~~~~~~~~~~~~~~~~~~~~~~~~~~~~~~~~~

Путь: ...\CD1

01 -=- Europe - 2004 - Rock The Night - The Very Best Of Europe CD1.flac -=- CDDA (100%)

4798804
Exact Audio Copy V0.99 prebeta 5 from 4. May 2009

Отчёт EAC об извлечении, выполненном 8. января 2010, 13:50

Europe / Rock The Night - The Very Best Of Europe CD1

Дисковод: PIONEER DVD-RW DVR-216D Adapter: 4 ID: 0

Режим чтения : Достоверность
Использование точного потока : Да
Отключение кэша аудио : Да
Использование указателей C2 : Нет

Коррекция смещения при чтении : 96
Способность читать области Lead-in и Lead-out : Нет
Заполнение пропущенных сэмплов тишиной : Да
Удаление блоков с тишиной в начале и конце : Нет
При вычислениях CRC использовались нулевые сэмплы : Да
Интерфейс : Встроенный Win32-интерфейс для Win NT/2000

Выходной формат : Внутренние WAV-операции
Формат сэмплов : 44.100 Гц; 16 бит; стерео

TOC извлечённого CD

Трек | Старт | Длительность | Начальный сектор | Конечный сектор
---------------------------------------------------------------------
1 | 0:00.00 | 4:04.50 | 0 | 18349
2 | 4:04.50 | 4:34.17 | 18350 | 38916
3 | 8:38.67 | 3:59.05 | 38917 | 56846
4 | 12:37.72 | 4:10.53 | 56847 | 75649
5 | 16:48.50 | 4:29.04 | 75650 | 95828
6 | 21:17.54 | 4:56.58 | 95829 | 118086
7 | 26:14.37 | 5:01.05 | 118087 | 140666
8 | 31:15.42 | 4:26.63 | 140667 | 160679
9 | 35:42.30 | 4:15.67 | 160680 | 179871
10 | 39:58.22 | 4:27.05 | 179872 | 199901
11 | 44:25.27 | 4:41.65 | 199902 | 221041
12 | 49:07.17 | 5:26.68 | 221042 | 245559
13 | 54:34.10 | 4:59.40 | 245560 | 268024
14 | 59:33.50 | 4:05.20 | 268025 | 286419
15 | 63:38.70 | 2:30.67 | 286420 | 297736
16 | 66:09.62 | 4:31.18 | 297737 | 318079

Характеристики диапазона извлечения и сообщения об ошибках

Выбранный диапазон

Имя файла C:\Users\BDG63\Desktop\Europe - Rock The Night - The Very Best Of Europe CD1.wav

Пиковый уровень 98.8 %
Качество диапазона 100.0 %
CRC копии D94B7951
Копирование... OK

Ошибок не произошло

Конец отчёта
#777Год: 2004
Жанр: Hard Rock, Heavy Metal, Glam Metal
Продолжительность: 01:10:21
Кодек: FLAC
Тип битрейта: CBR
Битрейт: 1057

Трек лист:
01 - The Final Countdown
02 - Halfway to Heaven
03 - Open Your Heart - Europe, Tempest, Joey
04 - Long Time Coming (Single B-Side)
05 - Mr. Government Man (Outtake from Prisoners in Paradise Session)
06 - Carrie - Europe, Tempest, Joey
07 - Seven Doors Hotel (Single B-Side)
08 - Girl from Lebanon
09 - The King Will Return
10 - More Than Meets the Eye
11 - Prisoners in Paradise
12 - Wings of Tomorrow
13 - On Broken Wings
14 - Scream of Anger
15 - Heart of Stone
16 - Let the Good Times Rock (At Ahoy Stadium, Rotterdam 1989)
AUDIOCHECKER v2.0 beta (build 457) - by Dester -
~~~~~~~~~~~~~~~~~~~~~~~~~~~~~~~~~~

Путь: ...\CD2

01 -=- Europe - 2004 - Rock The Night - The Very Best Of Europe CD2.flac -=- MPEG (95%)

21666484
Exact Audio Copy V0.99 prebeta 5 from 4. May 2009

Отчёт EAC об извлечении, выполненном 8. января 2010, 14:21

Europe / Rock The Night - The Very Best Of Europe CD2

Дисковод: PIONEER DVD-RW DVR-216D Adapter: 4 ID: 0

Режим чтения : Достоверность
Использование точного потока : Да
Отключение кэша аудио : Да
Использование указателей C2 : Нет

Коррекция смещения при чтении : 96
Способность читать области Lead-in и Lead-out : Нет
Заполнение пропущенных сэмплов тишиной : Да
Удаление блоков с тишиной в начале и конце : Нет
При вычислениях CRC использовались нулевые сэмплы : Да
Интерфейс : Встроенный Win32-интерфейс для Win NT/2000

Выходной формат : Внутренние WAV-операции
Формат сэмплов : 44.100 Гц; 16 бит; стерео

TOC извлечённого CD

Трек | Старт | Длительность | Начальный сектор | Конечный сектор
---------------------------------------------------------------------
1 | 0:00.00 | 5:09.69 | 0 | 23243
2 | 5:09.69 | 4:07.43 | 23244 | 41811
3 | 9:17.37 | 4:04.58 | 41812 | 60169
4 | 13:22.20 | 3:55.22 | 60170 | 77816
5 | 17:17.42 | 3:37.00 | 77817 | 94091
6 | 20:54.42 | 4:30.40 | 94092 | 114381
7 | 25:25.07 | 5:03.13 | 114382 | 137119
8 | 30:28.20 | 4:21.57 | 137120 | 156751
9 | 34:50.02 | 5:34.70 | 156752 | 181871
10 | 40:24.72 | 3:21.18 | 181872 | 196964
11 | 43:46.15 | 5:34.07 | 196965 | 222021
12 | 49:20.22 | 3:58.18 | 222022 | 239889
13 | 53:18.40 | 3:44.45 | 239890 | 256734
14 | 57:03.10 | 4:05.30 | 256735 | 275139
15 | 61:08.40 | 3:47.02 | 275140 | 292166
16 | 64:55.42 | 5:25.35 | 292167 | 316576

Характеристики диапазона извлечения и сообщения об ошибках

Выбранный диапазон

Имя файла C:\Users\BDG63\Desktop\Europe - Rock The Night - The Very Best Of Europe CD2.wav

Пиковый уровень 98.8 %
Качество диапазона 100.0 %
CRC копии 226DF3C2
Копирование... OK

Ошибок не произошло

Конец отчёта
#777Год: 2004
Жанр: Hard Rock, Heavy Metal, Glam Metal
Продолжительность: 00:48:39
Кодек: FLAC
Тип битрейта: CBR
Битрейт: 999

Трек лист:
01 - Got To Have Faith
02 - Start From The Dark
03 - Flames
04 - Hero
05 - Wake Up Call
06 - Reason
07 - Song No. 12
08 - Roll With You
09 - Sucker
10 - Spirit Of The Underdog
11 - America
12 - Settle For Love
AUDIOCHECKER v2.0 beta (build 457) - by Dester -
~~~~~~~~~~~~~~~~~~~~~~~~~~~~~~~~~~

Путь: ...\2004 - Start From The Dark

01 -=- Europe - 2004 - Start From The Dark.flac -=- CDDA (100%)

18592324
Exact Audio Copy V0.99 prebeta 5 from 4. May 2009

Отчёт EAC об извлечении, выполненном 7. января 2010, 13:44

Europe / Start From The Dark

Дисковод: PIONEER DVD-RW DVR-216D Adapter: 4 ID: 0

Режим чтения : Достоверность
Использование точного потока : Да
Отключение кэша аудио : Да
Использование указателей C2 : Нет

Коррекция смещения при чтении : 96
Способность читать области Lead-in и Lead-out : Нет
Заполнение пропущенных сэмплов тишиной : Да
Удаление блоков с тишиной в начале и конце : Нет
При вычислениях CRC использовались нулевые сэмплы : Да
Интерфейс : Встроенный Win32-интерфейс для Win NT/2000

Выходной формат : Внутренние WAV-операции
Формат сэмплов : 44.100 Гц; 16 бит; стерео

TOC извлечённого CD

Трек | Старт | Длительность | Начальный сектор | Конечный сектор
---------------------------------------------------------------------
1 | 0:00.00 | 3:10.57 | 0 | 14306
2 | 3:10.57 | 4:12.28 | 14307 | 33234
3 | 7:23.10 | 3:55.50 | 33235 | 50909
4 | 11:18.60 | 4:15.22 | 50910 | 70056
5 | 15:34.07 | 4:14.60 | 70057 | 89166
6 | 19:48.67 | 4:37.33 | 89167 | 109974
7 | 24:26.25 | 4:09.72 | 109975 | 128721
8 | 28:36.22 | 4:30.15 | 128722 | 148986
9 | 33:06.37 | 3:42.13 | 148987 | 165649
10 | 36:48.50 | 4:25.30 | 165650 | 185554
11 | 41:14.05 | 3:35.45 | 185555 | 201724
12 | 44:49.50 | 3:49.57 | 201725 | 218956

Характеристики диапазона извлечения и сообщения об ошибках

Выбранный диапазон

Имя файла C:\Users\BDG63\Desktop\Europe - Start From The Dark.wav

Пиковый уровень 98.8 %
Качество диапазона 100.0 %
CRC копии 105B6C27
Копирование... OK

Ошибок не произошло

Конец отчёта
#777Год: 2006
Жанр: Hard Rock, Heavy Metal, Glam Metal
Продолжительность: 00:45:49
Кодек: FLAC
Тип битрейта: CBR
Битрейт: 1055

Трек лист:
01 - Secret Society
02 - Always The Pretenders
03 - Love Is Not The Enemy
04 - Wish I Could Believe
05 - Let The Children Play
06 - Human After All
07 - The Getaway Plan
08 - A Mother's Son
09 - Forever Traveling
10 - Brave And Beautiful Soul
11 - Devil Sings The Blues
AUDIOCHECKER v2.0 beta (build 457) - by Dester -
~~~~~~~~~~~~~~~~~~~~~~~~~~~~~~~~~~

Путь: ...\2006 - Secret Society

01 -=- Europe - 2006 - Secret Society.flac -=- CDDA (100%)

12813236
Exact Audio Copy V0.99 prebeta 5 from 4. May 2009

Отчёт EAC об извлечении, выполненном 7. января 2010, 13:33

Europe / Secret Society

Дисковод: PIONEER DVD-RW DVR-216D Adapter: 4 ID: 0

Режим чтения : Достоверность
Использование точного потока : Да
Отключение кэша аудио : Да
Использование указателей C2 : Нет

Коррекция смещения при чтении : 96
Способность читать области Lead-in и Lead-out : Нет
Заполнение пропущенных сэмплов тишиной : Да
Удаление блоков с тишиной в начале и конце : Нет
При вычислениях CRC использовались нулевые сэмплы : Да
Интерфейс : Встроенный Win32-интерфейс для Win NT/2000

Выходной формат : Внутренние WAV-операции
Формат сэмплов : 44.100 Гц; 16 бит; стерео

TOC извлечённого CD

Трек | Старт | Длительность | Начальный сектор | Конечный сектор
---------------------------------------------------------------------
1 | 0:00.00 | 3:34.73 | 0 | 16122
2 | 3:34.73 | 3:54.47 | 16123 | 33719
3 | 7:29.45 | 3:52.07 | 33720 | 51126
4 | 11:21.52 | 3:34.37 | 51127 | 67213
5 | 14:56.14 | 4:11.01 | 67214 | 86039
6 | 19:07.15 | 4:13.45 | 86040 | 105059
7 | 23:20.60 | 4:17.54 | 105060 | 124388
8 | 27:38.39 | 4:49.16 | 124389 | 146079
9 | 32:27.55 | 4:12.06 | 146080 | 164985
10 | 36:39.61 | 3:46.54 | 164986 | 181989
11 | 40:26.40 | 5:22.50 | 181990 | 206189

Характеристики диапазона извлечения и сообщения об ошибках

Выбранный диапазон

Имя файла C:\Users\BDG63\Desktop\Europe - Secret Society.wav

Пиковый уровень 100.0 %
Качество диапазона 100.0 %
CRC копии 884D7B52
Копирование... OK

Ошибок не произошло

Конец отчёта
#777Год: 2008
Жанр: Hard Rock, Heavy Metal, Glam Metal
Продолжительность: 01:17:47
Кодек: FLAC
Тип битрейта: CBR
Битрейт: 973

Трек лист:
01 - Got To Have Faith
02 - Forever Travelling
03 - Devil Sings The Blues
04 - Wish You Were Here
05 - Dreamer
06 - Love To Love
07 - Final Countdown
08 - Yesterday's News
09 - Since I've Been Lovin' You
10 - Hero
11 - Suicide
12 - Memories
13 - Superstitious
14 - Rock The Night
AUDIOCHECKER v2.0 beta (build 457) - by Dester -
~~~~~~~~~~~~~~~~~~~~~~~~~~~~~~~~~~

Путь: ...\2008 - Almost Unplugged

01 -=- Europe - 2008 - Almost Unplugged.flac -=- CDDA (100%)

86446116
Exact Audio Copy V0.99 prebeta 5 from 4. May 2009

Отчёт EAC об извлечении, выполненном 8. января 2010, 22:43

Europe / Almost Unplugged

Дисковод: PIONEER DVD-RW DVR-216D Adapter: 4 ID: 0

Режим чтения : Достоверность
Использование точного потока : Да
Отключение кэша аудио : Да
Использование указателей C2 : Нет

Коррекция смещения при чтении : 96
Способность читать области Lead-in и Lead-out : Нет
Заполнение пропущенных сэмплов тишиной : Да
Удаление блоков с тишиной в начале и конце : Нет
При вычислениях CRC использовались нулевые сэмплы : Да
Интерфейс : Встроенный Win32-интерфейс для Win NT/2000

Выходной формат : Внутренние WAV-операции
Формат сэмплов : 44.100 Гц; 16 бит; стерео

TOC извлечённого CD

Трек | Старт | Длительность | Начальный сектор | Конечный сектор
---------------------------------------------------------------------
1 | 0:00.00 | 4:15.27 | 0 | 19151
2 | 4:15.27 | 4:22.08 | 19152 | 38809
3 | 8:37.35 | 6:26.01 | 38810 | 67760
4 | 15:03.36 | 4:36.50 | 67761 | 88510
5 | 19:40.11 | 4:23.22 | 88511 | 108257
6 | 24:03.33 | 7:31.52 | 108258 | 142134
7 | 31:35.10 | 5:46.62 | 142135 | 168146
8 | 37:21.72 | 6:30.31 | 168147 | 197427
9 | 43:52.28 | 7:24.05 | 197428 | 230732
10 | 51:16.33 | 4:26.59 | 230733 | 250741
11 | 55:43.17 | 5:42.46 | 250742 | 276437
12 | 61:25.63 | 5:51.14 | 276438 | 302776
13 | 67:17.02 | 4:39.09 | 302777 | 323710
14 | 71:56.11 | 5:51.29 | 323711 | 350064

Характеристики диапазона извлечения и сообщения об ошибках

Выбранный диапазон

Имя файла C:\Users\BDG63\Desktop\Europe - Almost Unplugged.wav

Пиковый уровень 100.0 %
Качество диапазона 99.9 %
CRC копии 55B7473E
Копирование... OK

Ошибок не произошло

Конец отчёта
#777Год: 2009
Жанр: Hard Rock, Heavy Metal, Glam Metal
Продолжительность: 00:47:21
Кодек: FLAC
Тип битрейта: CBR
Битрейт: 1029

Трек лист:
01 - Prelude
02 - Last Look At Eden
03 - Gonna Get Ready
04 - The Beast
05 - New Love In Town
06 - Mojito Girl
07 - No Stone Unturned
08 - Catch That Plane
09 - U Devil U
10 - Only Young Twice
11 - Run With The Angels
12 - In My Time
AUDIOCHECKER v2.0 beta (build 457) - by Dester -
~~~~~~~~~~~~~~~~~~~~~~~~~~~~~~~~~~

Путь: ...\2009 - Last Look At Eden

01 -=- Europe - 2009 - Last Look At Eden.flac -=- CDDA (100%)

268349748
Exact Audio Copy V0.99 prebeta 5 from 4. May 2009

Отчёт EAC об извлечении, выполненном 8. января 2010, 11:53

Europe / Last Look At Eden

Дисковод: PIONEER DVD-RW DVR-216D Adapter: 4 ID: 0

Режим чтения : Достоверность
Использование точного потока : Да
Отключение кэша аудио : Да
Использование указателей C2 : Нет

Коррекция смещения при чтении : 96
Способность читать области Lead-in и Lead-out : Нет
Заполнение пропущенных сэмплов тишиной : Да
Удаление блоков с тишиной в начале и конце : Нет
При вычислениях CRC использовались нулевые сэмплы : Да
Интерфейс : Встроенный Win32-интерфейс для Win NT/2000

Выходной формат : Внутренние WAV-операции
Формат сэмплов : 44.100 Гц; 16 бит; стерео

TOC извлечённого CD

Трек | Старт | Длительность | Начальный сектор | Конечный сектор
---------------------------------------------------------------------
1 | 0:02.00 | 0:54.19 | 150 | 4218
2 | 0:56.19 | 3:57.45 | 4219 | 22038
3 | 4:53.64 | 3:37.21 | 22039 | 38334
4 | 8:31.10 | 4:48.64 | 38335 | 59998
5 | 13:19.74 | 3:35.21 | 59999 | 76144
6 | 16:55.20 | 3:25.36 | 76145 | 91555
7 | 20:20.56 | 3:46.23 | 91556 | 108528
8 | 24:07.04 | 4:50.25 | 108529 | 130303
9 | 28:57.29 | 3:53.20 | 130304 | 147798
10 | 32:50.49 | 4:12.20 | 147799 | 166718
11 | 37:02.69 | 4:05.23 | 166719 | 185116
12 | 41:08.17 | 6:15.24 | 185117 | 213265

Характеристики диапазона извлечения и сообщения об ошибках

Выбранный диапазон

Имя файла C:\Users\BDG63\Desktop\Europe - Last Look At Eden.wav

Пиковый уровень 100.0 %
Качество диапазона 100.0 %
CRC копии CC11F3FF
Копирование... OK

Ошибок не произошло

Конец отчёта
#777Год: 2009
Жанр: Hard Rock, Heavy Metal, Glam Metal
Продолжительность: 00:25:03
Кодек: FLAC
Тип битрейта: CBR
Битрейт: 1048

Трек лист:
01 - Last Look At Eden
02 - U Devil U
03 - Superstitious (Live)
04 - Start From The Dark (Live)
05 - Since I`ve Been Loving You (Live)
06 - Last Look At Eden (Video)
AUDIOCHECKER v2.0 beta (build 457) - by Dester -
~~~~~~~~~~~~~~~~~~~~~~~~~~~~~~~~~~

Путь: ...\2009 - Last Look At Eden EP (Limited Collector's Edition)

01 -=- Europe - 2009 - Last Look At Eden EP (Limited Collector's Edition).flac -=- CDDA (100%)

99427076
Exact Audio Copy V0.99 prebeta 5 from 4. May 2009

Отчёт EAC об извлечении, выполненном 8. января 2010, 17:52

Europe / Last Look At Eden EP

Дисковод: PIONEER DVD-RW DVR-216D Adapter: 4 ID: 0

Режим чтения : Достоверность
Использование точного потока : Да
Отключение кэша аудио : Да
Использование указателей C2 : Нет

Коррекция смещения при чтении : 96
Способность читать области Lead-in и Lead-out : Нет
Заполнение пропущенных сэмплов тишиной : Да
Удаление блоков с тишиной в начале и конце : Нет
При вычислениях CRC использовались нулевые сэмплы : Да
Интерфейс : Встроенный Win32-интерфейс для Win NT/2000

Выходной формат : Внутренние WAV-операции
Формат сэмплов : 44.100 Гц; 16 бит; стерео

TOC извлечённого CD

Трек | Старт | Длительность | Начальный сектор | Конечный сектор
---------------------------------------------------------------------
1 | 0:00.00 | 4:07.14 | 0 | 18538
2 | 4:07.14 | 4:08.72 | 18539 | 37210
3 | 8:16.11 | 4:56.22 | 37211 | 59432
4 | 13:12.33 | 4:26.06 | 59433 | 79388
5 | 17:38.39 | 7:24.36 | 79389 | 112724

Характеристики диапазона извлечения и сообщения об ошибках

Выбранный диапазон

Имя файла C:\Users\BDG63\Desktop\Europe - Last Look At Eden EP.wav

Пиковый уровень 98.8 %
Качество диапазона 100.0 %
CRC копии 24061E4F
Копирование... OK

Ошибок не произошло

Конец отчёта
Правила, инструкции, FAQ!!!
Торрент  Добавлен [21 июл 2014, 09:44] Скачать торрент Магнет ссылка
Скачать торрент
43.19 КБ

Статус
Проверен 
 
Размер  5.74 ГБ
Приватный: Нет (DHT включён)
.torrent скачан  1
Как залить торрент? | Как скачать Torrent? | Как смотреть и слушать онлайн?  
Гость
 



Вернуться в Дискографии (Зарубежные)

Кто сейчас на конференции

Сейчас этот форум просматривают: нет зарегистрированных пользователей и гости: 0