Дом-монстр в 3Д / Monster House 3D (Гил Кинан / Gil Kenan) [2006, Мультфильм, Фэнтези, Детектив, Семейный, BDrip-AVC] Half OverUnder / Вертикальная анаморфная стереопара


Статистика раздачи
Размер: 6.64 ГБ | Добавлен: 02 ноя 2014, 09:51 | Скачали: 1
Сидеров: 48  [0 байт/сек]    Личеров: 15  [0 байт/сек]

Сообщение Гость » 02 ноя 2014, 09:51

Дом-монстр
Monster House


Год выпуска: 2006
Страна: США (Columbia Pictures, ImageMovers, Amblin Entertainment)
Жанр: Мультфильм, Фэнтези, Детектив, Семейный
Продолжительность: 01:30:37
Перевод: Профессиональный (дублированный)
Русские субтитры: нет

Режиссер: Гил Кинан / Gil Kenan

Роли озвучивали: Митчел Муссо, Сэм Лернер, Спенсер Лок, Стив Бушеми, Кэтрин О’Хара, Фред Уиллард, Мэгги Джилленхол, Джейсон Ли, Кэтлин Тёрнер

Роли дублировали: Борис Улитин, Валерий Соловьев, Елизавета Захарьева, Алексей Гурьев, Александр Машанов

Описание: Хорошо быть мальчишкой. Каждый день, как вся жизнь! Столько всего вокруг: девчонки, мороженое, драки, учебники, футбол. Насыщенный день, короче, получается. А вот если ты однажды обнаружил, что дом, который стоит по соседству с домом твоей семьи — вовсе не дом… А попросту говоря — монстр. Чудовище, в общем. Такие дела.
Ну вот, история эта про то, как три приятеля — ДиДжей, Чёдер и Дженни — обнаружили, что дом, находящийся неподалеку, самый настоящий монстр. Только никто им не верил. Мало ли, чего навыдумывают дети… Только зря они так. Ребята их предупреждали…

Проверено на встроенном плейере ТВ Samsung UE-C7000


Качество: BDrip
Контейнер: MKV
Формат 3D: Half OverUnder / Вертикальная анаморфная стереопара
Порядок ракурсов: левый ракурс первый
Видео кодек: x264
Аудио кодек: AC3
Видео: AVC / 1920х1080p / 23,976 fps / 9 197 Kbps
Аудио#1: Русский / AC3 / 48 KHz / 5.1 ch / 448 Kbps
Аудио#2: Английский / AC3 / 48 KHz / 5.1 ch / 640 Kbps
Субтитры: Отсутствуют
General
UniqueID : 191492248039020354158950060770612580321 (0x901010C218092B4B9DFB04A9D05D8FE1)
Complete name : F:\Downloads\MonsterHouse-3D.2006.halfOU.AC3(ash61).mkv
Format : Matroska
File size : 6.64 GiB
Duration : 1h 30mn
Overall bit rate : 10.5 Mbps
Movie name : Monster House (ash61)
Encoded date : UTC 2011-11-25 21:40:49
Writing application : mkvmerge v3.4.0 ('Rapunzel') сборка от May 15 2010 09:38:20
Writing library : libebml v0.8.0 + libmatroska v0.9.0

Video
ID : 1
Format : AVC
Format/Info : Advanced Video Codec
Format profile : High@L4.1
Format settings, CABAC : Yes
Format settings, ReFrames : 4 frames
Format settings, GOP : M=7, N=16
Codec ID : V_MPEG4/ISO/AVC
Duration : 1h 30mn
Bit rate : 9 197 Kbps
Width : 1 920 pixels
Height : 1 080 pixels
Display aspect ratio : 16:9
Frame rate : 23.976 fps
Color space : YUV
Chroma subsampling : 4:2:0
Bit depth : 8 bits
Scan type : Progressive
Bits/(Pixel*Frame) : 0.185
Stream size : 5.82 GiB (88%)
Title : BDrip by Ash61
Writing library : x264 core 113 r1884 7313bb5
Encoding settings : cabac=1 / ref=4 / deblock=1:-3:-3 / analyse=0x3:0x113 / me=umh / subme=9 / psy=1 / psy_rd=1.00:0.15 / mixed_ref=1 / me_range=16 / chroma_me=1 / trellis=2 / 8x8dct=1 / cqm=0 / deadzone=21,11 / fast_pskip=1 / chroma_qp_offset=-3 / threads=3 / sliced_threads=0 / nr=0 / decimate=1 / interlaced=0 / constrained_intra=0 / bframes=6 / b_pyramid=2 / b_adapt=1 / b_bias=0 / direct=1 / weightb=1 / open_gop=0 / weightp=2 / keyint=250 / keyint_min=23 / scenecut=40 / intra_refresh=0 / rc_lookahead=60 / rc=crf / mbtree=1 / crf=17.0 / qcomp=0.70 / qpmin=0 / qpmax=69 / qpstep=4 / ip_ratio=1.40 / aq=1:0.70

Audio #1
ID : 2
Format : AC-3
Format/Info : Audio Coding 3
Mode extension : CM (complete main)
Codec ID : A_AC3
Duration : 1h 30mn
Bit rate mode : Constant
Bit rate : 448 Kbps
Channel(s) : 6 channels
Channel positions : Front: L C R, Side: L R, LFE
Sampling rate : 48.0 KHz
Bit depth : 16 bits
Compression mode : Lossy
Stream size : 290 MiB (4%)
Language : Russian

Audio #2
ID : 3
Format : AC-3
Format/Info : Audio Coding 3
Mode extension : CM (complete main)
Codec ID : A_AC3
Duration : 1h 30mn
Bit rate mode : Constant
Bit rate : 640 Kbps
Channel(s) : 6 channels
Channel positions : Front: L C R, Side: L R, LFE
Sampling rate : 48.0 KHz
Bit depth : 16 bits
Compression mode : Lossy
Stream size : 415 MiB (6%)
Language : English

Menu
00:00:00.000 : :01
00:06:34.769 : :02
00:13:36.274 : :03
00:16:45.755 : :04
00:20:24.223 : :05
00:23:59.688 : :06
00:26:36.553 : :07
00:33:04.274 : :08
00:39:17.397 : :09
00:46:21.028 : :10
00:53:41.468 : :11
01:00:23.411 : :12
01:05:40.937 : :13
01:08:35.445 : :14
01:13:03.212 : :15
01:16:55.778 : :16
Правила, инструкции, FAQ!!!
Торрент  Добавлен [02 ноя 2014, 09:51] Скачать торрент Магнет ссылка
Скачать торрент
33.72 КБ

Статус
Проверен 
 
Размер  6.64 ГБ
Приватный: Нет (DHT включён)
.torrent скачан  1
Как залить торрент? | Как скачать Torrent? | Как смотреть и слушать онлайн?  
Гость
 



Вернуться в HD-Video в 3D

Кто сейчас на конференции

Сейчас этот форум просматривают: нет зарегистрированных пользователей и гости: 2