Добро пожаловать в рай / Vice (2015) WEB-DLRip | L2

Статистика раздачи
Размер: 1.31 ГБ | Добавлен: 20 янв 2015, 17:49 | Скачали: 5
Сидеров: 21  [0 байт/сек]    Личеров: 2417  [0 байт/сек]

Сообщение Гость » 20 янв 2015, 17:49

Название: Добро пожаловать в рай
Оригинальное название: Vice
Год выпуска: 2015
Жанр: Фантастика, боевик, триллер, приключения
Выпущено: США, Aperture Entertainment, Emmett/Furla Films
Режиссер: Брайан А Миллер
В ролях: Томас Джейн, Брюс Уиллис, Эмбир Чилдерс, Брайан Гринберг, Джонатон Шек, Шарлотта Кирк, Бретт Гранстафф, Райан О’Нан, Дэвид Гордон, Колин Эглсфилд

О фильме:
Действие происходит в относительно недалеком будущем, когда для богачей создан специальный город-курорт, основные обитатели которых и обслуга — андроиды. Туристы за соответствующую цену могут осуществить здесь самые безумные свои фантазии, а андроиды, пострадавшие от рук людей, направляются на перезагрузку памяти. Но однажды случается сбой, и женщина-андроид обретает память о всех кошмарах, которым богатые извращенцы подвергали ее и остальных искусственных людей. И она решает отомстить…




Качество: WEB-DLRip
Видео: XviD, 1748 Кбит/с, 720x304
Аудио: AC3, 2 ch, 192 Кбит/с
Продолжительность: 01:36:21
Перевод: Любительский двухголосый [RAIM & GUGU]

Семпл

General
Complete name : Vice.2015.HDRip.XviD.avi
Format : AVI
Format/Info : Audio Video Interleave
File size : 1.31 GiB
Duration : 1h 36mn
Overall bit rate : 1 950 Kbps
Writing application : VirtualDubMod 1.5.10.2 (build 2542/release)
Writing library : VirtualDubMod build 2542/release

Video
ID : 0
Format : MPEG-4 Visual
Format profile : Advanced Simple@L5
Format settings, BVOP : 2
Format settings, QPel : No
Format settings, GMC : No warppoints
Format settings, Matrix : Default (H.263)
Muxing mode : Packed bitstream
Codec ID : XVID
Codec ID/Hint : XviD
Duration : 1h 36mn
Bit rate : 1 672 Kbps
Width : 720 pixels
Height : 304 pixels
Display aspect ratio : 2.35:1
Frame rate : 23.976 fps
Color space : YUV
Chroma subsampling : 4:2:0
Bit depth : 8 bits
Scan type : Progressive
Compression mode : Lossy
Bits/(Pixel*Frame) : 0.319
Stream size : 1.13 GiB (86%)
Writing library : XviD 64

Audio
ID : 1
Format : AC-3
Format/Info : Audio Coding 3
Mode extension : CM (complete main)
Format settings, Endianness : Big
Codec ID : 2000
Duration : 1h 36mn
Bit rate mode : Constant
Bit rate : 192 Kbps
Channel(s) : 2 channels
Channel positions : Front: L R
Sampling rate : 48.0 KHz
Bit depth : 16 bits
Compression mode : Lossy
Stream size : 132 MiB (10%)
Alignment : Split accross interleaves
Правила, инструкции, FAQ!!!
Торрент  Добавлен [20 янв 2015, 17:49]

Статус
Проверен 
 
Размер  1.31 ГБ
Приватный: Нет (DHT включён)
.torrent скачан  5
Как залить торрент? | Как скачать Torrent? | Как смотреть и слушать онлайн?  
Гость
 


  • Похожие торренты
    Ответы
    Просмотры
    Последнее сообщение

Вернуться в Новинки кино

Кто сейчас на конференции

Сейчас этот форум просматривают: нет зарегистрированных пользователей и гости: 0