Die Happy - 8 альбомов (2001-2010) Дискография [FLAC|Lossless]<Alt.Rock | Female Vocal>


Статистика раздачи
Размер: 2.94 ГБ | Добавлен: 16 мар 2014, 00:45 | Скачали: 0
Сидеров: 2  [0 байт/сек]    Личеров: 94  [0 байт/сек]

Сообщение Гость » 16 мар 2014, 00:45


Die Happy
- 8 альбомов





Год выпуска: 2001-2010
Жанр: Alt.Rock | Female Vocal
Продолжительность: 06:54:34
Тип издания: Дискография
Страна: Германия



Треклист:

01. If
02. Go for It
03. One Million Times
04. Violent Dreams
05. Supersonic Speed
06. Happy Now
07. 5 PM
08. Wasted
09. Higher Ground
10. Like a Flower
11. Show Me Heaven
12. Fortune
13. Now or Never

Продолжительность: 00:51:10

Код:
Код: Выделить всё
Exact Audio Copy V1.0 beta 3 from 29. August 2011

Отчёт EAC об извлечении, выполненном 15. сентября 2012, 18:13

Die Happy / Supersonic Speed

Дисковод: HL-DT-STDVDRAM GE20NU11   Adapter: 1  ID: 0

Режим чтения                 : Достоверность
Использование точного потока : Да
Отключение кэша аудио        : Да
Использование указателей C2  : Нет

Коррекция смещения при чтении                     : 667
Способность читать области Lead-in и Lead-out     : Нет
Заполнение пропущенных сэмплов тишиной            : Да
Удаление блоков с тишиной в начале и конце        : Нет
При вычислениях CRC использовались нулевые сэмплы : Да
Интерфейс                                         : Встроенный Win32-интерфейс для Win NT/2000

Выходной формат          : Пользовательский кодировщик
Выбранный битрейт        : 1024 kBit/s
Качество                 : Высокий
Добавление ID3-тега      : Нет
Утилита сжатия           : C:\FLAC\flac.exe
Дополнительные параметры : -V -8 -T "DATE=%year%" -T "GENRE=%genre%" -T "ARTIST=%artist%" %source%

TOC извлечённого CD

     Трек |   Старт  | Длительность | Начальный сектор | Конечный сектор
    ---------------------------------------------------------------------
       1  |  0:00.32 |    4:30.18   |          32      |      20299
       2  |  4:30.50 |    4:02.67   |       20300      |      38516
       3  |  8:33.42 |    3:58.03   |       38517      |      56369
       4  | 12:31.45 |    3:52.67   |       56370      |      73836
       5  | 16:24.37 |    3:36.68   |       73837      |      90104
       6  | 20:01.30 |    4:28.67   |       90105      |     110271
       7  | 24:30.22 |    3:46.63   |      110272      |     127284
       8  | 28:17.10 |    4:17.40   |      127285      |     146599
       9  | 32:34.50 |    3:56.22   |      146600      |     164321
      10  | 36:30.72 |    3:14.65   |      164322      |     178936
      11  | 39:45.62 |    3:47.50   |      178937      |     196011
      12  | 43:33.37 |    4:31.45   |      196012      |     216381
      13  | 48:05.07 |    3:15.35   |      216382      |     231041

Характеристики диапазона извлечения и сообщения об ошибках

Выбранный диапазон

     Имя файла D:\flac\Die Happy\2001 - Die Happy - Spersonic Speed\Die Happy - Supersonic Speed.wav

     Пиковый уровень 99.0 %
     Скорость извлечения 1.7 X
     Качество диапазона 100.0 %
     CRC теста B84C21B3
     CRC копии B84C21B3
     Копирование... OK

Ошибок не произошло

AccurateRip: сводка

Трек  1  : извлечено точно (доверие 7)  [B8784135]  (AR v1)
Трек  2  : извлечено точно (доверие 7)  [2EED1786]  (AR v1)
Трек  3  : извлечено точно (доверие 7)  [CC387F71]  (AR v1)
Трек  4  : извлечено точно (доверие 7)  [72250762]  (AR v1)
Трек  5  : извлечено точно (доверие 7)  [A64EE75A]  (AR v1)
Трек  6  : извлечено точно (доверие 7)  [8AB51A6E]  (AR v1)
Трек  7  : извлечено точно (доверие 7)  [65A99DD7]  (AR v1)
Трек  8  : извлечено точно (доверие 7)  [1A972EB3]  (AR v1)
Трек  9  : извлечено точно (доверие 7)  [5B9F0C9A]  (AR v1)
Трек 10  : извлечено точно (доверие 7)  [271C2F9C]  (AR v1)
Трек 11  : извлечено точно (доверие 7)  [C6DB383B]  (AR v1)
Трек 12  : извлечено точно (доверие 7)  [D836AD22]  (AR v1)
Трек 13  : извлечено точно (доверие 7)  [6489C946]  (AR v1)

Все треки извлечены точно

Конец отчёта

---- CUETools DB Plugin V2.1.3

[CTDB TOCID: Xp9lNA5wLqNbCaHlLNgWO0cOtwA-] disk not present in database, Submit result: discs with pregaps not supported in this protocol version

==== Контрольная сумма отчёта A967C33E714967F6E94EEC4F3A181A37F39478310C54B0EA19650F5D1D16FD02 ====

Код:
Код: Выделить всё
-----------------------

DON'T MODIFY THIS FILE

-----------------------

PERFORMER: auCDtect Task Manager, ver. 1.6.0 RC1 build 1.6.0.1
Copyright (c) 2008-2010 y-soft. All rights reserved
http:/y-soft.org

ANALYZER: auCDtect: CD records authenticity detector, version 0.8.2
Copyright (c) 2004 Oleg Berngardt. All rights reserved.
Copyright (c) 2004 Alexander Djourik. All rights reserved.

FILE: 13.Die Happy - Now or Never.flac
  Size: 20579190 Hash: 7255F227DC740CA431E7FC1A15AAE5AD Accuracy: -m0
  Conclusion: CDDA 100%
  Signature: F596B04E265D1FBC36D0071C94651615676ADAE4
FILE: 12.Die Happy - Fortune.flac
  Size: 33504995 Hash: 822ADEF762AD19CAF2698F03DC13B9E0 Accuracy: -m0
  Conclusion: CDDA 100%
  Signature: 95EC4F5EB85C8A2FB07D5A1C77E2A166CDEFFB63
FILE: 11.Die Happy - Show Me Heaven.flac
  Size: 28688471 Hash: C0969BFA945B3943FF841D608444ED05 Accuracy: -m0
  Conclusion: CDDA 100%
  Signature: F3D8216C7315EB836928AB87DED4B9681677F57B
FILE: 10.Die Happy - Like a Flower.flac
  Size: 25345957 Hash: 928F1214223193B3BF41121B298464CE Accuracy: -m0
  Conclusion: CDDA 100%
  Signature: A55929D2B480D1BEA04B0EDE685E4E91CEFBA6AD
FILE: 09.Die Happy - Higher Ground.flac
  Size: 30000651 Hash: CA4D8B2889823E537324E69A081677D1 Accuracy: -m0
  Conclusion: CDDA 100%
  Signature: 7FFD94DEE8E74155AB656DB139295351E3E89A37
FILE: 08.Die Happy - Wasted.flac
  Size: 32661221 Hash: FB1E7C80947E4D2E23D919B9D7AF26D1 Accuracy: -m0
  Conclusion: CDDA 99%
  Signature: 55850AB02B3F244E10770ED9377410A2823517C7
FILE: 07.Die Happy - 5 PM.flac
  Size: 27634455 Hash: E01C3F52EED868B474685E8BA94C83F4 Accuracy: -m0
  Conclusion: CDDA 100%
  Signature: 294F8BE77A06C50A087E4AD18BBD38C6979013EA
FILE: 06.Die Happy - Happy Now.flac
  Size: 32613093 Hash: 42B8E83DD4B2D917C30AB0217FC21FB7 Accuracy: -m0
  Conclusion: CDDA 100%
  Signature: 2059EBF05F66D0BBDF684DE704CD2B745B5483C6
FILE: 05.Die Happy - Supersonic Speed.flac
  Size: 28650398 Hash: 4B6C99B6378D85E50771329CB242409B Accuracy: -m0
  Conclusion: CDDA 100%
  Signature: 4A89BB3029413A902740407FDFC170CFBF0A40B3
FILE: 04.Die Happy - Violent Dreams.flac
  Size: 27696200 Hash: 62A18641FC545271956A42577328DA29 Accuracy: -m0
  Conclusion: CDDA 100%
  Signature: 4C2DEB467DC9D4E8BBEB0AD243B7BC1E836680EC
FILE: 03.Die Happy - One Million Times.flac
  Size: 30149688 Hash: 701DD239F8D50C1ADDAAC1758B657230 Accuracy: -m0
  Conclusion: CDDA 100%
  Signature: 7C0DFB0E9ED758C486BBDCD017A1775AC52C3738
FILE: 02.Die Happy - Go for It.flac
  Size: 31265240 Hash: 5BF72A3230FEF038B8432C9977E85126 Accuracy: -m0
  Conclusion: CDDA 100%
  Signature: 9082B425FACEA8E41E4D342F91C78EBB601D1DEA
FILE: 01.Die Happy - If.flac
  Size: 35835995 Hash: 15AB3DE76AC5E6F58013D31FD4E0CB7F Accuracy: -m0
  Conclusion: CDDA 100%
  Signature: 6A738BA5535341C7EF48CA1E29154FD50BE5FB01


#777Треклист:

01. Paralyzed
02. Not That Kind of Girl
03. Goodbye
04. Human Being
05. Cry for More
06. Sleeping Time
07. Leaving You
08. I Remember
09. It's All Over
10. Adam's Eyes
11. Undercover Genius
12. Greathing

Продолжительность: 00:47:58


Код:
Код: Выделить всё
Exact Audio Copy V1.0 beta 3 from 29. August 2011

Отчёт EAC об извлечении, выполненном 15. сентября 2012, 19:16

Die Happy / Beautiful Morning

Дисковод: HL-DT-STDVDRAM GE20NU11   Adapter: 1  ID: 0

Режим чтения                 : Достоверность
Использование точного потока : Да
Отключение кэша аудио        : Да
Использование указателей C2  : Нет

Коррекция смещения при чтении                     : 667
Способность читать области Lead-in и Lead-out     : Нет
Заполнение пропущенных сэмплов тишиной            : Да
Удаление блоков с тишиной в начале и конце        : Нет
При вычислениях CRC использовались нулевые сэмплы : Да
Интерфейс                                         : Встроенный Win32-интерфейс для Win NT/2000

Выходной формат          : Пользовательский кодировщик
Выбранный битрейт        : 1024 kBit/s
Качество                 : Высокий
Добавление ID3-тега      : Нет
Утилита сжатия           : C:\FLAC\flac.exe
Дополнительные параметры : -V -8 -T "DATE=%year%" -T "GENRE=%genre%" -T "ARTIST=%artist%" %source%

TOC извлечённого CD

     Трек |   Старт  | Длительность | Начальный сектор | Конечный сектор
    ---------------------------------------------------------------------
       1  |  0:00.00 |    4:05.38   |           0      |      18412
       2  |  4:05.38 |    4:01.07   |       18413      |      36494
       3  |  8:06.45 |    3:42.25   |       36495      |      53169
       4  | 11:48.70 |    3:56.63   |       53170      |      70932
       5  | 15:45.58 |    3:54.72   |       70933      |      88554
       6  | 19:40.55 |    4:08.73   |       88555      |     107227
       7  | 23:49.53 |    3:54.52   |      107228      |     124829
       8  | 27:44.30 |    4:49.25   |      124830      |     146529
       9  | 32:33.55 |    3:56.28   |      146530      |     164257
      10  | 36:30.08 |    4:30.15   |      164258      |     184522
      11  | 41:00.23 |    3:49.35   |      184523      |     201732
      12  | 44:49.58 |    3:08.63   |      201733      |     215895

Характеристики диапазона извлечения и сообщения об ошибках

Выбранный диапазон

     Имя файла D:\flac\Die Happy\2002 - Die Happy - Beautiful Morning\Die Happy - Beautiful Morning.wav

     Пиковый уровень 98.8 %
     Скорость извлечения 1.7 X
     Качество диапазона 100.0 %
     CRC теста ED4DC503
     CRC копии ED4DC503
     Копирование... OK

Ошибок не произошло

AccurateRip: сводка

Трек  1  : извлечено точно (доверие 5)  [2C2C778B]  (AR v2)
Трек  2  : извлечено точно (доверие 5)  [31F4A0B5]  (AR v2)
Трек  3  : извлечено точно (доверие 5)  [8D2BB531]  (AR v2)
Трек  4  : извлечено точно (доверие 5)  [ED6A5B90]  (AR v2)
Трек  5  : извлечено точно (доверие 5)  [B166B95F]  (AR v2)
Трек  6  : извлечено точно (доверие 5)  [75E2046D]  (AR v2)
Трек  7  : извлечено точно (доверие 5)  [D036AB6A]  (AR v2)
Трек  8  : извлечено точно (доверие 5)  [3D442346]  (AR v2)
Трек  9  : извлечено точно (доверие 5)  [A88AF047]  (AR v2)
Трек 10  : извлечено точно (доверие 5)  [3BFC78A2]  (AR v2)
Трек 11  : извлечено точно (доверие 5)  [3670C7AF]  (AR v2)
Трек 12  : извлечено точно (доверие 5)  [352F0034]  (AR v2)

Все треки извлечены точно

Конец отчёта

---- CUETools DB Plugin V2.1.3

[CTDB TOCID: UAJFi0ecHBIPCZx1TG5wemNWFrI-] found, Submit result: UAJFi0ecHBIPCZx1TG5wemNWFrI- has been confirmed
[6619ed3c] (7/8) Accurately ripped
[e356b4eb] (1/8) No match

==== Контрольная сумма отчёта 533E895865C70CE796353286066783A874D1B33B1E6826C8B885601DD9D2927B ====


Код:
Код: Выделить всё
-----------------------

DON'T MODIFY THIS FILE

-----------------------

PERFORMER: auCDtect Task Manager, ver. 1.6.0 RC1 build 1.6.0.1
Copyright (c) 2008-2010 y-soft. All rights reserved
http:/y-soft.org

ANALYZER: auCDtect: CD records authenticity detector, version 0.8.2
Copyright (c) 2004 Oleg Berngardt. All rights reserved.
Copyright (c) 2004 Alexander Djourik. All rights reserved.

FILE: 12.Die Happy - Greathing.flac
  Size: 22240894 Hash: 91FE9BE94BBF53C58FDF384D3475103B Accuracy: -m0
  Conclusion: CDDA 100%
  Signature: D52346DD5AC5EE07A4FAB23FC9C10132A4F4B02A
FILE: 11.Die Happy - Undercover Genius.flac
  Size: 30838142 Hash: 9168B2BCF16B5C143EE334EEFCBABEB9 Accuracy: -m0
  Conclusion: CDDA 100%
  Signature: 6789AA02064F876076197B0DDAD02725958BEE23
FILE: 10.Die Happy - Adam's Eyes.flac
  Size: 33253256 Hash: 5C69DD2C3CAA0B8C50712C550117C2F8 Accuracy: -m0
  Conclusion: CDDA 100%
  Signature: E3E24622FC64A3380DF40C62D181C8B8F43F6B61
FILE: 09.Die Happy - It's All Over.flac
  Size: 30931572 Hash: C2CCC1CC6C64D4D7530BCE7F403DE0BC Accuracy: -m0
  Conclusion: CDDA 99%
  Signature: F9D01311968F1144254FB75F7A756040C53156A9
FILE: 08.Die Happy - I Remember.flac
  Size: 34981791 Hash: DE10EC6EB441C0D2D8101A4240EA12D0 Accuracy: -m0
  Conclusion: CDDA 100%
  Signature: E2BF6FCF7D512EF7EFA8D5E20B7537CC83C609CF
FILE: 07.Die Happy - Leaving You.flac
  Size: 30589386 Hash: 47807AB1DA04556B055B4DFF0FD7F212 Accuracy: -m0
  Conclusion: CDDA 100%
  Signature: C89F4943BBB88EC465C98925F037E13904DC9AA9
FILE: 06.Die Happy - Sleeping Time.flac
  Size: 31944761 Hash: 35664E2772DD5667F9081C46F51AFE26 Accuracy: -m0
  Conclusion: CDDA 100%
  Signature: 590EF824751F2C61C0D761CDCDF43A12E8AD722B
FILE: 05.Die Happy - Cry for More.flac
  Size: 27553019 Hash: B3121C1281360A9273E1CDBCA90D9615 Accuracy: -m0
  Conclusion: CDDA 100%
  Signature: B07E4E6ECA51F3BEC52F89C700B43A76B05D4306
FILE: 04.Die Happy - Human Being.flac
  Size: 30473147 Hash: 99DA2D6C94877505C44A7D7B4ECB1F06 Accuracy: -m0
  Conclusion: CDDA 100%
  Signature: 2E14FD5965264B5932B44D4C69F34DD715BBA1FA
FILE: 03.Die Happy - Goodbye.flac
  Size: 28072939 Hash: D5859C3AEB39E630012C4C538E9C0F19 Accuracy: -m0
  Conclusion: CDDA 100%
  Signature: 50AEA7C19A1D0B2CD2B6A055F68C777B1A090671
FILE: 02.Die Happy - Not That Kind of Girl.flac
  Size: 31143626 Hash: 83385390FF348CC0A3B617CB9F2282FA Accuracy: -m0
  Conclusion: CDDA 100%
  Signature: ACF283CAA9744875B364D1DD20150E64EB6ED563
FILE: 01.Die Happy - Paralyzed.flac
  Size: 32892286 Hash: D82FC2A6E7D046B72B6D450ADEE70C69 Accuracy: -m0
  Conclusion: CDDA 100%
  Signature: B0A6B348434EFC2A4EAC4DE673383924CD1F95E0



#777Треклист:

01. Take You On A Ride (Superficial Show)
02. Big Boy
03. Good Friend
04. Slow Day
05. Get Up
06. Everyday's A Weekend
07. Wrong
08. Your Soul Is A Pilot
09. Standing Strong
10. Mannequin
11. There You Are
12. Worlds Away

Продолжительность: 00:45:40


Код:
Код: Выделить всё
Exact Audio Copy V0.99 prebeta 4 from 23. January 2008

Отчёт EAC об извлечении, выполненном 11. марта 2008, 19:53

Die Happy / The Weight Of The Circumstances

Дисковод: TSSTcorpCD/DVDW SH-S182D   Adapter: 0  ID: 1

Режим чтения                 : Достоверность
Использование точного потока : Да
Отключение кэша аудио        : Да
Использование указателей C2  : Нет

Коррекция смещения при чтении                     : 6
Способность читать области Lead-in и Lead-out     : Нет
Заполнение пропущенных сэмплов тишиной            : Да
Удаление блоков с тишиной в начале и конце        : Нет
При вычислениях CRC использовались нулевые сэмплы : Нет
Интерфейс                                         : Встроенный Win32-интерфейс для Win NT/2000

Выходной формат          : Пользовательский кодировщик
Выбранный битрейт        : 1024 kBit/s
Качество                 : Высокий
Добавление ID3-тэга      : Да
Утилита сжатия           : C:\Program Files\Exact Audio Copy\FLAC\FLAC.EXE
Дополнительные параметры : -6 -V -T "ARTIST=%a" -T "TITLE=%t" -T "ALBUM=%g" -T "DATE=%y" -T "TRACKNUMBER=%n" -T "GENRE=%m" -T "COMMENT=%e" %s -o %d

TOC извлечённого CD

     Трек |   Старт  | Длительность | Начальный сектор | Конечный сектор
    ---------------------------------------------------------------------
       1  |  0:00.00 |    4:38.73   |           0      |      20922
       2  |  4:38.73 |    3:17.57   |       20923      |      35754
       3  |  7:56.55 |    4:05.43   |       35755      |      54172
       4  | 12:02.23 |    3:55.60   |       54173      |      71857
       5  | 15:58.08 |    3:23.32   |       71858      |      87114
       6  | 19:21.40 |    3:18.10   |       87115      |     101974
       7  | 22:39.50 |    4:14.63   |      101975      |     121087
       8  | 26:54.38 |    4:07.00   |      121088      |     139612
       9  | 31:01.38 |    3:28.60   |      139613      |     155272
      10  | 34:30.23 |    3:54.35   |      155273      |     172857
      11  | 38:24.58 |    3:17.30   |      172858      |     187662
      12  | 41:42.13 |    3:58.12   |      187663      |     205524

Характеристики диапазона извлечения и сообщения об ошибках

Выбранный диапазон

     Имя файла M:\Music\Die Happy\The Weight of the circumstances\Die Happy - The Weight Of The Circumstances.wav

     Пиковый уровень 99.8 %
     Качество диапазона 100.0 %
     CRC копии 1B14FEB1
     Копирование... OK

Ошибок не произошло

Конец отчёта

Код:
Код: Выделить всё
-----------------------

DON'T MODIFY THIS FILE

-----------------------

PERFORMER: auCDtect Task Manager, ver. 1.6.0 RC1 build 1.6.0.1
Copyright (c) 2008-2010 y-soft. All rights reserved
http:/y-soft.org

ANALYZER: auCDtect: CD records authenticity detector, version 0.8.2
Copyright (c) 2004 Oleg Berngardt. All rights reserved.
Copyright (c) 2004 Alexander Djourik. All rights reserved.

FILE: 12.Die Happy - Worlds Away.flac
  Size: 31287948 Hash: 80B1DA65E4F301F023F1B9569E198FB0 Accuracy: -m0
  Conclusion: CDDA 100%
  Signature: BDF3D202CC5DDD8EBDE1B97377FF8293C001E1CF
FILE: 11.Die Happy - There You Are.flac
  Size: 24817371 Hash: 9E28C8B195D1B710F5DB02D0BAF1C45B Accuracy: -m0
  Conclusion: CDDA 100%
  Signature: 65809F573D5D40E910D50C9F72BCA7E816EEA0E7
FILE: 10.Die Happy - Mannequin.flac
  Size: 30421507 Hash: 336C27CAC03F4410325B0E4B5848D243 Accuracy: -m0
  Conclusion: CDDA 100%
  Signature: B2BC0C37B93E9A4744824DFDE5EDB06E4D96804D
FILE: 09.Die Happy - Standing Strong.flac
  Size: 27039614 Hash: E423B67890FC99F39EFC53F3B42BA447 Accuracy: -m0
  Conclusion: CDDA 99%
  Signature: 7B5EAA454B7B3C02270C2637671898B15880110A
FILE: 08.Die Happy - Your Soul Is A Pilot.flac
  Size: 31771697 Hash: 0CB41127568F2856C036F84E59BDD16C Accuracy: -m0
  Conclusion: CDDA 100%
  Signature: A8762C85A3AB7E811A9FE2F6D0213ED1ECFDB679
FILE: 07.Die Happy - Wrong.flac
  Size: 31455289 Hash: 36F98DC6FE6026553BA64F57B2FE5504 Accuracy: -m0
  Conclusion: CDDA 100%
  Signature: AD32DD4B4AB1BEF4E070CC64D61AE25DF8707BF4
FILE: 06.Die Happy - Everyday's A Weekend.flac
  Size: 25789154 Hash: 24E9C286EAA6C8B891AA70B3D3E3FA01 Accuracy: -m0
  Conclusion: CDDA 99%
  Signature: 15E2B06C999E7F5B7D4F6F738B80CB540E68E633
FILE: 05.Die Happy - Get Up.flac
  Size: 27651759 Hash: 942231EB77300427926AB4CB3DF9B6A8 Accuracy: -m0
  Conclusion: CDDA 100%
  Signature: 62795C8BDDF8491EB5049B0EAAB25A72BDBFAE3D
FILE: 04.Die Happy - Slow Day.flac
  Size: 28474210 Hash: DFFACA89FD7F3ACAB4A473293A850E1D Accuracy: -m0
  Conclusion: CDDA 100%
  Signature: FA7FBAAEE0F38B6A89692AC3DD0AE4C6AA41DDBC
FILE: 03.Die Happy - Good Friend.flac
  Size: 32020706 Hash: 327206E0EB1CEA084FDA5F7C763022F1 Accuracy: -m0
  Conclusion: CDDA 100%
  Signature: DCCDB932439366CE61FBC491F0C93817C00DDC08
FILE: 02.Die Happy - Big Boy.flac
  Size: 26382183 Hash: 48101DAC249E4D26D7BB01BCC5F7E7F1 Accuracy: -m0
  Conclusion: CDDA 100%
  Signature: CC52E9C65F87AE53B26F4917B4B8455A061D7374
FILE: 01.Die Happy - Take You On A Ride (Superficial Show).flac
  Size: 35740262 Hash: 00DFE516049B7E87E96AB3FB334A38DC Accuracy: -m0
  Conclusion: CDDA 99%
  Signature: D651903100E363E7163BE3B25F964016AE4E7CA6



#777Треклист:

01. Take You On A Ride (Superficial Show)
02. Big Boy
03. Good Friend
04. Slow Day
05. Get Up
06. Everyday's A Weekend
07. Wrong
08. Your Soul Is A Pilot
09. Standing Strong
10. Mannequin
11. There You Are
12. Worlds Away

Продолжительность: 00:45:40


Код:
Код: Выделить всё
Exact Audio Copy V1.0 beta 3 from 29. August 2011

Отчёт EAC об извлечении, выполненном 15. сентября 2012, 21:18

Die Happy / Bitter To Better

Дисковод: HL-DT-STDVDRAM GE20NU11   Adapter: 1  ID: 0

Режим чтения                 : Достоверность
Использование точного потока : Да
Отключение кэша аудио        : Да
Использование указателей C2  : Нет

Коррекция смещения при чтении                     : 667
Способность читать области Lead-in и Lead-out     : Нет
Заполнение пропущенных сэмплов тишиной            : Да
Удаление блоков с тишиной в начале и конце        : Нет
При вычислениях CRC использовались нулевые сэмплы : Да
Интерфейс                                         : Встроенный Win32-интерфейс для Win NT/2000

Выходной формат          : Пользовательский кодировщик
Выбранный битрейт        : 1024 kBit/s
Качество                 : Высокий
Добавление ID3-тега      : Нет
Утилита сжатия           : C:\FLAC\flac.exe
Дополнительные параметры : -V -8 -T "DATE=%year%" -T "GENRE=%genre%" -T "ARTIST=%artist%" %source%

TOC извлечённого CD

     Трек |   Старт  | Длительность | Начальный сектор | Конечный сектор
    ---------------------------------------------------------------------
       1  |  0:00.00 |    3:02.53   |           0      |      13702
       2  |  3:02.53 |    4:29.73   |       13703      |      33950
       3  |  7:32.51 |    3:45.63   |       33951      |      50888
       4  | 11:18.39 |    4:23.14   |       50889      |      70627
       5  | 15:41.53 |    3:36.25   |       70628      |      86852
       6  | 19:18.03 |    3:43.68   |       86853      |     103645
       7  | 23:01.71 |    3:32.59   |      103646      |     119604
       8  | 26:34.55 |    3:58.61   |      119605      |     137515
       9  | 30:33.41 |    3:51.43   |      137516      |     154883
      10  | 34:25.09 |    2:51.24   |      154884      |     167732
      11  | 37:16.33 |    4:04.73   |      167733      |     186105

Характеристики диапазона извлечения и сообщения об ошибках

Выбранный диапазон

     Имя файла D:\flac\Die Happy\2005 - Die Happy - Bitter To Better\Die Happy - Bitter To Better.wav

     Пиковый уровень 99.8 %
     Скорость извлечения 1.6 X
     Качество диапазона 99.9 %
     CRC теста 61659998
     CRC копии 61659998
     Копирование... OK

Ошибок не произошло

AccurateRip: сводка

Трек  1  : извлечено точно (доверие 21)  [1BFC4FF7]  (AR v1)
Трек  2  : извлечено точно (доверие 21)  [0FD35755]  (AR v1)
Трек  3  : извлечено точно (доверие 21)  [35B545F3]  (AR v1)
Трек  4  : извлечено точно (доверие 21)  [C15AFA73]  (AR v1)
Трек  5  : извлечено точно (доверие 21)  [9BD21D53]  (AR v1)
Трек  6  : извлечено точно (доверие 21)  [8E8031BA]  (AR v1)
Трек  7  : извлечено точно (доверие 21)  [11A28188]  (AR v1)
Трек  8  : извлечено точно (доверие 21)  [45989290]  (AR v1)
Трек  9  : извлечено точно (доверие 21)  [19C3E51E]  (AR v1)
Трек 10  : извлечено точно (доверие 21)  [9D71222F]  (AR v1)
Трек 11  : извлечено точно (доверие 21)  [4EC06D00]  (AR v1)

Все треки извлечены точно

Конец отчёта

---- CUETools DB Plugin V2.1.3

[CTDB TOCID: vtwGLAsBgWPoPQ0mVx6PdwqJfkA-] found, Submit result: vtwGLAsBgWPoPQ0mVx6PdwqJfkA- has been confirmed
[07cb38d8] (1/1) Accurately ripped

==== Контрольная сумма отчёта 7270A79CAF8FDEBAD07C8AD893F17A7B9E4D2078384B57A8BD7531B3155B80C6 ====


Код:
Код: Выделить всё
-----------------------

DON'T MODIFY THIS FILE

-----------------------

PERFORMER: auCDtect Task Manager, ver. 1.6.0 RC1 build 1.6.0.1
Copyright (c) 2008-2010 y-soft. All rights reserved
http:/y-soft.org

ANALYZER: auCDtect: CD records authenticity detector, version 0.8.2
Copyright (c) 2004 Oleg Berngardt. All rights reserved.
Copyright (c) 2004 Alexander Djourik. All rights reserved.

FILE: 11.Die Happy - Stranded.flac
  Size: 32486537 Hash: 1BCF9610C105EC817A714BAFE25F0EFB Accuracy: -m0
  Conclusion: CDDA 99%
  Signature: F3DA2E0CBD2857D0663E07F92B98825682FF041C
FILE: 10.Die Happy - Don't Be Scared.flac
  Size: 24139389 Hash: 389F508310B2437CAF4AF46D455627C7 Accuracy: -m0
  Conclusion: CDDA 100%
  Signature: C5FA1A6969C3E3EB4F487E1E6B7B5CC75AD17245
FILE: 09.Die Happy - If I Could Fly.flac
  Size: 31708883 Hash: 5B075E90DA29F524847D382C3992B823 Accuracy: -m0
  Conclusion: CDDA 100%
  Signature: 1F7512A8B43B3F43F2DEE0CAB1315B2E674708F1
FILE: 08.Die Happy - Inside.flac
  Size: 27051081 Hash: 3678B0685A79461FFE63A2FE1C065031 Accuracy: -m0
  Conclusion: CDDA 100%
  Signature: 7987D2BD22D94F05459111FC4CF3DB86B17EE148
FILE: 07.Die Happy - Blood Cell Traffic Jam.flac
  Size: 30511115 Hash: BA7B1921528759818F1A1BFB410EA1D4 Accuracy: -m0
  Conclusion: CDDA 100%
  Signature: 4E7DCEB3C2162C852A0145824051ED2E759D0E5C
FILE: 06.Die Happy - I Am.flac
  Size: 29597522 Hash: 24C6FBAB2B8F5581EB5B6BBC4811980B Accuracy: -m0
  Conclusion: CDDA 99%
  Signature: 97254C75D86A350699AC9D0CF18061EE1A7841CB
FILE: 05.Die Happy - Love To Hate You.flac
  Size: 30672975 Hash: DD5450B7456F93A4B703D11A419163DC Accuracy: -m0
  Conclusion: CDDA 99%
  Signature: 2E0EE1A8838B3698AB05A0A9F428E2FA030206B7
FILE: 04.Die Happy - Perfect.flac
  Size: 34058283 Hash: A3258C59F684AEB1F17A76C8C8974754 Accuracy: -m0
  Conclusion: CDDA 99%
  Signature: 7645B705A99FBD0D775A155CAC83158E9663BBC9
FILE: 03.Die Happy - Big Big Trouble.flac
  Size: 31889217 Hash: 05AD26FC0F0C6E17525240113152E733 Accuracy: -m0
  Conclusion: CDDA 100%
  Signature: 608A5D75304D10EACA10C28DF3DF0DAB8584BA19
FILE: 02.Die Happy - In Love.flac
  Size: 37114120 Hash: 61FDC98F0846C195371C6563B5C56DA2 Accuracy: -m0
  Conclusion: CDDA 100%
  Signature: 08FD0399EA0B34CEAD4EF684A2C7B14DCE1DA486
FILE: 01.Die Happy - Bitter To Better.flac
  Size: 25591461 Hash: 636B7F7320C3A2801F3CDBB8F3988B80 Accuracy: -m0
  Conclusion: CDDA 100%
  Signature: 0A38F717DE9169BB4791262EB0A29ECAC4D07FFD



#777Треклист:

01. Addictive
02. Wanna Be Your Girl
03. Hello
04. None Of Your Business
05. Cherry Girl
06. Attitude
07. The Ordinary Song
08. Whatever
09. You Cry
10. Extraordinary Me
11. Gimme Gimme
12. Black Painted Heaven
13. Big Big Trouble
14. Supersonic Speed (Unplugged)

Продолжительность: 00:49:10


Код:
Код: Выделить всё
Exact Audio Copy V1.0 beta 3 from 29. August 2011

Отчёт EAC об извлечении, выполненном 16. сентября 2012, 0:02

Die Happy / No Nuts No Glory

Дисковод: HL-DT-STDVDRAM GE20NU11   Adapter: 1  ID: 0

Режим чтения                 : Достоверность
Использование точного потока : Да
Отключение кэша аудио        : Да
Использование указателей C2  : Нет

Коррекция смещения при чтении                     : 667
Способность читать области Lead-in и Lead-out     : Нет
Заполнение пропущенных сэмплов тишиной            : Да
Удаление блоков с тишиной в начале и конце        : Нет
При вычислениях CRC использовались нулевые сэмплы : Да
Интерфейс                                         : Встроенный Win32-интерфейс для Win NT/2000

Выходной формат          : Пользовательский кодировщик
Выбранный битрейт        : 1024 kBit/s
Качество                 : Высокий
Добавление ID3-тега      : Нет
Утилита сжатия           : C:\FLAC\flac.exe
Дополнительные параметры : -V -8 -T "DATE=%year%" -T "GENRE=%genre%" -T "ARTIST=%artist%" %source%

TOC извлечённого CD

     Трек |   Старт  | Длительность | Начальный сектор | Конечный сектор
    ---------------------------------------------------------------------
       1  |  0:00.00 |    3:38.42   |           0      |      16391
       2  |  3:38.42 |    3:01.14   |       16392      |      29980
       3  |  6:39.56 |    3:32.71   |       29981      |      45951
       4  | 10:12.52 |    2:52.57   |       45952      |      58908
       5  | 13:05.34 |    4:28.09   |       58909      |      79017
       6  | 17:33.43 |    3:18.54   |       79018      |      93921
       7  | 20:52.22 |    3:23.74   |       93922      |     109220
       8  | 24:16.21 |    4:03.51   |      109221      |     127496
       9  | 28:19.72 |    3:30.46   |      127497      |     143292
      10  | 31:50.43 |    3:17.19   |      143293      |     158086
      11  | 35:07.62 |    4:00.48   |      158087      |     176134
      12  | 39:08.35 |    2:38.17   |      176135      |     188001
      13  | 41:46.52 |    3:43.33   |      188002      |     204759
      14  | 45:30.10 |    3:46.49   |      204760      |     221758
      15  | 51:48.59 |    4:55.34   |      233159      |     255317

Характеристики диапазона извлечения и сообщения об ошибках

Выбранный диапазон

     Имя файла D:\flac\Die Happy\2005 - Die Happy - No Nuts No Glory\Die Happy - No Nuts No Glory.wav

     Пиковый уровень 99.0 %
     Скорость извлечения 1.6 X
     Качество диапазона 99.9 %
     CRC теста CF6233D3
     CRC копии CF6233D3
     Копирование... OK

Ошибок не произошло

AccurateRip: сводка

Трек  1  отсутствует в базе данных
Трек  2  отсутствует в базе данных
Трек  3  отсутствует в базе данных
Трек  4  отсутствует в базе данных
Трек  5  отсутствует в базе данных
Трек  6  отсутствует в базе данных
Трек  7  отсутствует в базе данных
Трек  8  отсутствует в базе данных
Трек  9  отсутствует в базе данных
Трек 10  отсутствует в базе данных
Трек 11  отсутствует в базе данных
Трек 12  отсутствует в базе данных
Трек 13  отсутствует в базе данных
Трек 14  отсутствует в базе данных

Ни одного трека нет в базе AccurateRip

Конец отчёта

---- CUETools DB Plugin V2.1.3

[CTDB TOCID: KiYxNNvMUY.AS2_3R5QCjeiRc1k-] disk not present in database, Submit result: KiYxNNvMUY.AS2_3R5QCjeiRc1k- has been uploaded

==== Контрольная сумма отчёта D21535AE149A6728004DFB95D475F37EC93384759FDE0F1D46E36FCC48007799 ====

Код:
Код: Выделить всё
-----------------------

DON'T MODIFY THIS FILE

-----------------------

PERFORMER: auCDtect Task Manager, ver. 1.6.0 RC1 build 1.6.0.1
Copyright (c) 2008-2010 y-soft. All rights reserved
http:/y-soft.org

ANALYZER: auCDtect: CD records authenticity detector, version 0.8.2
Copyright (c) 2004 Oleg Berngardt. All rights reserved.
Copyright (c) 2004 Alexander Djourik. All rights reserved.

FILE: 14.Die Happy - Supersonic Speed (Unplugged).flac
  Size: 29849588 Hash: 699872E32260798C16E75920389719DD Accuracy: -m0
  Conclusion: CDDA 100%
  Signature: 7D7D23F782AEDF5B536FDFAC67B2B68197719676
FILE: 13.Die Happy - Big Big Trouble.flac
  Size: 31066456 Hash: C29E7426EA92BE6D2C297115B9CA1829 Accuracy: -m0
  Conclusion: CDDA 100%
  Signature: 129B98E2DA57A1333853EC047BB96B0687A2C9DC
FILE: 12.Die Happy - Black Painted Heaven.flac
  Size: 19575354 Hash: F30DBCDF8F25ACCA1F7519F22B4FDA9F Accuracy: -m0
  Conclusion: CDDA 100%
  Signature: 534D4E04F8FC3D15493C05DFA518240ECB682A6C
FILE: 11.Die Happy - Gimme Gimme.flac
  Size: 30956472 Hash: 98A9D94AD245720E5A656F3A01CC34BC Accuracy: -m0
  Conclusion: CDDA 100%
  Signature: D993900879C202E233F6D7530E2302251BC62EB3
FILE: 10.Die Happy - Extraordinary Me.flac
  Size: 25647447 Hash: 1AB7214B047937F86CF588D4460BAF2B Accuracy: -m0
  Conclusion: CDDA 100%
  Signature: 3258A71B6A160EA8D857A9D81774044A4989EC67
FILE: 09.Die Happy - You Cry.flac
  Size: 28013152 Hash: F5B8B49E1E3C7DEFBC47DE5E199BEC87 Accuracy: -m0
  Conclusion: CDDA 99%
  Signature: AB9B600955AE757DEEDA87AEC1645338883FE1F2
FILE: 08.Die Happy - Whatever.flac
  Size: 31842628 Hash: CF69B276F35703D65AA893B57DEBB831 Accuracy: -m0
  Conclusion: CDDA 100%
  Signature: 11DA9FA34E52FC4B065D5B36A0869E5087F8F169
FILE: 07.Die Happy - The Ordinary Song.flac
  Size: 25262716 Hash: EE94D9F0DFDC0D8D5C03411B67F3BF15 Accuracy: -m0
  Conclusion: CDDA 100%
  Signature: 900AB2D1F9E8AD7E11F6205BE60E0B9386E6DC65
FILE: 06.Die Happy - Attitude.flac
  Size: 26421158 Hash: 46E538297E8596D812E8351C4BA052CD Accuracy: -m0
  Conclusion: CDDA 100%
  Signature: 3CC4855E1540D5912EB83411053776B351C80315
FILE: 05.Die Happy - Cherry Girl.flac
  Size: 34475107 Hash: 4F4974FB1B593B566A8B7DAC292ABCB9 Accuracy: -m0
  Conclusion: CDDA 100%
  Signature: 6E34A2C9BEDBBD200503E3369B4290B01A71B10E
FILE: 04.Die Happy - None Of Your Business.flac
  Size: 22553049 Hash: B5A41730B6E70A9F2A805A355847BD86 Accuracy: -m0
  Conclusion: CDDA 100%
  Signature: 2E12A289B3DD9B33987267C17DB6163DC9DBD1FB
FILE: 03.Die Happy - Hello.flac
  Size: 26989211 Hash: 0668B9972E2D13AD2792A73D3511EACE Accuracy: -m0
  Conclusion: CDDA 100%
  Signature: B368B8EA6622352333DB10A08E63BDD205FC10C5
FILE: 02.Die Happy - Wanna Be Your Girl.flac
  Size: 24218590 Hash: 4DAD059B1402B2A8654D8A560DE5A9F7 Accuracy: -m0
  Conclusion: CDDA 100%
  Signature: A7A07EF5C7BDE8B37F1267E0E419D9FC7445EB35
FILE: 01.Die Happy - Addictive.flac
  Size: 28599301 Hash: 728BCC267E9D3BC4B175BB8D9A7C7DF7 Accuracy: -m0
  Conclusion: CDDA 100%
  Signature: B695D099C4AAF55C0FE6D02F64A20612F3B1FF14



#777Треклист:

01. Around the World
02. Still love you
03. Don't you
04. Peaches
05. Easy come easy go
06. Sweet sensation
07. You'll never know
08. Hysteria
09. NY - Tokyo
10. Wannabe
11. Genuine venus
12. Coming home
13. The end

Продолжительность: 01:04:58


Код:
Код: Выделить всё
Exact Audio Copy V1.0 beta 3 from 29. August 2011

Отчёт EAC об извлечении, выполненном 15. сентября 2012, 16:55

Die Happy / VI

Дисковод: HL-DT-STDVDRAM GE20NU11   Adapter: 1  ID: 0

Режим чтения                 : Достоверность
Использование точного потока : Да
Отключение кэша аудио        : Да
Использование указателей C2  : Нет

Коррекция смещения при чтении                     : 667
Способность читать области Lead-in и Lead-out     : Нет
Заполнение пропущенных сэмплов тишиной            : Да
Удаление блоков с тишиной в начале и конце        : Нет
При вычислениях CRC использовались нулевые сэмплы : Да
Интерфейс                                         : Встроенный Win32-интерфейс для Win NT/2000

Выходной формат          : Пользовательский кодировщик
Выбранный битрейт        : 1024 kBit/s
Качество                 : Высокий
Добавление ID3-тега      : Нет
Утилита сжатия           : C:\FLAC\flac.exe
Дополнительные параметры : -V -8 -T "DATE=%year%" -T "GENRE=%genre%" -T "ARTIST=%artist%" %source%

TOC извлечённого CD

     Трек |   Старт  | Длительность | Начальный сектор | Конечный сектор
    ---------------------------------------------------------------------
       1  |  0:00.00 |    3:52.57   |           0      |      17456
       2  |  3:52.57 |    3:56.07   |       17457      |      35163
       3  |  7:48.64 |    3:58.16   |       35164      |      53029
       4  | 11:47.05 |    3:37.14   |       53030      |      69318
       5  | 15:24.19 |    3:59.68   |       69319      |      87311
       6  | 19:24.12 |    4:09.10   |       87312      |     105996
       7  | 23:33.22 |    4:19.25   |      105997      |     125446
       8  | 27:52.47 |    3:44.68   |      125447      |     142314
       9  | 31:37.40 |    2:38.70   |      142315      |     154234
      10  | 34:16.35 |    3:45.42   |      154235      |     171151
      11  | 38:02.02 |    3:41.41   |      171152      |     187767
      12  | 41:43.43 |    4:06.69   |      187768      |     206286
      13  | 45:50.37 |   19:10.73   |      206287      |     292609

Характеристики диапазона извлечения и сообщения об ошибках

Выбранный диапазон

     Имя файла D:\flac\Die Happy\2008 - Die Happy - VI\Die Happy - VI.wav

     Пиковый уровень 99.8 %
     Скорость извлечения 2.1 X
     Качество диапазона 100.0 %
     CRC теста 13426580
     CRC копии 13426580
     Копирование... OK

Ошибок не произошло

AccurateRip: сводка

Трек  1  : извлечено точно (доверие 2)  [E009B3E8]  (AR v2)
Трек  2  : извлечено точно (доверие 2)  [44FF64BB]  (AR v2)
Трек  3  : извлечено точно (доверие 2)  [317AA37B]  (AR v2)
Трек  4  : извлечено точно (доверие 2)  [5099FCD2]  (AR v2)
Трек  5  : извлечено точно (доверие 2)  [12B24CBE]  (AR v2)
Трек  6  : извлечено точно (доверие 2)  [1B17C943]  (AR v2)
Трек  7  : извлечено точно (доверие 2)  [B3BD4880]  (AR v2)
Трек  8  : извлечено точно (доверие 2)  [E73CF089]  (AR v2)
Трек  9  : извлечено точно (доверие 2)  [798876E9]  (AR v2)
Трек 10  : извлечено точно (доверие 2)  [EBDD6CD5]  (AR v2)
Трек 11  : извлечено точно (доверие 2)  [00ACE2E4]  (AR v2)
Трек 12  : извлечено точно (доверие 2)  [ED4D4372]  (AR v2)
Трек 13  : извлечено точно (доверие 2)  [36752135]  (AR v2)

Все треки извлечены точно

Конец отчёта

==== Контрольная сумма отчёта EDB1E8B4EA3D6A802857B87A9296F311E36CA33FC1B2EBAC23D3C230A037668A ====


Код:
Код: Выделить всё
-----------------------

DON'T MODIFY THIS FILE

-----------------------

PERFORMER: auCDtect Task Manager, ver. 1.6.0 RC1 build 1.6.0.1
Copyright (c) 2008-2010 y-soft. All rights reserved
http:/y-soft.org

ANALYZER: auCDtect: CD records authenticity detector, version 0.8.2
Copyright (c) 2004 Oleg Berngardt. All rights reserved.
Copyright (c) 2004 Alexander Djourik. All rights reserved.

FILE: 13.Die Happy - The end.flac
  Size: 64162185 Hash: 938F292EEB5A1538F902EF1C2E211D32 Accuracy: -m0
  Conclusion: CDDA 99%
  Signature: 290BFCCB948E5B2ACC419A10229E6662F34B71CA
FILE: 12.Die Happy - Coming home.flac
  Size: 31797160 Hash: 2699F355402E5132CFA1A3779563F6C9 Accuracy: -m0
  Conclusion: CDDA 100%
  Signature: F03F012159F1A2028DF434C85F92DE87539934F5
FILE: 11.Die Happy - Genuine venus.flac
  Size: 28198502 Hash: 5BA8D9B55DC3B19A6E1031C464732092 Accuracy: -m0
  Conclusion: CDDA 100%
  Signature: FAAFA86823126B56FBFEDC7D6EA35A75FDD548D9
FILE: 10.Die Happy - Wannabe.flac
  Size: 29687096 Hash: B66AEADD30194DAEF742041D39B952BF Accuracy: -m0
  Conclusion: CDDA 100%
  Signature: 9122F59E5D183ED8F3D666E6A5551E40268D22FC
FILE: 09.Die Happy - NY - Tokyo.flac
  Size: 20553789 Hash: 7D53E8BE125384ADB22AD675AA421442 Accuracy: -m0
  Conclusion: CDDA 100%
  Signature: 199CF64F80F10C5C127DCDCBC9BBB0CF2A88B443
FILE: 08.Die Happy - Hysteria.flac
  Size: 28722949 Hash: B590755B12D85081813E94102D7B55E1 Accuracy: -m0
  Conclusion: CDDA 100%
  Signature: 753A1D769B6AA8A90E52D35F9E2B3907BEDC930B
FILE: 07.Die Happy - You'll never know.flac
  Size: 32566979 Hash: 538D6EB7F80AB5311B8CB275FBDDAC28 Accuracy: -m0
  Conclusion: CDDA 100%
  Signature: D39DC4C26872238AE73FC077BCA771A183A2803E
FILE: 06.Die Happy - Sweet sensation.flac
  Size: 32370036 Hash: 9897DCBA956B0ABC8FD0B02D684A458C Accuracy: -m0
  Conclusion: CDDA 100%
  Signature: 7A6617691781A806D1D4BEF0063B0F80D1ED3359
FILE: 05.Die Happy - Easy come easy go.flac
  Size: 29583207 Hash: 58A24C2E43286F4A2E18BC2E8FB88FCB Accuracy: -m0
  Conclusion: CDDA 100%
  Signature: CABF1E313C22402D0CA4A7746D58B867587F3A62
FILE: 04.Die Happy - Peaches.flac
  Size: 28779044 Hash: 3E019B03B439FEF38DC8F5D4083D0768 Accuracy: -m0
  Conclusion: CDDA 100%
  Signature: 792FCD66B670064C7DAD8D8B4A732E77F86AB1EE
FILE: 03.Die Happy - Don't you.flac
  Size: 29338082 Hash: 596EE6A7934475F8FF7FE7DFA29A7AA6 Accuracy: -m0
  Conclusion: CDDA 100%
  Signature: BCB8B8CC52C4CB9F325D74753BABE4989CE3FF7E
FILE: 02.Die Happy - Still love you.flac
  Size: 30516569 Hash: 6DC51B2CA49F745E9887154603A3AFEB Accuracy: -m0
  Conclusion: CDDA 99%
  Signature: F5CB566A3ABAD9C8D4626A2BD1EF73517B57A80E
FILE: 01.Die Happy - Around the World.flac
  Size: 29565997 Hash: 5B963789907F2C7D5EB648124BC91A24 Accuracy: -m0
  Conclusion: CDDA 100%
  Signature: 5883304B428A97DD2A553D483CB4E32798F38363



#777Треклист:

01. Supersonic Speed 09
02. Violent Dreams 09
03. Breathing 09
04. Goodbye
05. Big Boy
06. Like A Flower
07. I Am
08. Love To Hate You
09. Whatever
10. Not That Kind Of Girl
11. Leaving You
12. The End
13. Go For It
14. Peaches
15. Slow Day
16. Wanna Be Your Girl
17. Rebel In You

Продолжительность: 01:05:47


Код:
Код: Выделить всё
Exact Audio Copy V1.0 beta 3 from 29. August 2011

Отчёт EAC об извлечении, выполненном 15. сентября 2012, 22:37

Die Happy / Most Wanted 1993-2009

Дисковод: HL-DT-STDVDRAM GE20NU11   Adapter: 1  ID: 0

Режим чтения                 : Достоверность
Использование точного потока : Да
Отключение кэша аудио        : Да
Использование указателей C2  : Нет

Коррекция смещения при чтении                     : 667
Способность читать области Lead-in и Lead-out     : Нет
Заполнение пропущенных сэмплов тишиной            : Да
Удаление блоков с тишиной в начале и конце        : Нет
При вычислениях CRC использовались нулевые сэмплы : Да
Интерфейс                                         : Встроенный Win32-интерфейс для Win NT/2000

Выходной формат          : Пользовательский кодировщик
Выбранный битрейт        : 1024 kBit/s
Качество                 : Высокий
Добавление ID3-тега      : Нет
Утилита сжатия           : C:\FLAC\flac.exe
Дополнительные параметры : -V -8 -T "DATE=%year%" -T "GENRE=%genre%" -T "ARTIST=%artist%" %source%

TOC извлечённого CD

     Трек |   Старт  | Длительность | Начальный сектор | Конечный сектор
    ---------------------------------------------------------------------
       1  |  0:00.00 |    3:37.28   |           0      |      16302
       2  |  3:37.28 |    4:28.64   |       16303      |      36466
       3  |  8:06.17 |    4:52.56   |       36467      |      58422
       4  | 12:58.73 |    3:42.60   |       58423      |      75132
       5  | 16:41.58 |    3:18.21   |       75133      |      90003
       6  | 20:00.04 |    3:15.08   |       90004      |     104636
       7  | 23:15.12 |    3:43.65   |      104637      |     121426
       8  | 26:59.02 |    3:37.52   |      121427      |     137753
       9  | 30:36.54 |    4:04.19   |      137754      |     156072
      10  | 34:40.73 |    4:01.66   |      156073      |     174213
      11  | 38:42.64 |    3:55.42   |      174214      |     191880
      12  | 42:38.31 |    4:49.54   |      191881      |     213609
      13  | 47:28.10 |    4:02.52   |      213610      |     231811
      14  | 51:30.62 |    3:38.62   |      231812      |     248223
      15  | 55:09.49 |    3:56.49   |      248224      |     265972
      16  | 59:06.23 |    3:01.54   |      265973      |     279601
      17  | 62:08.02 |    3:51.21   |      279602      |     296947

Характеристики диапазона извлечения и сообщения об ошибках

Выбранный диапазон

     Имя файла D:\flac\Die Happy\2009 - Die Happy - Most Wanted\Die Happy - Most Wanted 1993-2009.wav

     Пиковый уровень 98.9 %
     Скорость извлечения 2.0 X
     Качество диапазона 100.0 %
     CRC теста D6633105
     CRC копии D6633105
     Копирование... OK

Ошибок не произошло

AccurateRip: сводка

Трек  1  : извлечено точно (доверие 11)  [388D6DD9]  (AR v1)
Трек  2  : извлечено точно (доверие 12)  [77042B1C]  (AR v1)
Трек  3  : извлечено точно (доверие 12)  [F74513D4]  (AR v1)
Трек  4  : извлечено точно (доверие 12)  [2B39F3FD]  (AR v1)
Трек  5  : извлечено точно (доверие 12)  [D9EC9EC4]  (AR v1)
Трек  6  : извлечено точно (доверие 12)  [205602DF]  (AR v1)
Трек  7  : извлечено точно (доверие 12)  [1E81CD0B]  (AR v1)
Трек  8  : извлечено точно (доверие 12)  [CAC36A1E]  (AR v1)
Трек  9  : извлечено точно (доверие 12)  [BA8A9B1A]  (AR v1)
Трек 10  : извлечено точно (доверие 12)  [B1F30E27]  (AR v1)
Трек 11  : извлечено точно (доверие 12)  [16A242B3]  (AR v1)
Трек 12  : извлечено точно (доверие 12)  [05F893BF]  (AR v1)
Трек 13  : извлечено точно (доверие 12)  [BB86B1BA]  (AR v1)
Трек 14  : извлечено точно (доверие 12)  [817A6968]  (AR v1)
Трек 15  : извлечено точно (доверие 12)  [7051A720]  (AR v1)
Трек 16  : извлечено точно (доверие 12)  [465481D6]  (AR v1)
Трек 17  : извлечено точно (доверие 12)  [90A5498B]  (AR v1)

Все треки извлечены точно

Конец отчёта

---- CUETools DB Plugin V2.1.3

[CTDB TOCID: ixOahPgDJsDDt4Sc1B0VIRwJtl4-] found, Submit result: ixOahPgDJsDDt4Sc1B0VIRwJtl4- has been confirmed
[d71b7573] (5/5) Accurately ripped

==== Контрольная сумма отчёта AE9ADDB21FDA65EE5D657F12E0A3A119142C950B5F56F267C3E61D1FF97FB1E5 ====

Код:
Код: Выделить всё
-----------------------

DON'T MODIFY THIS FILE

-----------------------

PERFORMER: auCDtect Task Manager, ver. 1.6.0 RC1 build 1.6.0.1
Copyright (c) 2008-2010 y-soft. All rights reserved
http:/y-soft.org

ANALYZER: auCDtect: CD records authenticity detector, version 0.8.2
Copyright (c) 2004 Oleg Berngardt. All rights reserved.
Copyright (c) 2004 Alexander Djourik. All rights reserved.

FILE: 17.Die Happy - Rebel  In You.flac
  Size: 30207378 Hash: 6B39449FC6F4CE8D8001BD16D235C0E2 Accuracy: -m0
  Conclusion: CDDA 100%
  Signature: 5F572079C5500FB44172E9A77693D03412020C1D
FILE: 16.Die Happy - Wanna Be Your Girl.flac
  Size: 25102090 Hash: 050938871F9CB2240AC86EE9EAFCF8F7 Accuracy: -m0
  Conclusion: CDDA 100%
  Signature: 275499A22816205F596128A5DF4F7CF1D9EB31EB
FILE: 15.Die Happy - Slow Day.flac
  Size: 29652267 Hash: C315A73A2201773EE15F50BEB621EB82 Accuracy: -m0
  Conclusion: CDDA 100%
  Signature: 3294437BDC1D71CE6C8AD2F912B916B7BF81567D
FILE: 14.Die Happy - Peaches.flac
  Size: 30049369 Hash: D468C511E45411F2A2A0E225D29B758F Accuracy: -m0
  Conclusion: CDDA 100%
  Signature: CC25D115349AFF73B67D114BF14D0E5D43AD0B78
FILE: 13.Die Happy - Go For It.flac
  Size: 32788778 Hash: 878BC1ECB870CECF3F6BF037B3AB1524 Accuracy: -m0
  Conclusion: CDDA 100%
  Signature: 08D531B7824A4E10789D3680579E875CC409566E
FILE: 12.Die Happy - The End.flac
  Size: 38313771 Hash: 4D5DFD3262CF8F879DA5B407E1A77836 Accuracy: -m0
  Conclusion: CDDA 100%
  Signature: 6F26D3BB1C9620784B09A98A2D65A198E1016861
FILE: 11.Die Happy - Leaving You.flac
  Size: 31478874 Hash: 3A359C6BE6B1E16F586CCA1DED9F698D Accuracy: -m0
  Conclusion: CDDA 99%
  Signature: 12F78D2B2303ECA4C12E08F4CCD92166AC53B7A9
FILE: 10.Die Happy - Not That Kind Of Girl.flac
  Size: 32465203 Hash: EAFB31BEDDFD42FB54075C2EA0159D54 Accuracy: -m0
  Conclusion: CDDA 100%
  Signature: 500224F8702DDD9201730F5A9091622C935861A6
FILE: 09.Die Happy - Whatever.flac
  Size: 32964195 Hash: 0800517E679E92CFF5EB412FDE389794 Accuracy: -m0
  Conclusion: CDDA 100%
  Signature: 9EE6BBF187DB7672DCC7DD365954E5F283BDDF92
FILE: 08.Die Happy - Love To Hate You.flac
  Size: 29702849 Hash: FE9F927F144CDBEAFB7ADD017CCA8DB2 Accuracy: -m0
  Conclusion: CDDA 100%
  Signature: 804AE4754A9AE5A35781ECC588368FF024123FE0
FILE: 07.Die Happy - I Am.flac
  Size: 29269884 Hash: 91A0D8B7DC7F8E03517C3E2940EE8F7B Accuracy: -m0
  Conclusion: CDDA 100%
  Signature: 5B67D245A013A29E3520E832D39024E0E8488E9E
FILE: 06.Die Happy - Like A Flower.flac
  Size: 26988266 Hash: 125E2C580FC0F0AC8EE43CA8B5BA7641 Accuracy: -m0
  Conclusion: CDDA 100%
  Signature: C6B1E8597A4A851BA26F342E8A54076E8DB966DC
FILE: 05.Die Happy - Big Boy.flac
  Size: 27404313 Hash: 9234B57FFB412149233356F994BDFE43 Accuracy: -m0
  Conclusion: CDDA 99%
  Signature: 79445A19347B0274AD7720661A42ADF73A09D64D
FILE: 04.Die Happy - Goodbye.flac
  Size: 29563505 Hash: D3FC03C3DACA5936C0900F36EAD11F8D Accuracy: -m0
  Conclusion: CDDA 100%
  Signature: E4AD65CB898F32B1FDED5BCC0E9ED5AF04AF4FB0
FILE: 03.Die Happy - Breathing 09.flac
  Size: 35537383 Hash: 241CCF279BA17CDC1B3C88A175F30A2D Accuracy: -m0
  Conclusion: CDDA 100%
  Signature: 5BDC8E3D75FF2290BA7A99CE657CDAC22DBC0FBD
FILE: 02.Die Happy - Violent Dreams 09.flac
  Size: 35056806 Hash: 1EFEDCDFB0236B65E674F81099625DFE Accuracy: -m0
  Conclusion: CDDA 100%
  Signature: 4A4ADE15329E2CFD3396C0A3D6E09D8EEAAC5635
FILE: 01.Die Happy - Supersonic Speed 09.flac
  Size: 29298371 Hash: 01FD8BB8B7CA0F8CA3A4EA8BE43B70ED Accuracy: -m0
  Conclusion: CDDA 100%
  Signature: CAE9DE47110E92411778F26B3CEF60395EFCC1AE



#777Треклист:

01. Mesmerized
02. Dance For You Tonight
03. Superstar
04. Good Things
05. Survivor
06. Stay With Me
07. Anytime
08. Black Vicious Monster
09. Red Box
10. Bang Boom Bang
11. Help Me
12. Sweet Enemy
13. Anywhere Without You

Продолжительность: 00:48:30


Код:
Код: Выделить всё
Exact Audio Copy V1.0 beta 3 from 29. August 2011

Отчёт EAC об извлечении, выполненном 15. сентября 2012, 20:20

Die Happy / Red Box

Дисковод: HL-DT-STDVDRAM GE20NU11   Adapter: 1  ID: 0

Режим чтения                 : Достоверность
Использование точного потока : Да
Отключение кэша аудио        : Да
Использование указателей C2  : Нет

Коррекция смещения при чтении                     : 667
Способность читать области Lead-in и Lead-out     : Нет
Заполнение пропущенных сэмплов тишиной            : Да
Удаление блоков с тишиной в начале и конце        : Нет
При вычислениях CRC использовались нулевые сэмплы : Да
Интерфейс                                         : Встроенный Win32-интерфейс для Win NT/2000

Выходной формат          : Пользовательский кодировщик
Выбранный битрейт        : 1024 kBit/s
Качество                 : Высокий
Добавление ID3-тега      : Нет
Утилита сжатия           : C:\FLAC\flac.exe
Дополнительные параметры : -V -8 -T "DATE=%year%" -T "GENRE=%genre%" -T "ARTIST=%artist%" %source%

TOC извлечённого CD

     Трек |   Старт  | Длительность | Начальный сектор | Конечный сектор
    ---------------------------------------------------------------------
       1  |  0:00.00 |    4:24.50   |           0      |      19849
       2  |  4:24.50 |    3:34.73   |       19850      |      35972
       3  |  7:59.48 |    4:09.54   |       35973      |      54701
       4  | 12:09.27 |    4:22.11   |       54702      |      74362
       5  | 16:31.38 |    4:06.04   |       74363      |      92816
       6  | 20:37.42 |    3:32.00   |       92817      |     108716
       7  | 24:09.42 |    3:28.32   |      108717      |     124348
       8  | 27:37.74 |    3:47.16   |      124349      |     141389
       9  | 31:25.15 |    1:09.63   |      141390      |     146627
      10  | 32:35.03 |    4:03.64   |      146628      |     164916
      11  | 36:38.67 |    4:10.74   |      164917      |     183740
      12  | 40:49.66 |    4:27.24   |      183741      |     203789
      13  | 45:17.15 |    3:12.66   |      203790      |     218255

Характеристики диапазона извлечения и сообщения об ошибках

Выбранный диапазон

     Имя файла D:\flac\Die Happy\2010 - Die Happy - Red Box\Die Happy - Red Box.wav

     Пиковый уровень 98.2 %
     Скорость извлечения 1.7 X
     Качество диапазона 100.0 %
     CRC теста 416772F3
     CRC копии 416772F3
     Копирование... OK

Ошибок не произошло

AccurateRip: сводка

Трек  1  : извлечено точно (доверие 6)  [5824F4DE]  (AR v2)
Трек  2  : извлечено точно (доверие 5)  [39651107]  (AR v2)
Трек  3  : извлечено точно (доверие 6)  [F28BB7BE]  (AR v2)
Трек  4  : извлечено точно (доверие 6)  [99BF25D6]  (AR v2)
Трек  5  : извлечено точно (доверие 6)  [564E4E8E]  (AR v2)
Трек  6  : извлечено точно (доверие 6)  [EFE2E120]  (AR v2)
Трек  7  : извлечено точно (доверие 6)  [779F5523]  (AR v2)
Трек  8  : извлечено точно (доверие 6)  [E300270D]  (AR v2)
Трек  9  : извлечено точно (доверие 6)  [7B03B43B]  (AR v2)
Трек 10  : извлечено точно (доверие 6)  [58812153]  (AR v2)
Трек 11  : извлечено точно (доверие 6)  [236BC6CC]  (AR v2)
Трек 12  : извлечено точно (доверие 6)  [C83FE251]  (AR v2)
Трек 13  : извлечено точно (доверие 6)  [355F77D7]  (AR v2)

Все треки извлечены точно

Конец отчёта

---- CUETools DB Plugin V2.1.3

[CTDB TOCID: 4.LGSeqTIdNx8j5Ht0z7Reacp5A-] found, Submit result: 4.LGSeqTIdNx8j5Ht0z7Reacp5A- has been confirmed
[f2d18e09] (6/6) Accurately ripped

==== Контрольная сумма отчёта 9D27307D016654520CA8822A67EE217DABADF183C1A37EBA2DE8796975B25F5D ====


Код:
Код: Выделить всё
-----------------------

DON'T MODIFY THIS FILE

-----------------------

PERFORMER: auCDtect Task Manager, ver. 1.6.0 RC1 build 1.6.0.1
Copyright (c) 2008-2010 y-soft. All rights reserved
http:/y-soft.org

ANALYZER: auCDtect: CD records authenticity detector, version 0.8.2
Copyright (c) 2004 Oleg Berngardt. All rights reserved.
Copyright (c) 2004 Alexander Djourik. All rights reserved.

FILE: 13.Die Happy - Anywhere Without You.flac
  Size: 23221270 Hash: 2FFD50CE85FCEDF7FF0249836BF307E0 Accuracy: -m0
  Conclusion: CDDA 100%
  Signature: D2979B7C108D876023FDFC41861F783D9C3E0EC5
FILE: 12.Die Happy - Sweet Enemy.flac
  Size: 36050555 Hash: B491064B1D3697729196218C2AE0ACBD Accuracy: -m0
  Conclusion: CDDA 99%
  Signature: A6F6E80247E67176EDB70FC29FBD68BD0A92D10E
FILE: 11.Die Happy - Help Me.flac
  Size: 33047308 Hash: ED48CB242A21B98A878918C58346E146 Accuracy: -m0
  Conclusion: CDDA 99%
  Signature: 662EEB0F9D9022FBB1785A2B9826202CCDCBC9D3
FILE: 10.Die Happy - Bang Boom Bang.flac
  Size: 33489364 Hash: 71796D5CC1DBAC0372F7E080E63B0CAD Accuracy: -m0
  Conclusion: CDDA 100%
  Signature: 246C2B7D3BEB2334C007E08020074CA2EA05318A
FILE: 09.Die Happy - Red Box.flac
  Size: 9429251 Hash: 9371CEE26A8998B2681573DD3E35804E Accuracy: -m0
  Conclusion: CDDA 99%
  Signature: 8F65C23A8A6503651B45B55BC74DF09163FF4749
FILE: 08.Die Happy - Black Vicious Monster.flac
  Size: 29438620 Hash: 705EC6404BDC6DA94AED2CE4980B5850 Accuracy: -m0
  Conclusion: CDDA 100%
  Signature: 8BD254B6255C60E06E818C5E3E10580DCE07FCAD
FILE: 07.Die Happy - Anytime.flac
  Size: 25505373 Hash: 1C0749560E9C5384590241CC4A446E42 Accuracy: -m0
  Conclusion: CDDA 100%
  Signature: CA1108016DA4D0E0C5667A9DAAED75B098AE0AA3
FILE: 06.Die Happy - Stay With Me.flac
  Size: 29829199 Hash: 9B21559057D35202A966ACA0FBCD17B5 Accuracy: -m0
  Conclusion: CDDA 100%
  Signature: 4E11929F2122B4836AC7B7F1ADFA742B008E70A9
FILE: 05.Die Happy - Survivor.flac
  Size: 33839286 Hash: B559983609CF7866142B124E4361CF33 Accuracy: -m0
  Conclusion: CDDA 99%
  Signature: 95B8F3E288DA95D42EA2EA442CEC208528FA245B
FILE: 04.Die Happy - Good Things.flac
  Size: 33514198 Hash: 5C87CDE58B6C5CBEC208C7EF83459D20 Accuracy: -m0
  Conclusion: CDDA 100%
  Signature: 9D42E646A9D42E2BE4242EC09C18E8439744EEAD
FILE: 03.Die Happy - Superstar.flac
  Size: 33185807 Hash: E21E011ED077E4E0AB09DC295BD36208 Accuracy: -m0
  Conclusion: CDDA 100%
  Signature: FDBED537FAA7294CC7F68E60FB539DCA86B7A3AC
FILE: 02.Die Happy - Dance For You Tonight.flac
  Size: 30476588 Hash: D6BF462059294F7A6DD7F969665EB42F Accuracy: -m0
  Conclusion: CDDA 100%
  Signature: 475406B5B0AE959A56BFC45803F683E1FA69A4BE
FILE: 01.Die Happy - Mesmerized.flac
  Size: 36219118 Hash: 86FA6DB2CC02F35D1A0253910FAA3FAC Accuracy: -m0
  Conclusion: CDDA 100%
  Signature: C272E3711BD64D3EEEFE79250FCCF1D569B92728



Тип рипа: Tracks+.cue
Аудиокодек: FLAC
Битрейт аудио: lossless
Правила, инструкции, FAQ!!!
Торрент  Добавлен [16 мар 2014, 00:45] Скачать торрент Магнет ссылка
Скачать торрент
27.38 КБ

Статус
Проверен 
 
Размер  2.94 ГБ
Приватный: Нет (DHT включён)
.torrent скачан  0
Как залить торрент? | Как скачать Torrent? | Как смотреть и слушать онлайн?  
Гость
 



Вернуться в Дискографии (Зарубежные)

Кто сейчас на конференции

Сейчас этот форум просматривают: нет зарегистрированных пользователей и гости: 0